osu file format v14

[General]
AudioFilename: audio.mp3
AudioLeadIn: 0
PreviewTime: 50769
Countdown: 0
SampleSet: Soft
StackLeniency: 0.7
Mode: 0
LetterboxInBreaks: 0
WidescreenStoryboard: 1

[Editor]
Bookmarks: 765,14108,24773,35439,46106,51439,62106,72773,82106
DistanceSpacing: 1.4
BeatDivisor: 8
GridSize: 32
TimelineZoom: 1.6

[Metadata]
Title:Akuma no Ko (TV Size)
TitleUnicode:悪魔の子 (TV Size)
Artist:Ai Higuchi
ArtistUnicode:ヒグチアイ
Creator:hypercyte
Version:Hard
Source:進撃の巨人 Attack on Titan The Final Season Part 2
Tags:aot snk attack on titan shingeki no kyojin season 4 four final season part 2 two devil's child of evil demon hypercute eren jaeger yaeger freedom ending ed 2 last season pop jpop j-pop japanese orchestral anime higuchiai
BeatmapID:3412668
BeatmapSetID:1670886

[Difficulty]
HPDrainRate:4
CircleSize:3.8
OverallDifficulty:5
ApproachRate:8
SliderMultiplier:2.8
SliderTickRate:1

[Events]
//Background and Video events
0,0,"R41Pa.jpg",0,0
Video,50,"akuma no ko 32rf.mp4"
//Break Periods
2,46102,48023
//Storyboard Layer 0 (Background)
//Storyboard Layer 1 (Fail)
//Storyboard Layer 2 (Pass)
//Storyboard Layer 3 (Foreground)
//Storyboard Layer 4 (Overlay)
//Storyboard Sound Samples

[TimingPoints]
765,666.666666666667,4,2,4,30,1,0
765,-133.333333333333,4,2,4,30,0,0
769,-133.333333333333,4,2,4,30,0,0
1765,652.173913043479,4,2,4,30,1,0
2091,655.737704918033,4,2,4,30,1,0
2091,-133.333333333333,4,2,4,30,0,0
3427,681.818181818182,4,2,4,30,1,0
3427,-133.333333333333,4,2,4,30,0,0
4279,-133.333333333333,4,2,4,30,0,0
4961,659.340659340659,4,2,4,30,1,8
5125,652.173913043478,4,2,4,30,1,8
5125,-133.333333333333,4,2,4,30,0,0
6108,666.666666666667,4,2,4,30,1,0
6108,-133.333333333333,4,2,4,30,0,0
14102,-133.333333333333,4,2,4,40,0,0
16745,666.666666666667,4,2,4,40,1,0
16745,-133.333333333333,4,2,4,40,0,0
17245,689.655172413793,4,2,4,40,1,0
17934,618.556701030928,4,2,4,40,1,0
18245,666.666666666667,4,2,4,40,1,0
18245,-133.333333333333,4,2,4,40,0,0
19411,681.818181818182,4,2,4,40,1,0
19411,-133.333333333333,4,2,4,40,0,0
20774,666.666666666667,4,2,4,40,1,8
20774,-133.333333333333,4,2,4,40,0,0
22107,666.666666666667,4,2,4,40,1,0
22107,-133.333333333333,4,2,4,40,0,0
24773,666.666666666667,4,2,4,50,1,0
25773,-117.647058823529,4,2,4,50,0,0
33356,-117.647058823529,4,2,4,5,0,0
33439,-117.647058823529,4,2,4,50,0,0
34023,-117.647058823529,4,2,4,5,0,0
34106,-117.647058823529,4,2,4,50,0,0
41439,-117.647058823529,4,2,4,60,0,0
44606,-117.647058823529,4,2,4,65,0,0
46106,-117.647058823529,4,2,4,44,0,0
46273,-117.647058823529,4,2,4,30,0,0
49439,-117.647058823529,4,2,4,70,0,0
51439,-100,4,2,4,70,0,0
82106,-133.333333333333,4,2,4,70,0,0
82773,-133.333333333333,4,2,4,30,0,0
83106,-133.333333333333,4,2,4,35,0,0
87189,-133.333333333333,4,2,4,35,0,0

[Colours]
Combo1 : 255,169,132
Combo2 : 207,180,181
Combo3 : 155,159,187
Combo4 : 191,190,162
Combo5 : 255,91,140
Combo6 : 255,157,255
Combo7 : 196,159,255
Combo8 : 138,211,255

[HitObjects]
363,151,765,6,0,P|354:104|342:96,2,52.5000020027161,2|0|0,0:0|0:0|0:0,0:0:0:0:
294,173,1265,2,0,P|269:136|202:137,1,105.000004005432
137,258,1928,5,0,0:0:0:0:
137,258,2091,2,0,P|147:222|164:213,2,52.5000020027161,2|0|0,0:0|0:0|0:0,0:0:0:0:
198,298,2582,2,0,P|252:270|308:283,1,105.000004005432
441,268,3238,1,0,0:0:0:0:
441,268,3427,2,0,P|473:303|472:315,2,52.5000020027161,2|0|0,0:0|0:0|0:0,0:0:0:0:
399,328,3938,1,0,0:0:0:0:
331,197,4279,6,0,P|326:120|339:72,2,105.000004005432,2|2|2,0:0|0:0|0:0,0:0:0:0:
285,255,5125,2,0,P|269:269|237:271,1,52.5000020027161,2|2,0:0|0:0,0:0:0:0:
174,236,5451,2,0,P|149:191|155:172,1,52.5000020027161
186,128,5777,2,0,P|218:109|239:114,1,52.5000020027161
302,130,6108,2,0,P|326:100|353:97,2,52.5000020027161,2|0|0,0:0|0:0|0:0,0:0:0:0:
357,178,6608,2,0,P|389:184|420:255,1,105.000004005432
296,317,7274,85,0,0:0:0:0:
296,317,7441,2,0,P|334:295|349:298,2,52.5000020027161,2|0|0,0:0|0:0|0:0,0:0:0:0:
239,364,7941,2,0,P|180:377|137:350,1,105.000004005432
123,210,8608,1,0,0:0:0:0:
123,210,8774,2,0,P|88:209|79:225,2,52.5000020027161,2|0|0,0:0|0:0|0:0,0:0:0:0:
175,261,9274,1,0,0:0:0:0:
274,153,9608,5,2,0:0:0:0:
274,153,9774,1,2,0:0:0:0:
274,153,9941,1,2,0:0:0:0:
387,246,10274,2,0,P|376:283|379:307,2,52.5000020027161
481,133,10941,2,0,P|483:95|463:81,2,52.5000020027161,2|2|2,0:0|0:0|0:0,0:0:0:0:
415,167,11441,1,2,0:0:0:0:
256,192,11608,12,6,13441,0:0:0:0:
120,217,13941,5,0,0:0:0:0:
120,217,14108,2,0,P|82:232|80:239,2,52.5000020027161,2|0|0,0:0|0:0|0:0,0:0:0:0:
173,165,14608,2,0,P|222:177|245:229,1,105.000004005432
368,120,15274,85,0,0:0:0:0:
368,120,15441,2,0,P|325:106|313:116,2,52.5000020027161,2|0|0,0:0|0:0|0:0,0:0:0:0:
416,175,15941,2,0,P|401:229|397:301,1,105.000004005432
265,344,16608,5,0,0:0:0:0:
265,344,16745,2,0,P|226:328|212:334,2,52.5000020027161,2|0|0,0:0|0:0|0:0,0:0:0:0:
331,376,17245,1,0,0:0:0:0:
359,231,17589,1,0,0:0:0:0:
273,111,17934,1,0,0:0:0:0:
379,9,18245,6,0,P|419:25|426:45,2,52.5000020027161,2|2|2,0:0|0:0|0:0,0:0:0:0:
305,4,18745,2,0,P|276:10|260:31,1,52.5000020027161
204,72,19078,2,0,P|159:87|139:81,1,52.5000020027161
83,71,19411,86,0,P|69:40|86:15,2,52.5000020027161,2|0|0,0:0|0:0|0:0,0:0:0:0:
84,144,19922,2,0,P|95:215|92:264,1,105.000004005432
211,336,20604,5,0,0:0:0:0:
211,336,20774,2,0,P|176:345|162:364,2,52.5000020027161,2|0|0,0:0|0:0|0:0,0:0:0:0:
284,330,21274,2,0,P|312:338|328:355,2,52.5000020027161
403,227,21940,5,0,0:0:0:0:
403,227,22107,2,0,L|468:243,2,52.5000020027161,2|2|2,0:0|0:0|0:0,0:0:0:0:
356,159,22607,1,0,0:0:0:0:
234,241,22940,1,0,0:0:0:0:
256,192,23440,12,8,24774,0:2:0:0:
183,137,25773,86,0,B|149:144|130:163|130:163|106:142|70:140,2,119.000002269745,0|10|2,0:0|0:0|0:0,0:0:0:0:
326,60,26773,2,0,B|387:62|434:103|434:103|467:62|551:46,1,238.00000453949,2|10,0:0|0:2,0:0:0:0:
436,187,27773,1,0,0:0:0:0:
436,187,28439,6,0,B|403:192|382:217|382:217|358:198|309:201,2,119.000002269745,0|2|2,0:0|0:0|0:0,0:0:0:0:
398,26,29439,2,0,B|435:31|454:53|454:53|477:39|525:40,2,119.000002269745,2|2|10,0:0|0:0|0:2,0:0:0:0:
315,40,30273,1,8,0:2:0:0:
315,40,30439,1,8,0:2:0:0:
79,275,31106,6,0,B|114:258|124:236|124:236|142:256|181:265,1,119.000002269745,0|10,0:0|0:0,0:0:0:0:
312,169,31773,2,0,B|340:181|357:208|357:208|382:187|414:179,2,119.000002269745,10|2|2,0:2|0:0|0:0,0:0:0:0:
148,137,32773,1,10,0:0:0:0:
291,51,33106,1,0,0:0:0:0:
428,145,33439,86,0,B|374:165|349:229|349:229|281:195|223:220,3,238.00000453949,2|2|0|12,0:0|0:0|0:0|0:0,0:0:0:0:
93,306,35773,1,8,0:0:0:0:
15,158,36106,1,2,0:0:0:0:
180,143,36439,6,0,B|213:129|233:108|233:108|256:121|308:127,2,119.000002269745,0|10|10,0:0|0:0|0:0,0:0:0:0:
238,299,37439,2,0,B|271:313|291:333|291:333|314:321|366:314,2,119.000002269745,2|2|10,0:0|0:0|0:0,0:0:0:0:
75,259,38439,1,8,0:0:0:0:
163,117,38773,1,0,0:0:0:0:
13,44,39106,6,0,B|40:71|43:94|43:94|53:67|87:46,1,119.000002269745,0|2,0:0|0:0,0:0:0:0:
244,84,39773,2,0,B|280:69|297:53|297:53|315:71|351:86,2,119.000002269745,10|2|2,0:0|0:0|0:0,0:0:0:0:
291,243,40773,1,8,0:0:0:0:
291,243,40939,1,8,0:0:0:0:
365,205,41106,1,8,0:0:0:0:
465,338,41439,1,2,0:0:0:0:
451,88,41939,85,10,0:0:0:0:
451,88,42106,2,0,B|404:88|366:62|366:62|332:97|274:101,1,178.500003404617,10|0,0:0|0:0,0:0:0:0:
204,97,42773,1,2,0:0:0:0:
89,319,43273,5,2,0:0:0:0:
171,314,43439,2,0,B|262:294|311:232|311:232|390:291|499:290,1,357.000006809235,10|2,0:0|0:0,0:0:0:0:
509,208,44606,6,0,B|443:169|420:108|420:108|343:134|258:106,1,297.500005674362,10|0,0:0|0:0,0:0:0:0:
256,192,48773,12,0,50439,0:0:0:0:
220,150,50773,6,0,P|212:117|230:97,5,39.6666674232483,2|2|2|2|2|2,0:0|0:0|0:0|0:0|0:0|0:0,0:0:0:0:
288,117,51439,6,0,P|384:126|442:302,1,280,14|0,0:0|0:0,0:0:0:0:
256,306,52439,2,0,P|285:321|284:339,2,46.6666666666667,8|8|8,0:1|0:1|0:1,0:0:0:0:
180,308,52773,2,0,P|114:325|68:236,1,140,10|0,0:1|0:0,0:0:0:0:
173,114,53439,6,0,P|222:112|253:141,1,70
299,200,53773,2,0,P|348:202|379:173,1,70,0|8,0:0|0:0,0:0:0:0:
430,118,54106,2,0,P|457:178|441:393,1,280,10|0,0:0|0:0,0:0:0:0:
299,254,55106,5,8,0:1:0:0:
215,297,55273,1,8,0:1:0:0:
215,297,55356,1,8,0:1:0:0:
215,297,55439,2,0,P|199:241|214:225,1,70,10|8,0:1|0:1,0:0:0:0:
442,66,56106,2,0,P|393:27|244:48,1,210
191,116,56773,6,0,B|257:128|303:191|303:191|367:154|471:167,1,280,10|0,0:0|0:0,0:0:0:0:
301,303,57773,2,0,P|313:308|312:344,2,46.6666666666667,8|8|8,0:1|0:1|0:1,0:0:0:0:
236,343,58106,2,0,P|157:317|80:313,1,140,10|0,0:1|0:0,0:0:0:0:
269,212,58773,54,0,P|274:150|243:131,1,70,2|0,0:0|0:0,0:0:0:0:
177,126,59106,2,0,P|151:90|109:97,1,70,2|8,0:0|0:0,0:0:0:0:
39,129,59439,2,0,P|76:222|82:277,2,140,10|2|2,0:0|0:0|0:0,0:0:0:0:
219,52,60439,1,10,0:0:0:0:
281,127,60606,5,8,0:1:0:0:
281,127,60689,1,8,0:1:0:0:
281,127,60773,2,0,L|371:105,1,70,10|10,0:1|0:1,0:0:0:0:
378,204,61106,2,0,L|310:220,1,70,2|2,0:0|0:0,0:0:0:0:
251,299,61439,2,0,L|100:260,1,140,2|2,0:0|0:0,0:0:0:0:
282,160,62106,6,0,P|378:169|503:30,1,280,12|0,0:0|0:0,0:0:0:0:
306,12,63106,2,0,P|335:27|334:45,2,46.6666666666667,8|8|8,0:1|0:1|0:1,0:0:0:0:
263,76,63439,2,0,P|183:67|122:101,1,140,10|0,0:1|0:0,0:0:0:0:
124,288,64106,6,0,P|157:315|200:298,1,70
240,233,64439,2,0,P|265:200|300:202,1,70,0|8,0:0|0:0,0:0:0:0:
366,261,64773,2,0,P|425:246|415:57,1,280,8|0,0:0|0:0,0:0:0:0:
241,127,65773,5,8,0:1:0:0:
162,86,65940,1,8,0:1:0:0:
162,86,66023,1,8,0:1:0:0:
162,86,66106,2,0,P|158:131|150:155,1,70,10|8,0:1|0:1,0:0:0:0:
366,354,66773,2,0,P|356:242|364:115,1,210,0|2,0:0|0:0,0:0:0:0:
272,98,67440,54,0,B|206:110|160:173|160:173|96:136|-8:149,1,280,10|0,0:0|0:0,0:0:0:0:
141,302,68440,2,0,P|129:307|130:343,2,46.6666666666667,8|8|8,0:1|0:1|0:1,0:0:0:0:
206,348,68773,2,0,B|250:355|322:328|299:320|351:297|420:298,1,210,10|0,0:1|0:0,0:0:0:0:
477,229,69440,6,0,P|485:189|457:175,1,70,2|0,0:0|0:0,0:0:0:0:
366,185,69773,2,0,P|358:155|314:155,1,70,2|8,0:0|0:0,0:0:0:0:
242,204,70106,2,0,P|172:223|100:190,2,140,10|2|2,0:0|0:0|0:0,0:0:0:0:
349,39,71106,1,2,0:0:0:0:
377,142,71273,5,8,0:1:0:0:
377,142,71356,1,8,0:1:0:0:
377,142,71439,2,0,P|376:205|389:362,1,210,8|0,0:1|0:0,0:0:0:0:
289,351,72106,6,0,P|253:337|246:306,1,70,2|2,0:0|0:0,0:0:0:0:
281,217,72439,2,0,P|280:170|256:150,1,70,2|2,0:0|0:0,0:0:0:0:
217,142,72689,1,8,0:1:0:0:
217,142,72773,1,12,0:0:0:0:
95,295,73106,1,0,0:0:0:0:
272,384,73439,1,8,0:0:0:0:
272,384,73606,1,8,0:0:0:0:
352,327,73773,1,12,0:0:0:0:
374,132,74106,6,0,P|347:105|359:73,1,70,2|2,0:0|0:0,0:0:0:0:
442,33,74439,2,0,P|482:57|482:81,1,70,2|2,0:0|0:0,0:0:0:0:
465,173,74773,2,0,P|455:214|465:245,1,70,2|10,0:0|0:0,0:0:0:0:
405,319,75106,2,0,P|369:281|349:280,1,70,10|2,0:0|0:0,0:0:0:0:
262,245,75439,53,8,0:0:0:0:
275,49,75773,1,0,0:0:0:0:
79,53,76106,1,8,0:1:0:0:
79,53,76273,1,8,0:1:0:0:
8,120,76439,1,8,0:1:0:0:
111,286,76773,1,0,0:0:0:0:
376,158,77273,5,0,0:0:0:0:
376,158,77439,2,0,P|372:108|373:77,1,70,2|10,0:0|0:0,0:0:0:0:
422,234,77773,2,0,P|422:268|425:303,1,70,10|2,0:0|0:0,0:0:0:0:
334,229,78106,2,0,P|254:234|146:315,1,210,8|0,0:0|0:0,0:0:0:0:
84,235,78773,6,0,P|109:193|107:164,1,70,2|2,0:0|0:0,0:0:0:0:
190,118,79106,2,0,P|178:71|156:60,1,70,10|10,0:1|0:1,0:0:0:0:
112,60,79356,1,0,0:0:0:0:
112,60,79439,1,12,0:0:0:0:
383,172,79939,5,0,0:0:0:0:
383,172,80106,2,0,P|424:147|424:123,1,70,2|2,0:0|0:0,0:0:0:0:
336,86,80439,2,0,P|315:45|291:43,1,70,2|2,0:0|0:0,0:0:0:0:
262,135,80773,2,0,P|219:146|199:239,1,140,8|0,0:0|0:0,0:0:0:0:
265,296,81273,1,8,0:0:0:0:
339,232,81439,1,10,0:0:0:0:
501,341,81773,6,0,P|507:288|524:201,1,140,2|4,0:0|0:0,0:0:0:0:
246,103,82773,1,2,0:0:0:0:
17,287,83439,1,0,0:0:0:0:
84,156,83773,1,0,0:0:0:0:
149,24,84106,1,2,0:0:0:0:
323,260,84773,53,0,0:0:0:0:
58,131,85439,1,2,0:0:0:0:
348,178,86106,1,0,0:0:0:0:
463,87,86439,1,0,0:0:0:0:
330,21,86773,1,2,0:0:0:0:
330,21,87106,6,0,L|298:27,1,26.2500010013581,2|0,3:1|0:0,0:0:0:0:
