osu file format v14

[General]
AudioFilename: audio.mp3
AudioLeadIn: 0
PreviewTime: 50769
Countdown: 0
SampleSet: Soft
StackLeniency: 0.7
Mode: 0
LetterboxInBreaks: 0
WidescreenStoryboard: 1

[Editor]
Bookmarks: 765,14108,24773,35439,46106,51439,62106,72773,82106
DistanceSpacing: 0.9
BeatDivisor: 8
GridSize: 32
TimelineZoom: 1.6

[Metadata]
Title:Akuma no Ko (TV Size)
TitleUnicode:悪魔の子 (TV Size)
Artist:Ai Higuchi
ArtistUnicode:ヒグチアイ
Creator:hypercyte
Version:Easy
Source:進撃の巨人 Attack on Titan The Final Season Part 2
Tags:aot snk attack on titan shingeki no kyojin season 4 four final season part 2 two devil's child of evil demon hypercute eren jaeger yaeger freedom ending ed 2 last season pop jpop j-pop japanese orchestral anime higuchiai
BeatmapID:3414326
BeatmapSetID:1670886

[Difficulty]
HPDrainRate:2
CircleSize:3
OverallDifficulty:2
ApproachRate:4
SliderMultiplier:1.7
SliderTickRate:1

[Events]
//Background and Video events
0,0,"R41Pa.jpg",0,0
Video,50,"akuma no ko 32rf.mp4"
//Break Periods
2,46106,49439
//Storyboard Layer 0 (Background)
//Storyboard Layer 1 (Fail)
//Storyboard Layer 2 (Pass)
//Storyboard Layer 3 (Foreground)
//Storyboard Layer 4 (Overlay)
//Storyboard Sound Samples

[TimingPoints]
765,666.666666666667,4,2,4,30,1,0
765,-111.111111111111,4,2,4,30,0,0
769,-111.111111111111,4,2,4,30,0,0
1765,652.173913043479,4,2,4,30,1,0
2091,655.737704918033,4,2,4,30,1,0
3427,681.818181818182,4,2,4,30,1,0
3427,-111.111111111111,4,2,4,30,0,0
4961,659.340659340659,4,2,4,30,1,8
5125,652.173913043478,4,2,4,30,1,8
6108,666.666666666667,4,2,4,30,1,0
6108,-111.111111111111,4,2,4,30,0,0
14102,-111.111111111111,4,2,4,40,0,0
14108,-111.111111111111,4,2,4,40,0,0
16745,666.666666666667,4,2,4,40,1,0
17245,689.655172413793,4,2,4,40,1,0
17934,618.556701030928,4,2,4,40,1,0
18088,-119.047619047619,4,2,4,40,0,0
18245,666.666666666667,4,2,4,40,1,0
19411,681.818181818182,4,2,4,40,1,0
20774,666.666666666667,4,2,4,40,1,8
20774,-111.111111111111,4,2,4,40,0,0
22107,666.666666666667,4,2,4,40,1,0
22107,-111.111111111111,4,2,4,40,0,0
24773,666.666666666667,4,2,4,50,1,0
24773,-111.111111111111,4,2,4,50,0,0
25773,-100,4,2,4,50,0,0
33356,-100,4,2,4,5,0,0
33439,-100,4,2,4,50,0,0
34023,-100,4,2,4,5,0,0
34106,-100,4,2,4,50,0,0
41439,-100,4,2,4,60,0,0
44606,-100,4,2,4,65,0,0
46106,-100,4,2,4,44,0,0
46273,-100,4,2,4,30,0,0
49439,-100,4,2,4,70,0,0
51439,-100,4,2,4,70,0,0
82106,-100,4,2,4,70,0,0
82773,-100,4,2,4,30,0,0
83106,-100,4,2,4,35,0,0
87189,-100,4,2,4,35,0,0

[Colours]
Combo1 : 255,169,132
Combo2 : 207,180,181
Combo3 : 155,159,187
Combo4 : 191,190,162
Combo5 : 255,91,140
Combo6 : 255,157,255
Combo7 : 196,159,255
Combo8 : 138,211,255

[HitObjects]
75,149,765,6,0,P|126:85|191:100,1,152.999995330811,2|0,0:0|0:0,0:0:0:0:
263,230,2091,1,2,0:0:0:0:
378,129,2746,1,0,0:0:0:0:
507,210,3427,2,0,P|464:312|459:358,1,152.999995330811,2|0,0:0|0:0,0:0:0:0:
306,369,4790,1,0,0:0:0:0:
198,260,5451,1,0,0:0:0:0:
65,336,6108,6,0,P|58:255|37:182,1,152.999995330811,2|0,0:0|0:0,0:0:0:0:
169,106,7441,1,2,0:0:0:0:
273,217,8108,1,0,0:0:0:0:
399,131,8774,2,0,P|407:68|330:20,1,152.999995330811,2|0,0:0|0:0,0:0:0:0:
206,92,10107,1,0,0:0:0:0:
62,37,10774,1,0,0:0:0:0:
256,192,11441,12,0,12775,0:0:0:0:
116,212,14108,5,6,0:0:0:0:
212,93,14774,1,0,0:0:0:0:
322,198,15441,2,0,P|383:190|440:263,1,152.999995330811,2|0,0:0|0:0,0:0:0:0:
318,348,16745,1,2,0:0:0:0:
201,248,17417,1,0,0:0:0:0:
306,157,18088,1,0,0:0:0:0:
186,64,18745,1,0,0:0:0:0:
67,155,19411,1,0,0:0:0:0:
189,228,20092,85,0,0:0:0:0:
288,343,20774,2,0,L|446:330,1,152.999995330811,2|0,0:0|0:0,0:0:0:0:
498,188,22107,2,0,P|511:126|443:67,1,152.999995330811,2|0,0:0|0:0,0:0:0:0:
304,111,23440,1,0,0:0:0:0:
71,310,24773,6,0,B|108:309|143:333|143:333|159:301|207:274,1,152.999995330811,8|0,0:2|0:0,0:0:0:0:
276,249,25773,1,0,0:0:0:0:
360,251,26106,6,0,B|402:259|431:295|431:295|477:270|527:276,2,170,0|2|10,0:0|0:0|0:2,0:0:0:0:
167,83,28439,2,0,B|124:91|95:127|95:127|51:103|0:108,2,170,2|2|2,0:0|0:0|0:0,0:0:0:0:
239,127,30106,1,10,0:2:0:0:
474,225,31106,2,0,B|429:244|408:275|408:275|371:248|315:248,1,170,2|10,0:0|0:2,0:0:0:0:
250,284,32106,1,2,0:0:0:0:
136,157,32773,1,10,0:0:0:0:
265,46,33439,1,2,0:0:0:0:
411,132,34106,2,0,B|366:149|343:183|343:183|301:165|252:175,2,170,2|2|12,0:0|0:0|0:0,0:0:0:0:
495,137,35773,1,8,0:0:0:0:
417,288,36439,85,2,0:0:0:0:
331,293,36773,2,0,B|288:301|259:337|259:337|213:312|163:318,2,170,10|2|10,0:0|0:0|0:0,0:0:0:0:
331,38,39106,2,0,B|373:46|402:82|402:82|448:57|498:63,2,170,2|10|2,0:0|0:0|0:0,0:0:0:0:
258,82,40773,1,8,0:0:0:0:
94,34,41439,1,2,0:0:0:0:
37,225,42106,2,0,B|83:244|103:275|103:275|140:248|196:248,1,170,10|2,0:0|0:0,0:0:0:0:
249,192,43106,1,0,0:0:0:0:
235,108,43439,2,0,B|314:96|384:121|384:121|429:58|505:37,2,297.5,10|10|0,0:0|0:0|0:0,0:0:0:0:
196,356,51439,38,0,P|210:296|278:100,1,255,14|8,0:0|0:1,0:0:0:0:
334,54,52773,1,10,0:1:0:0:
168,14,53439,1,0,0:0:0:0:
107,73,53773,1,8,0:0:0:0:
145,148,54106,2,0,B|221:155|272:138|272:138|311:191|376:227,1,255,10|8,0:0|0:1,0:0:0:0:
449,239,55439,1,10,0:1:0:0:
475,70,56106,2,0,P|429:53|391:87,1,85
353,140,56773,6,0,B|288:144|223:117|236:113|183:78|103:76,1,255,10|8,0:0|0:1,0:0:0:0:
41,128,58106,1,10,0:1:0:0:
103,286,58773,1,2,0:0:0:0:
170,234,59106,1,2,0:0:0:0:
230,293,59439,2,0,B|325:320,2,85,10|2|2,0:0|0:0|0:0,0:0:0:0:
165,348,60439,1,10,0:1:0:0:
103,286,60773,2,0,P|76:166|56:111,1,170,10|2,0:1|0:0,0:0:0:0:
222,70,62106,6,0,P|333:69|376:191,1,255,12|8,0:0|0:1,0:0:0:0:
300,228,63439,1,10,0:1:0:0:
137,174,64106,1,0,0:0:0:0:
63,216,64439,1,8,0:0:0:0:
103,290,64773,2,0,P|220:300|366:329,1,255,8|8,0:0|0:1,0:0:0:0:
433,359,66106,1,10,0:1:0:0:
347,211,66773,1,0,0:0:0:0:
397,142,67106,1,2,0:0:0:0:
333,85,67439,6,0,P|254:80|168:221,1,255,10|8,0:0|0:1,0:0:0:0:
235,263,68773,2,0,P|304:263|314:274,1,85,10|0,0:1|0:0,0:0:0:0:
372,328,69439,1,2,0:0:0:0:
436,272,69773,1,2,0:0:0:0:
408,194,70106,2,0,B|437:161|435:118|435:118|482:139|528:135,2,170,10|2|8,0:0|0:0|0:1,0:0:0:0:
371,216,71606,1,8,0:1:0:0:
237,209,72106,5,2,0:0:0:0:
181,144,72439,1,2,0:0:0:0:
107,187,72773,2,0,P|41:158|64:63,1,170,12|8,0:0|0:0,0:0:0:0:
131,44,73773,1,12,0:0:0:0:
196,97,74106,2,0,P|274:89|291:90,1,85,2|2,0:0|0:0,0:0:0:0:
350,137,74773,53,2,0:0:0:0:
428,105,75106,1,10,0:0:0:0:
490,162,75439,2,0,P|472:220|450:335,1,170,8|8,0:0|0:1,0:0:0:0:
368,350,76439,1,8,0:1:0:0:
314,284,76773,1,0,0:0:0:0:
144,276,77439,6,0,P|135:203|127:187,2,85,2|10|8,0:0|0:0|0:0,0:0:0:0:
274,166,78773,2,0,P|303:109|338:103,2,85,2|10|12,0:0|0:1|0:0,0:0:0:0:
435,218,80106,1,2,0:0:0:0:
388,289,80439,1,2,0:0:0:0:
339,359,80773,1,8,0:0:0:0:
190,276,81439,1,10,0:0:0:0:
44,187,82106,5,4,0:0:0:0:
207,140,82773,1,2,0:0:0:0:
370,187,83439,1,0,0:0:0:0:
448,154,83773,1,0,0:0:0:0:
407,79,84106,1,2,0:0:0:0:
267,175,84773,5,0,0:0:0:0:
119,91,85439,1,2,0:0:0:0:
278,31,86106,1,0,0:0:0:0:
353,69,86439,1,0,0:0:0:0:
420,16,86773,1,2,0:0:0:0:
492,59,87106,5,2,3:2:0:0:
