osu file format v14

[General]
AudioFilename: audio.mp3
AudioLeadIn: 0
PreviewTime: 50797
Countdown: 0
SampleSet: Soft
StackLeniency: 0.7
Mode: 3
LetterboxInBreaks: 0
SpecialStyle: 0
WidescreenStoryboard: 0

[Editor]
DistanceSpacing: 0.2
BeatDivisor: 4
GridSize: 32
TimelineZoom: 0.8999999

[Metadata]
Title:Akuma no Ko (TV Size)
TitleUnicode:悪魔の子 (TV Size)
Artist:Ai Higuchi
ArtistUnicode:ヒグチアイ
Creator:Kibitz
Version:Easy
Source:進撃の巨人 Attack on Titan The Final Season Part 2
Tags:Shingeki no Kyojin SNK エンディングテーマ Two 4 Four Theme Thema Attack on Titan AoT Ending Ed 兼松 衆 兼松衆 Shu Kanematsu Anime Japanese Orchestral Jpop J-Pop Dudehacker Drum-hitnormal Nabi-
BeatmapID:3439775
BeatmapSetID:1683527

[Difficulty]
HPDrainRate:7
CircleSize:4
OverallDifficulty:6.5
ApproachRate:5
SliderMultiplier:1.4
SliderTickRate:1

[Events]
//Background and Video events
0,0,"BG1.jpg",0,0
Video,0,"video.mp4"
//Break Periods
//Storyboard Layer 0 (Background)
//Storyboard Layer 1 (Fail)
//Storyboard Layer 2 (Pass)
//Storyboard Layer 3 (Foreground)
//Storyboard Layer 4 (Overlay)
//Storyboard Sound Samples

[TimingPoints]
797,666.666666666667,4,2,1,10,1,0
24797,-100.0,4,2,1,25,0,0
46130,-100.0,4,2,1,10,0,0
51463,-100.0,4,2,1,40,0,0
82130,666.666666666667,4,2,1,10,1,0

[HitObjects]
64,192,797,128,0,1463:0:0:0:0:
320,192,1463,1,0,0:0:0:0:
64,192,2130,1,0,0:0:0:0:
192,192,2463,1,0,0:0:0:0:
320,192,2797,1,0,0:0:0:0:
448,192,3463,128,0,4130:0:0:0:0:
192,192,4130,1,0,0:0:0:0:
448,192,4797,1,0,0:0:0:0:
320,192,5130,1,0,0:0:0:0:
192,192,5463,1,0,0:0:0:0:
64,192,6130,128,0,6797:0:0:0:0:
192,192,6797,1,0,0:0:0:0:
448,192,7463,1,0,0:0:0:0:
320,192,7797,1,0,0:0:0:0:
192,192,8130,1,0,0:0:0:0:
448,192,8797,128,0,9463:0:0:0:0:
320,192,9463,1,0,0:0:0:0:
64,192,10130,1,0,0:0:0:0:
192,192,10463,1,0,0:0:0:0:
320,192,10797,1,0,0:0:0:0:
448,192,11463,128,0,12797:0:0:0:0:
64,192,12130,1,0,0:0:0:0:
320,192,12797,1,0,0:0:0:0:
192,192,13130,1,0,0:0:0:0:
64,192,13463,1,0,0:0:0:0:
448,192,14130,128,0,14797:0:0:0:0:
320,192,14797,1,0,0:0:0:0:
64,192,15463,1,0,0:0:0:0:
192,192,15797,1,0,0:0:0:0:
320,192,16130,1,0,0:0:0:0:
192,192,16797,128,0,17463:0:0:0:0:
64,192,17463,1,0,0:0:0:0:
448,192,18130,1,0,0:0:0:0:
320,192,18463,1,0,0:0:0:0:
192,192,18797,1,0,0:0:0:0:
320,192,19463,128,0,20130:0:0:0:0:
448,192,20130,1,0,0:0:0:0:
64,192,20797,1,0,0:0:0:0:
192,192,21130,1,0,0:0:0:0:
320,192,21463,1,0,0:0:0:0:
192,192,22130,128,0,22797:0:0:0:0:
64,192,22797,1,0,0:0:0:0:
320,192,23463,128,0,24130:0:0:0:0:
192,192,24130,128,0,24797:0:0:0:0:
64,192,24797,128,2,25463:0:0:0:0:
448,192,24797,128,4,25463:0:0:0:0:
192,192,25797,1,0,0:0:0:0:
320,192,26130,1,2,0:0:0:0:
64,192,26463,1,2,0:0:0:0:
448,192,26797,1,0,0:0:0:0:
192,192,27130,1,0,0:0:0:0:
64,192,27463,128,2,28130:0:0:0:0:
448,192,28463,1,0,0:0:0:0:
192,192,28797,1,0,0:0:0:0:
64,192,29130,1,2,0:0:0:0:
320,192,29463,1,0,0:0:0:0:
192,192,29797,1,0,0:0:0:0:
448,192,30130,128,2,30797:0:0:0:0:
64,192,31130,1,0,0:0:0:0:
448,192,31463,1,2,0:0:0:0:
192,192,31797,1,2,0:0:0:0:
320,192,32130,1,0,0:0:0:0:
64,192,32463,1,0,0:0:0:0:
448,192,32797,128,2,33463:0:0:0:0:
64,192,33463,128,0,34130:0:0:0:0:
192,192,34130,128,0,34797:0:0:0:0:
320,192,34797,128,0,35463:0:0:0:0:
64,192,35463,1,2,0:0:0:0:
448,192,35463,128,4,36130:0:0:0:0:
64,192,36463,1,0,0:0:0:0:
320,192,36797,1,2,0:0:0:0:
192,192,37130,1,2,0:0:0:0:
448,192,37463,1,0,0:0:0:0:
320,192,37797,1,0,0:0:0:0:
64,192,38130,128,2,38797:0:0:0:0:
320,192,39130,1,0,0:0:0:0:
64,192,39463,1,0,0:0:0:0:
192,192,39797,1,2,0:0:0:0:
448,192,40130,1,0,0:0:0:0:
320,192,40463,1,0,0:0:0:0:
64,192,40797,128,2,41463:0:0:0:0:
448,192,41463,1,0,0:0:0:0:
320,192,42130,128,2,42797:0:0:0:0:
192,192,42797,1,0,0:0:0:0:
64,192,43463,128,2,44463:0:0:0:0:
448,192,43463,1,0,0:0:0:0:
192,192,44463,1,0,0:0:0:0:
448,192,44797,128,0,46130:0:0:0:0:
192,192,46130,128,0,47463:0:0:0:0:
320,192,47463,128,0,48797:0:0:0:0:
64,192,48797,128,0,50463:0:0:0:0:
320,192,50797,128,0,51463:0:0:0:0:
64,192,51463,128,2,52130:0:0:0:0:
448,192,51463,1,4,0:0:0:0:
320,192,52130,1,0,0:0:0:0:
192,192,52463,1,0,0:0:0:0:
64,192,52797,1,8,0:0:0:0:
448,192,52797,128,0,53463:0:0:0:0:
320,192,53463,1,0,0:0:0:0:
192,192,53797,1,0,0:0:0:0:
64,192,54130,1,2,0:0:0:0:
320,192,54130,128,0,55130:0:0:0:0:
192,192,55130,1,0,0:0:0:0:
64,192,55463,1,8,0:0:0:0:
448,192,55463,128,0,56297:0:0:0:0:
64,192,56797,1,2,0:0:0:0:
192,192,56797,128,0,57463:0:0:0:0:
448,192,57463,1,0,0:0:0:0:
320,192,57797,1,0,0:0:0:0:
64,192,58130,1,8,0:0:0:0:
448,192,58130,1,0,0:0:0:0:
320,192,58797,1,0,0:0:0:0:
192,192,59130,1,0,0:0:0:0:
64,192,59463,1,2,0:0:0:0:
448,192,59797,1,0,0:0:0:0:
192,192,60130,1,0,0:0:0:0:
320,192,60463,1,0,0:0:0:0:
64,192,60797,1,8,0:0:0:0:
448,192,60797,128,0,61463:0:0:0:0:
320,192,61463,128,0,62130:0:0:0:0:
64,192,62130,128,4,62797:0:0:0:0:
192,192,62130,1,2,0:0:0:0:
448,192,62797,1,0,0:0:0:0:
192,192,63130,1,0,0:0:0:0:
64,192,63463,1,8,0:0:0:0:
320,192,63463,128,0,64130:0:0:0:0:
448,192,64130,1,0,0:0:0:0:
192,192,64463,1,0,0:0:0:0:
64,192,64797,1,2,0:0:0:0:
448,192,64797,128,0,65463:0:0:0:0:
320,192,65797,1,0,0:0:0:0:
64,192,66130,128,8,67130:0:0:0:0:
448,192,66130,1,0,0:0:0:0:
320,192,67463,1,2,0:0:0:0:
448,192,67463,128,0,68130:0:0:0:0:
64,192,68130,1,0,0:0:0:0:
192,192,68463,1,0,0:0:0:0:
64,192,68797,128,8,69463:0:0:0:0:
320,192,68797,1,0,0:0:0:0:
448,192,69463,1,0,0:0:0:0:
320,192,69797,1,0,0:0:0:0:
192,192,70130,1,2,0:0:0:0:
64,192,70463,1,2,0:0:0:30:
448,192,70797,1,2,0:0:0:30:
192,192,71130,1,2,0:0:0:30:
320,192,71463,1,8,0:0:0:0:
448,192,71463,128,0,72130:0:0:0:0:
64,192,72130,128,0,72797:0:0:0:0:
320,192,72797,1,2,0:0:0:0:
448,192,72797,1,4,0:0:0:0:
192,192,73130,1,0,0:0:0:0:
448,192,73463,1,0,0:0:0:0:
320,192,73797,1,10,0:0:0:0:
64,192,74130,128,0,74797:0:0:0:0:
320,192,74797,1,0,0:0:0:0:
192,192,75130,1,2,0:0:0:0:
64,192,75463,1,2,0:0:0:0:
448,192,75463,1,0,0:0:0:0:
192,192,75797,1,0,0:0:0:0:
320,192,76130,1,0,0:0:0:0:
64,192,76463,1,10,0:0:0:0:
448,192,76797,128,0,77463:0:0:0:0:
192,192,77463,1,0,0:0:0:0:
320,192,77797,1,2,0:0:0:0:
64,192,78130,1,2,0:0:0:0:
448,192,78130,1,0,0:0:0:0:
320,192,78797,1,0,0:0:0:0:
192,192,79130,1,0,0:0:0:0:
64,192,79463,1,8,0:0:0:0:
448,192,79463,1,2,0:0:0:0:
320,192,80130,1,0,0:0:0:0:
192,192,80463,1,0,0:0:0:0:
64,192,80797,128,2,81130:0:0:0:0:
448,192,80797,1,0,0:0:0:0:
192,192,81130,128,0,81463:0:0:0:0:
320,192,81463,128,2,81797:0:0:0:0:
448,192,81797,128,0,82130:0:0:0:0:
64,192,82130,128,4,83463:0:0:0:0:
192,192,82130,1,0,0:0:0:0:
448,192,82796,1,0,0:0:0:0:
320,192,83463,1,0,0:0:0:0:
192,192,83796,1,0,0:0:0:0:
64,192,84130,1,0,0:0:0:0:
192,192,84796,1,0,0:0:0:0:
320,192,85463,1,0,0:0:0:0:
64,192,86130,1,0,0:0:0:0:
192,192,86463,1,0,0:0:0:0:
320,192,86796,1,0,0:0:0:0:
448,192,87130,1,0,0:0:0:0:
