osu file format v14

[General]
AudioFilename: audio.mp3
AudioLeadIn: 0
PreviewTime: 50773
Countdown: 0
SampleSet: Normal
StackLeniency: 0.7
Mode: 1
LetterboxInBreaks: 0
WidescreenStoryboard: 1

[Editor]
DistanceSpacing: 1.1
BeatDivisor: 8
GridSize: 32
TimelineZoom: 1.1

[Metadata]
Title:Akuma no Ko (TV Size)
TitleUnicode:悪魔の子 (TV Size)
Artist:Ai Higuchi
ArtistUnicode:ヒグチアイ
Creator:Hivie
Version:Kantan
Source:Attack on Titan The Final Season Part 2
Tags:進撃の巨人 radar aot snk shingeki no kyojin season 4 four two devil's child of evil demon eren jaeger yaeger freedom ending ed 2 last pop jpop j-pop japanese orchestral anime higuchiai
BeatmapID:3453278
BeatmapSetID:1689832

[Difficulty]
HPDrainRate:8
CircleSize:2
OverallDifficulty:3
ApproachRate:9
SliderMultiplier:1.4
SliderTickRate:1

[Events]
//Background and Video events
0,0,"R41Pa.jpg",0,-90
Video,50,"output.mp4"
//Break Periods
2,46106,50839
//Storyboard Layer 0 (Background)
//Storyboard Layer 1 (Fail)
//Storyboard Layer 2 (Pass)
//Storyboard Layer 3 (Foreground)
//Storyboard Layer 4 (Overlay)
//Storyboard Sound Samples

[TimingPoints]
765,666.666666666667,4,1,0,50,1,0
765,-100,4,1,0,50,0,8
1765,652.173913043479,4,1,0,50,1,8
1765,-102.222222222222,4,1,0,50,0,8
2091,655.737704918033,4,1,0,50,1,8
2091,-101.666666666667,4,1,0,50,0,8
3427,681.818181818182,4,1,0,50,1,0
3427,-97.7777777777777,4,1,0,50,0,8
4961,659.340659340659,4,1,0,50,1,8
4961,-101.111111111111,4,1,0,50,0,8
5125,652.173913043478,4,1,0,50,1,8
5125,-102.222222222222,4,1,0,50,0,8
6108,666.666666666667,4,1,0,50,1,0
6108,-100,4,1,0,50,0,8
13941,-90.9090909090908,4,1,0,60,0,8
16745,666.666666666667,4,1,0,60,1,0
16745,-90.9090909090909,4,1,0,60,0,8
17245,689.655172413793,4,1,0,60,1,8
17245,-88.1458966565349,4,1,0,60,0,8
17934,618.556701030928,4,1,0,60,1,8
17934,-97.2918756268808,4,1,0,60,0,8
18245,666.666666666667,4,1,0,60,1,8
18245,-90.9090909090909,4,1,0,60,0,8
19411,681.818181818182,4,1,0,60,1,0
19411,-89.0688259109314,4,1,0,60,0,8
20774,666.666666666667,4,1,0,60,1,8
20774,-90.9090909090909,4,1,0,60,0,8
22107,666.666666666667,4,1,0,60,1,0
22107,-90.9090909090909,4,1,0,60,0,8
24773,666.666666666667,4,1,0,60,1,0
24773,-83.3333333333333,4,1,0,60,0,8
48773,-125,4,1,0,60,0,0
51439,666.666666666667,4,1,0,60,1,1
51439,-66.6666666666667,4,1,0,60,0,1
82105,-66.6666666666667,4,1,0,60,0,0

[HitObjects]
256,192,765,5,0,0:0:0:0:
256,192,1431,1,8,0:0:0:0:
256,192,2091,1,0,0:0:0:0:
256,192,2418,1,0,0:0:0:0:
256,192,2746,1,8,0:0:0:0:
256,192,3427,1,0,0:0:0:0:
256,192,4108,1,8,0:0:0:0:
256,192,4790,1,0,0:0:0:0:
256,192,6108,1,0,0:0:0:0:
256,192,6774,1,8,0:0:0:0:
256,192,7441,1,0,0:0:0:0:
256,192,7774,1,8,0:0:0:0:
256,192,8108,1,8,0:0:0:0:
256,192,8774,1,0,0:0:0:0:
256,192,9441,1,8,0:0:0:0:
256,192,10108,1,0,0:0:0:0:
256,192,11441,5,0,0:0:0:0:
256,192,12108,1,8,0:0:0:0:
256,192,12774,1,0,0:0:0:0:
256,192,14108,1,0,0:0:0:0:
256,192,14774,1,8,0:0:0:0:
256,192,15441,1,8,0:0:0:0:
256,192,15774,1,0,0:0:0:0:
256,192,16108,1,8,0:0:0:0:
256,192,16745,1,0,0:0:0:0:
256,192,17417,1,8,0:0:0:0:
256,192,18088,1,0,0:0:0:0:
256,192,19411,1,0,0:0:0:0:
256,192,20092,1,8,0:0:0:0:
256,192,20774,1,0,0:0:0:0:
256,192,21107,1,8,0:0:0:0:
256,192,21440,1,8,0:0:0:0:
256,192,22107,1,0,0:0:0:0:
256,192,22773,1,8,0:0:0:0:
256,192,24107,1,8,0:0:0:0:
256,96,24773,1,4,0:0:0:0:
256,192,25773,1,0,0:0:0:0:
256,192,26106,1,8,0:0:0:0:
256,192,26773,1,8,0:0:0:0:
256,192,27106,1,8,0:0:0:0:
256,192,27439,1,0,0:0:0:0:
256,192,28439,1,8,0:0:0:0:
256,192,28773,1,8,0:0:0:0:
256,192,29439,1,0,0:0:0:0:
256,192,29773,1,8,0:0:0:0:
256,192,30106,1,0,0:0:0:0:
256,192,31106,1,8,0:0:0:0:
256,192,31439,1,8,0:0:0:0:
256,192,32106,1,8,0:0:0:0:
256,192,32439,1,0,0:0:0:0:
256,192,32773,1,8,0:0:0:0:
256,192,33439,1,0,0:0:0:0:
256,192,34106,1,8,0:0:0:0:
256,192,34773,1,8,0:0:0:0:
256,96,35439,1,12,0:0:0:0:
256,192,36439,1,0,0:0:0:0:
256,192,36772,1,8,0:0:0:0:
256,192,37439,1,8,0:0:0:0:
256,192,37772,1,8,0:0:0:0:
256,192,38105,1,0,0:0:0:0:
256,192,39105,1,0,0:0:0:0:
256,192,39439,1,8,0:0:0:0:
256,192,40105,1,0,0:0:0:0:
256,192,40439,1,8,0:0:0:0:
256,192,40772,1,0,0:0:0:0:
256,192,41439,1,8,0:0:0:0:
256,192,42106,1,0,0:0:0:0:
256,192,42773,1,8,0:0:0:0:
256,192,43439,1,0,0:0:0:0:
256,192,44439,1,0,0:0:0:0:
256,192,44773,1,8,0:0:0:0:
256,192,45439,1,8,0:0:0:0:
256,192,45773,1,0,0:0:0:0:
256,96,51439,5,4,0:0:0:0:
256,192,52106,1,8,0:0:0:0:
256,192,52439,1,0,0:0:0:0:
256,192,52773,1,8,0:0:0:0:
256,192,53439,1,0,0:0:0:0:
256,192,53773,1,8,0:0:0:0:
256,192,54106,1,0,0:0:0:0:
256,192,54773,1,0,0:0:0:0:
256,192,55439,1,8,0:0:0:0:
256,192,56439,1,0,0:0:0:0:
256,192,56773,1,8,0:0:0:0:
256,192,57439,1,0,0:0:0:0:
256,192,57773,1,8,0:0:0:0:
256,192,58105,1,8,0:0:0:0:
256,192,58773,1,0,0:0:0:0:
256,192,59105,1,8,0:0:0:0:
256,192,59440,1,0,0:0:0:0:
256,192,60105,1,0,0:0:0:0:
256,192,60773,1,8,0:0:0:0:
256,192,61439,1,8,0:0:0:0:
256,192,61773,1,0,0:0:0:0:
256,96,62106,1,12,0:0:0:0:
256,192,63106,1,8,0:0:0:0:
256,192,63440,1,8,0:0:0:0:
256,192,64106,1,0,0:0:0:0:
256,192,64440,1,8,0:0:0:0:
256,192,64773,1,0,0:0:0:0:
256,192,65440,1,8,0:0:0:0:
256,192,66106,1,0,0:0:0:0:
256,192,67106,1,0,0:0:0:0:
256,192,67439,1,8,0:0:0:0:
256,192,68106,1,8,0:0:0:0:
256,192,68439,1,0,0:0:0:0:
256,192,68773,1,8,0:0:0:0:
256,192,69439,1,0,0:0:0:0:
256,192,69773,1,8,0:0:0:0:
256,192,70106,1,0,0:0:0:0:
256,192,70439,1,0,0:0:0:0:
256,192,70773,1,8,0:0:0:0:
256,192,71439,1,0,0:0:0:0:
256,192,72106,1,8,0:0:0:0:
256,192,72439,1,0,0:0:0:0:
256,96,72773,1,12,0:0:0:0:
256,192,73439,1,8,0:0:0:0:
256,192,73773,1,8,0:0:0:0:
256,192,74106,1,0,0:0:0:0:
256,192,75106,1,8,0:0:0:0:
256,192,75439,1,0,0:0:0:0:
256,192,76106,1,0,0:0:0:0:
256,192,76439,1,8,0:0:0:0:
256,192,76773,1,0,0:0:0:0:
256,192,77439,1,8,0:0:0:0:
256,192,78106,1,0,0:0:0:0:
256,192,78773,1,8,0:0:0:0:
256,192,79439,1,0,0:0:0:0:
256,192,80106,1,8,0:0:0:0:
256,192,80773,1,0,0:0:0:0:
256,192,81106,1,0,0:0:0:0:
256,192,81439,1,8,0:0:0:0:
256,192,81773,1,0,0:0:0:0:
256,96,82106,1,12,0:0:0:0:
