osu file format v14

[General]
AudioFilename: audio.mp3
AudioLeadIn: 0
PreviewTime: 50773
Countdown: 0
SampleSet: Normal
StackLeniency: 0.7
Mode: 1
LetterboxInBreaks: 0
WidescreenStoryboard: 1

[Editor]
DistanceSpacing: 1.1
BeatDivisor: 8
GridSize: 32
TimelineZoom: 1.6

[Metadata]
Title:Akuma no Ko (TV Size)
TitleUnicode:悪魔の子 (TV Size)
Artist:Ai Higuchi
ArtistUnicode:ヒグチアイ
Creator:Hivie
Version:Futsuu
Source:Attack on Titan The Final Season Part 2
Tags:進撃の巨人 radar aot snk shingeki no kyojin season 4 four two devil's child of evil demon eren jaeger yaeger freedom ending ed 2 last pop jpop j-pop japanese orchestral anime higuchiai
BeatmapID:3453277
BeatmapSetID:1689832

[Difficulty]
HPDrainRate:7
CircleSize:2
OverallDifficulty:4
ApproachRate:9
SliderMultiplier:1.4
SliderTickRate:1

[Events]
//Background and Video events
0,0,"R41Pa.jpg",0,-90
Video,50,"output.mp4"
//Break Periods
2,46139,50839
//Storyboard Layer 0 (Background)
//Storyboard Layer 1 (Fail)
//Storyboard Layer 2 (Pass)
//Storyboard Layer 3 (Foreground)
//Storyboard Layer 4 (Overlay)
//Storyboard Sound Samples

[TimingPoints]
765,666.666666666667,4,1,0,50,1,0
765,-100,4,1,0,50,0,8
1765,652.173913043479,4,1,0,50,1,8
1765,-102.222222222222,4,1,0,50,0,8
2091,655.737704918033,4,1,0,50,1,8
2091,-101.666666666667,4,1,0,50,0,8
3427,681.818181818182,4,1,0,50,1,0
3427,-97.7777777777777,4,1,0,50,0,8
4961,659.340659340659,4,1,0,50,1,8
4961,-101.111111111111,4,1,0,50,0,8
5125,652.173913043478,4,1,0,50,1,8
5125,-102.222222222222,4,1,0,50,0,8
6108,666.666666666667,4,1,0,50,1,0
6108,-100,4,1,0,50,0,8
13941,-90.9090909090908,4,1,0,60,0,8
16745,666.666666666667,4,1,0,60,1,0
16745,-90.9090909090909,4,1,0,60,0,8
17245,689.655172413793,4,1,0,60,1,8
17245,-88.1458966565349,4,1,0,60,0,8
17934,618.556701030928,4,1,0,60,1,8
17934,-97.2918756268808,4,1,0,60,0,8
18245,666.666666666667,4,1,0,60,1,8
18245,-90.9090909090909,4,1,0,60,0,8
19411,681.818181818182,4,1,0,60,1,0
19411,-89.0688259109314,4,1,0,60,0,8
20774,666.666666666667,4,1,0,60,1,8
20774,-90.9090909090909,4,1,0,60,0,8
22107,666.666666666667,4,1,0,60,1,0
22107,-90.9090909090909,4,1,0,60,0,8
24773,666.666666666667,4,1,0,60,1,0
24773,-83.3333333333333,4,1,0,60,0,8
48773,-125,4,1,0,60,0,0
51439,666.666666666667,4,1,0,60,1,1
51439,-66.6666666666667,4,1,0,60,0,1
82105,-66.6666666666667,4,1,0,60,0,0

[HitObjects]
256,192,765,1,0,0:0:0:0:
256,192,1265,1,8,0:0:0:0:
256,192,1598,1,8,0:0:0:0:
256,192,1928,1,0,0:0:0:0:
256,192,2091,1,0,0:0:0:0:
256,192,2582,1,8,0:0:0:0:
256,192,2934,1,8,0:0:0:0:
256,192,3427,1,8,0:0:0:0:
256,192,3938,1,8,0:0:0:0:
256,192,4279,1,8,0:0:0:0:
256,192,4620,1,0,0:0:0:0:
256,192,4961,1,0,0:0:0:0:
256,192,5125,1,8,0:0:0:0:
256,192,5451,1,0,0:0:0:0:
256,192,6108,1,0,0:0:0:0:
256,192,6608,1,8,0:0:0:0:
256,192,6941,1,8,0:0:0:0:
256,192,7274,1,0,0:0:0:0:
256,192,7441,1,0,0:0:0:0:
256,192,7941,1,0,0:0:0:0:
256,192,8274,1,8,0:0:0:0:
256,192,8608,1,0,0:0:0:0:
256,192,8774,1,8,0:0:0:0:
256,192,9274,1,8,0:0:0:0:
256,192,9608,1,0,0:0:0:0:
256,192,9774,1,8,0:0:0:0:
256,192,9941,1,8,0:0:0:0:
256,192,10274,1,8,0:0:0:0:
256,192,10608,1,0,0:0:0:0:
256,192,10941,1,8,0:0:0:0:
256,192,11108,1,8,0:0:0:0:
256,192,11441,1,0,0:0:0:0:
256,192,12108,1,8,0:0:0:0:
256,192,12774,1,0,0:0:0:0:
256,192,13108,1,0,0:0:0:0:
256,192,13441,1,8,0:0:0:0:
256,192,14108,1,0,0:0:0:0:
256,192,14441,1,8,0:0:0:0:
256,192,14608,1,0,0:0:0:0:
256,192,14941,1,0,0:0:0:0:
256,192,15274,1,0,0:0:0:0:
256,192,15441,1,8,0:0:0:0:
256,192,15941,1,8,0:0:0:0:
256,192,16274,1,0,0:0:0:0:
256,192,16608,1,0,0:0:0:0:
256,192,16745,1,8,0:0:0:0:
256,192,17078,1,8,0:0:0:0:
256,192,17245,1,0,0:0:0:0:
256,192,17589,1,0,0:0:0:0:
256,192,17934,1,8,0:0:0:0:
256,192,18245,1,8,0:0:0:0:
256,192,18411,1,8,0:0:0:0:
256,192,18745,1,8,0:0:0:0:
256,192,19411,1,0,0:0:0:0:
256,192,19751,1,8,0:0:0:0:
256,192,19922,1,8,0:0:0:0:
256,192,20263,1,0,0:0:0:0:
256,192,20604,1,0,0:0:0:0:
256,192,20774,1,8,0:0:0:0:
256,192,21274,1,8,0:0:0:0:
256,192,21440,1,0,0:0:0:0:
256,192,21607,1,8,0:0:0:0:
256,192,21940,1,0,0:0:0:0:
256,192,22107,1,0,0:0:0:0:
256,192,22607,1,0,0:0:0:0:
256,192,22940,1,8,0:0:0:0:
256,192,23273,1,0,0:0:0:0:
256,192,23440,1,0,0:0:0:0:
256,192,24107,1,8,0:0:0:0:
256,96,24773,1,4,0:0:0:0:
256,192,25106,1,8,0:0:0:0:
256,192,25773,1,0,0:0:0:0:
256,192,26106,1,8,0:0:0:0:
256,192,26439,1,0,0:0:0:0:
256,192,26773,1,8,0:0:0:0:
256,192,27106,1,8,0:0:0:0:
256,192,27439,1,0,0:0:0:0:
256,192,28439,1,0,0:0:0:0:
256,192,28773,1,8,0:0:0:0:
256,192,29106,1,8,0:0:0:0:
256,192,29439,1,0,0:0:0:0:
256,192,29773,1,8,0:0:0:0:
256,192,30106,1,0,0:0:0:0:
256,192,31106,1,8,0:0:0:0:
256,192,31439,1,8,0:0:0:0:
256,192,31773,1,0,0:0:0:0:
256,192,32106,1,8,0:0:0:0:
256,192,32439,1,0,0:0:0:0:
256,192,32773,1,8,0:0:0:0:
256,192,33439,1,0,0:0:0:0:
256,192,33773,1,0,0:0:0:0:
256,192,34106,1,8,0:0:0:0:
256,192,34773,1,8,0:0:0:0:
256,192,35106,1,0,0:0:0:0:
256,96,35439,1,12,0:0:0:0:
256,192,36439,1,0,0:0:0:0:
256,192,36772,1,8,0:0:0:0:
256,192,37105,1,0,0:0:0:0:
256,192,37439,1,8,0:0:0:0:
256,192,37772,1,8,0:0:0:0:
256,192,38105,1,0,0:0:0:0:
256,192,39105,1,0,0:0:0:0:
256,192,39439,1,8,0:0:0:0:
256,192,39772,1,8,0:0:0:0:
256,192,40105,1,0,0:0:0:0:
256,192,40439,1,8,0:0:0:0:
256,192,40772,1,0,0:0:0:0:
256,192,41439,1,8,0:0:0:0:
256,192,42106,1,0,0:0:0:0:
256,192,42773,1,8,0:0:0:0:
256,192,43439,1,0,0:0:0:0:
256,192,44106,1,8,0:0:0:0:
256,192,44439,1,0,0:0:0:0:
256,192,44773,1,8,0:0:0:0:
256,192,45106,1,0,0:0:0:0:
256,192,45439,1,8,0:0:0:0:
256,192,45773,1,0,0:0:0:0:
256,192,45939,1,0,0:0:0:0:
256,96,51439,5,4,0:0:0:0:
256,192,52106,1,8,0:0:0:0:
256,192,52439,1,0,0:0:0:0:
256,192,52606,1,0,0:0:0:0:
256,192,52773,1,0,0:0:0:0:
256,192,53439,1,8,0:0:0:0:
256,192,53773,1,0,0:0:0:0:
256,192,54106,1,8,0:0:0:0:
256,192,54439,1,8,0:0:0:0:
256,192,54773,1,0,0:0:0:0:
256,192,55106,1,0,0:0:0:0:
256,192,55439,1,8,0:0:0:0:
256,192,55606,1,8,0:0:0:0:
256,192,56106,1,8,0:0:0:0:
256,192,56439,1,0,0:0:0:0:
256,192,56773,1,8,0:0:0:0:
256,192,57439,1,0,0:0:0:0:
256,192,57773,1,8,0:0:0:0:
256,192,57939,1,8,0:0:0:0:
256,192,58105,1,8,0:0:0:0:
256,192,58440,1,0,0:0:0:0:
256,192,58773,1,8,0:0:0:0:
256,192,59105,1,8,0:0:0:0:
256,192,59440,1,0,0:0:0:0:
256,192,59773,1,8,0:0:0:0:
256,192,60105,1,0,0:0:0:0:
256,192,60440,1,8,0:0:0:0:
256,192,60773,1,8,0:0:0:0:
256,192,60940,1,8,0:0:0:0:
256,192,61439,1,8,0:0:0:0:
256,192,61606,1,8,0:0:0:0:
256,192,61773,1,0,0:0:0:0:
256,96,62106,1,12,0:0:0:0:
256,192,62773,1,0,0:0:0:0:
256,192,63106,1,8,0:0:0:0:
256,192,63273,1,8,0:0:0:0:
256,192,63440,1,8,0:0:0:0:
256,192,63773,1,0,0:0:0:0:
256,192,64106,1,8,0:0:0:0:
256,192,64440,1,0,0:0:0:0:
256,192,64773,1,0,0:0:0:0:
256,192,65106,1,0,0:0:0:0:
256,192,65440,1,8,0:0:0:0:
256,192,65773,1,0,0:0:0:0:
256,192,66106,1,8,0:0:0:0:
256,192,66273,1,8,0:0:0:0:
256,192,66773,1,0,0:0:0:0:
256,192,67106,1,8,0:0:0:0:
256,192,67439,1,0,0:0:0:0:
256,192,68106,1,8,0:0:0:0:
256,192,68439,1,0,0:0:0:0:
256,192,68606,1,0,0:0:0:0:
256,192,68773,1,0,0:0:0:0:
256,192,69106,1,8,0:0:0:0:
256,192,69439,1,0,0:0:0:0:
256,192,69773,1,8,0:0:0:0:
256,192,70106,1,0,0:0:0:0:
256,192,70439,1,8,0:0:0:0:
256,192,70773,1,0,0:0:0:0:
256,192,71106,1,8,0:0:0:0:
256,192,71439,1,8,0:0:0:0:
256,192,71606,1,8,0:0:0:0:
256,192,72106,1,8,0:0:0:0:
256,192,72273,1,8,0:0:0:0:
256,192,72439,1,0,0:0:0:0:
256,96,72773,1,12,0:0:0:0:
256,192,73106,1,0,0:0:0:0:
256,192,73439,1,8,0:0:0:0:
256,192,73773,1,8,0:0:0:0:
256,192,74106,1,0,0:0:0:0:
256,192,74773,1,0,0:0:0:0:
256,192,75106,1,8,0:0:0:0:
256,192,75273,1,8,0:0:0:0:
256,192,75439,1,0,0:0:0:0:
256,192,75773,1,8,0:0:0:0:
256,192,76106,1,0,0:0:0:0:
256,192,76439,1,8,0:0:0:0:
256,192,76773,1,0,0:0:0:0:
256,192,77273,1,8,0:0:0:0:
256,192,77439,1,8,0:0:0:0:
256,192,77773,1,0,0:0:0:0:
256,192,78106,1,8,0:0:0:0:
256,192,78606,1,0,0:0:0:0:
256,192,78773,1,8,0:0:0:0:
256,192,79106,1,0,0:0:0:0:
256,192,79439,1,8,0:0:0:0:
256,192,79939,1,0,0:0:0:0:
256,192,80106,1,8,0:0:0:0:
256,192,80439,1,8,0:0:0:0:
256,192,80773,1,0,0:0:0:0:
256,192,81106,1,0,0:0:0:0:
256,192,81439,1,8,0:0:0:0:
256,192,81606,1,0,0:0:0:0:
256,192,81773,1,8,0:0:0:0:
256,96,82106,1,12,0:0:0:0:
