osu file format v14

[General]
AudioFilename: audio.mp3
AudioLeadIn: 0
PreviewTime: 50689
Countdown: 0
SampleSet: Soft
StackLeniency: 0
Mode: 0
LetterboxInBreaks: 0
WidescreenStoryboard: 1

[Editor]
Bookmarks: 34106
DistanceSpacing: 0.7
BeatDivisor: 8
GridSize: 32
TimelineZoom: 1.9

[Metadata]
Title:Akuma no Ko (TV Size)
TitleUnicode:悪魔の子 (TV Size)
Artist:Ai Higuchi
ArtistUnicode:ヒグチアイ
Creator:Aakki
Version:Zelq's Catch This Titan
Source:進撃の巨人 Attack on Titan The Final Season Part 2
Tags:erisu lanzhu mayuzumi fuyuko iceluin zelq een persoon butylcyclobutyn enneya aot snk attack on titan shingeki no kyojin season 4 four final season part 2 two devil's child of evil demon hypercute eren jaeger yaeger freedom ending ed 2 last season pop jpop j-pop japanese orchestral anime higuchiai hypercyte
BeatmapID:3569846
BeatmapSetID:1738293

[Difficulty]
HPDrainRate:7
CircleSize:4
OverallDifficulty:7
ApproachRate:7
SliderMultiplier:2.8
SliderTickRate:1

[Events]
//Background and Video events
0,0,"R41Pa.jpg",0,0
Video,54,"akuma no ko 32rf.mp4"
//Break Periods
//Storyboard Layer 0 (Background)
//Storyboard Layer 1 (Fail)
//Storyboard Layer 2 (Pass)
//Storyboard Layer 3 (Foreground)
//Storyboard Layer 4 (Overlay)
//Storyboard Sound Samples

[TimingPoints]
765,666.666666666667,4,2,4,30,1,8
1765,652.173913043479,4,2,4,30,1,8
2091,655.737704918033,4,2,4,30,1,8
3427,681.818181818182,4,2,4,30,1,8
4961,659.340659340659,4,2,4,30,1,8
5125,652.173913043478,4,2,4,30,1,8
6108,666.666666666667,4,2,4,30,1,8
14102,-100,4,2,4,40,0,8
16745,666.666666666667,4,2,4,40,1,8
17245,689.655172413793,4,2,4,40,1,8
17934,618.556701030928,4,2,4,40,1,8
18245,666.666666666667,4,2,4,40,1,8
19411,681.818181818182,4,2,4,40,1,8
20774,666.666666666667,4,2,4,40,1,8
22107,666.666666666667,4,2,4,44,1,8
23440,-100,4,2,4,40,0,8
24107,-55.5555555555556,4,2,4,40,0,0
24773,666.666666666667,4,2,4,50,1,8
24773,-83.3333333333333,4,2,4,50,0,0
25106,-142.857142857143,4,2,4,50,0,0
25523,-142.857142857143,4,2,4,5,0,0
25606,-142.857142857143,4,2,4,50,0,0
25773,-100,4,2,4,50,0,0
33356,-100,4,2,4,5,0,0
33439,-100,4,2,4,50,0,0
34023,-100,4,2,4,5,0,0
34106,-100,4,2,4,50,0,0
35439,-83.3333333333333,4,2,4,50,0,0
35773,-142.857142857143,4,2,4,50,0,0
36439,-100,4,2,4,50,0,0
41439,-100,4,2,4,60,0,0
44606,-100,4,2,4,65,0,0
46106,-100,4,2,4,44,0,0
46273,-100,4,2,4,30,0,0
48689,-100,4,2,4,5,0,0
48773,-100,4,2,4,30,0,0
49439,-100,4,2,4,70,0,0
51439,-1000,4,2,4,70,0,1
52106,-83.3333333333333,4,2,4,70,0,0
56773,-1000,4,2,4,70,0,1
57439,-83.3333333333333,4,2,4,70,0,0
62106,-1000,4,2,4,70,0,1
62773,-83.3333333333333,4,2,4,70,0,0
67439,-1000,4,2,4,70,0,1
68106,-83.3333333333333,4,2,4,70,0,0
82773,-83.3333333333333,4,2,4,30,0,0
83106,-83.3333333333333,4,2,4,35,0,0
86106,-166.666666666667,4,2,4,35,0,0
87189,-166.666666666667,4,2,4,5,0,0

[Colours]
Combo1 : 250,180,240
Combo2 : 120,200,230
Combo3 : 255,230,130
Combo4 : 160,230,150

[HitObjects]
27,61,598,5,0,0:0:0:0:
104,42,765,1,2,0:0:0:0:
179,21,931,1,0,0:0:0:0:
255,0,1098,1,0,0:0:0:0:
27,61,1265,5,0,0:0:0:0:
255,0,1598,1,0,0:0:0:0:
483,144,1928,5,0,0:0:0:0:
406,125,2091,1,2,0:0:0:0:
331,104,2254,1,0,0:0:0:0:
255,83,2418,1,0,0:0:0:0:
483,144,2582,5,0,0:0:0:0:
255,83,2910,1,0,0:0:0:0:
4,227,3238,5,0,0:0:0:0:
77,200,3427,1,2,0:0:0:0:
154,212,3597,1,0,0:0:0:0:
222,258,3767,1,0,0:0:0:0:
222,258,3938,2,0,P|235:294|241:335,1,70
320,247,4279,6,0,L|468:275,1,140,2|2,0:0|0:0,0:0:0:0:
28,318,4961,5,2,0:0:0:0:
101,301,5125,1,2,0:0:0:0:
154,212,5288,1,2,0:0:0:0:
228,195,5451,2,0,L|244:123,1,70
331,104,5777,2,0,L|403:88,1,70
255,0,6108,5,2,0:0:0:0:
179,21,6275,1,0,0:0:0:0:
104,42,6441,1,0,0:0:0:0:
255,0,6608,1,0,0:0:0:0:
27,61,6941,1,0,0:0:0:0:
331,104,7274,5,0,0:0:0:0:
406,125,7441,1,2,0:0:0:0:
483,144,7608,1,0,0:0:0:0:
483,144,7774,1,0,0:0:0:0:
255,83,7941,1,0,0:0:0:0:
406,125,8274,1,0,0:0:0:0:
318,217,8608,5,0,0:0:0:0:
280,275,8774,1,2,0:0:0:0:
211,300,8941,1,0,0:0:0:0:
142,292,9108,2,0,L|125:220,1,70
125,223,9441,1,0,0:0:0:0:
82,339,9608,2,0,P|48:330|9:325,1,70,2|2,0:0|0:0,0:0:0:0:
280,274,9941,6,0,P|339:306|348:373,1,140,2|0,0:0|0:0,0:0:0:0:
171,375,10441,2,0,P|205:363|244:344,1,70
235,196,10774,2,0,P|246:229|261:260,1,70,0|2,0:0|0:0,0:0:0:0:
358,361,11108,2,0,P|432:334|502:322,1,140,2|2,0:0|0:0,0:0:0:0:
0,191,12108,5,0,0:0:0:0:
492,62,12774,5,0,0:0:0:0:
400,84,13108,1,0,0:0:0:0:
256,0,13441,1,0,0:0:0:0:
299,69,13941,5,2,0:0:0:0:
201,95,14108,2,0,L|118:116,1,70,6|0,0:0|0:0,0:0:0:0:
197,188,14441,1,0,0:0:0:0:
351,223,14608,2,0,L|495:250,1,140
431,201,15274,5,0,0:0:0:0:
273,287,15441,1,2,0:0:0:0:
197,275,15608,1,0,0:0:0:0:
122,260,15774,1,0,0:0:0:0:
8,362,15941,2,0,L|145:333,1,140
464,376,16608,5,0,0:0:0:0:
341,329,16745,1,2,0:0:0:0:
417,309,16911,1,0,0:0:0:0:
341,329,17078,1,0,0:0:0:0:
267,349,17245,1,0,0:0:0:0:
494,288,17589,1,0,0:0:0:0:
267,349,17934,1,0,0:0:0:0:
417,48,18245,5,2,0:0:0:0:
328,77,18411,1,2,0:0:0:0:
191,195,18578,1,2,0:0:0:0:
96,178,18745,2,0,L|80:92,1,70
191,195,19078,2,0,L|351:220,1,140,0|2,0:0|0:0,0:0:0:0:
421,190,19581,1,0,0:0:0:0:
512,162,19751,1,0,0:0:0:0:
329,216,19922,1,0,0:0:0:0:
106,274,20263,1,0,0:0:0:0:
35,235,20604,5,0,0:0:0:0:
176,313,20774,2,0,L|244:299,1,70,2|0,0:0|0:0,0:0:0:0:
329,216,21107,2,0,L|315:147,1,70
191,195,21440,1,0,0:0:0:0:
363,310,21607,2,0,L|504:348,1,140
295,374,22107,5,2,0:0:0:0:
295,374,22273,1,2,0:0:0:0:
176,313,22440,1,2,0:0:0:0:
48,348,22607,1,0,0:0:0:0:
176,313,22940,1,0,0:0:0:0:
318,55,23273,1,2,0:0:0:0:
449,25,23440,1,2,0:0:0:0:
449,25,24107,6,0,P|395:175|111:132,1,440.999986541748
4,248,24773,6,0,L|54:234,1,41.9999987182618,8|0,0:2|0:0,0:0:0:0:
99,92,24939,2,0,L|139:80,1,41.9999987182618,8|0,0:2|0:0,0:0:0:0:
189,22,25106,2,0,L|287:37,1,97.9999970092774,8|2,0:2|0:0,0:0:0:0:
285,36,25773,6,0,L|297:137,1,70,0|8,0:0|0:2,0:0:0:0:
395,132,26106,2,0,L|463:145,1,70,10|0,0:0|0:0,0:0:0:0:
326,202,26439,2,0,L|258:219,1,70,2|0,3:2|0:0,0:0:0:0:
36,308,26773,5,2,0:0:0:0:
110,287,26939,1,0,0:0:0:0:
186,299,27106,1,2,0:0:0:0:
244,352,27273,1,0,0:0:0:0:
244,352,27439,1,10,0:2:0:0:
36,308,27606,5,0,0:0:0:0:
110,287,27773,1,0,3:0:0:0:
174,246,27939,2,0,L|189:106,1,140
285,127,28439,2,0,L|352:109,1,70,0|8,0:0|0:2,0:0:0:0:
184,11,28773,6,0,P|118:23|93:85,1,140,2|2,0:0|0:0,0:0:0:0:
93,85,29273,1,0,0:0:0:0:
285,127,29439,2,0,L|438:157,1,140,2|2,0:0|0:0,0:0:0:0:
512,124,30106,5,10,0:2:0:0:
312,221,30273,1,8,0:2:0:0:
512,124,30439,1,8,0:2:0:0:
312,221,30773,1,0,0:0:0:0:
402,248,31106,1,0,0:0:0:0:
269,350,31273,5,8,0:2:0:0:
145,318,31439,2,0,L|75:338,1,70,10|0,0:0|0:0,0:0:0:0:
215,257,31773,2,0,L|195:187,1,70,10|0,0:2|0:0,0:0:0:0:
0,99,32106,2,0,L|138:121,1,140,2|2,0:0|0:0,0:0:0:0:
382,6,32773,5,10,0:0:0:0:
222,52,32939,1,0,0:0:0:0:
318,72,33106,1,8,0:2:0:0:
415,92,33273,1,0,0:0:0:0:
222,52,33439,1,2,0:0:0:0:
415,92,33773,5,0,0:0:0:0:
318,72,33939,1,8,0:2:0:0:
504,106,34106,2,0,P|531:170|513:236,1,140,2|8,0:0|0:2,0:0:0:0:
512,235,34606,1,0,0:0:0:0:
424,288,34773,2,0,L|277:262,1,140,2|0,0:0|0:0,0:0:0:0:
124,367,35189,5,0,0:0:0:0:
124,367,35273,1,0,0:0:0:0:
124,367,35356,1,0,0:0:0:0:
124,367,35439,2,0,L|166:359,1,41.9999987182618,12|0,0:0|0:0,0:0:0:0:
244,271,35606,2,0,L|286:263,1,41.9999987182618,8|0,0:0|0:0,0:0:0:0:
359,245,35773,2,0,P|365:193|318:155,1,97.9999970092774,8|2,0:0|0:0,0:0:0:0:
17,2,36439,6,0,L|100:17,1,70,0|8,0:0|0:2,0:0:0:0:
151,101,36773,2,0,L|299:72,1,140,10|10,0:0|0:0,0:0:0:0:
216,46,37273,1,0,0:0:0:0:
95,164,37439,5,2,0:0:0:0:
16,179,37606,1,0,0:0:0:0:
67,240,37773,1,2,0:0:0:0:
146,225,37940,1,0,0:0:0:0:
256,363,38106,5,10,0:0:0:0:
43,314,38439,1,8,0:2:0:0:
256,363,38773,1,0,0:0:0:0:
469,314,39106,6,0,L|455:245,1,70,0|8,0:0|0:2,0:0:0:0:
512,162,39439,2,0,L|372:139,1,140,2|10,0:0|0:0,0:0:0:0:
310,207,39939,1,0,0:0:0:0:
217,113,40106,2,0,L|294:99,1,70,2|0,0:0|0:0,0:0:0:0:
139,68,40439,2,0,L|0:45,1,140,2|8,0:0|0:0,0:0:0:0:
242,0,40939,5,8,0:0:0:0:
373,24,41106,1,8,0:0:0:0:
51,180,41439,5,2,0:0:0:0:
123,245,41939,1,10,0:0:0:0:
310,207,42106,1,10,0:0:0:0:
402,225,42273,1,0,0:0:0:0:
494,248,42439,1,8,0:2:0:0:
310,207,42606,1,0,0:0:0:0:
494,248,42773,2,0,L|503:298,4,35,2|0|0|0|0,0:0|0:0|0:0|0:0|0:0,0:0:0:0:
402,225,43273,1,2,0:0:0:0:
244,362,43439,5,10,0:0:0:0:
39,313,43606,1,0,0:0:0:0:
123,245,43773,1,8,0:2:0:0:
215,230,43939,1,0,0:0:0:0:
24,179,44106,2,0,P|-7:120|17:57,1,140,0|2,0:0|0:0,0:0:0:0:
17,57,44606,1,10,0:0:0:0:
235,15,44773,5,8,0:2:0:0:
159,36,44939,1,0,0:0:0:0:
291,77,45106,1,0,0:0:0:0:
215,98,45272,1,2,0:2:0:0:
512,203,45439,5,2,0:2:0:0:
420,185,45606,1,2,0:2:0:0:
291,77,45773,1,0,0:0:0:0:
381,100,45939,1,0,0:0:0:0:
420,185,46106,6,0,L|411:218,1,35,2|0,0:0|0:0,0:0:0:0:
393,187,47439,2,0,L|402:220,1,35,2|0,0:2|0:0,0:0:0:0:
363,206,48773,2,0,L|388:230,1,35,2|0,0:2|0:0,0:0:0:0:
432,296,50773,5,2,0:0:0:0:
411,300,50884,1,2,0:0:0:0:
390,304,50995,1,2,0:0:0:0:
372,308,51106,2,0,L|341:314,1,23.3333333333333,2|0,0:0|0:0,0:0:0:0:
273,328,51217,2,0,L|242:334,1,23.3333333333333,2|0,0:0|0:0,0:0:0:0:
175,348,51328,2,0,L|144:354,1,23.3333333333333,2|0,0:0|0:0,0:0:0:0:
33,375,51439,6,0,L|61:370,1,28,14|0,0:0|0:0,0:0:0:0:
152,352,52273,6,0,L|168:256,1,83.9999974365235,0|8,0:0|0:1,0:0:0:0:
279,204,52606,1,8,0:1:0:0:
279,204,52689,1,8,0:1:0:0:
279,204,52773,2,0,P|337:200|383:87,1,167.999994873047,10|0,0:1|0:0,0:0:0:0:
389,112,53273,1,0,0:0:0:0:
334,39,53439,2,0,L|166:12,1,167.999994873047
96,46,53939,5,8,0:0:0:0:
8,178,54106,2,0,L|184:146,1,167.999994873047,10|0,0:0|0:0,0:0:0:0:
139,255,54606,1,0,0:0:0:0:
333,293,54773,2,0,L|498:323,1,167.999994873047,0|8,0:0|0:1,0:0:0:0:
247,328,55273,5,8,0:1:0:0:
247,328,55356,1,8,0:1:0:0:
247,328,55439,1,10,0:1:0:0:
333,293,55606,1,8,0:1:0:0:
165,358,55773,2,0,L|0:327,1,167.999994873047
389,112,56439,5,0,0:0:0:0:
467,124,56606,1,0,0:0:0:0:
260,216,56773,6,0,L|230:211,1,28,10|0,0:0|3:0,0:0:0:0:
155,200,57606,6,0,P|131:233|129:275,1,83.9999974365235,0|8,0:0|0:1,0:0:0:0:
335,341,57939,1,8,0:1:0:0:
335,341,58023,1,8,0:1:0:0:
335,341,58106,2,0,L|431:327,1,83.9999974365235,10|0,0:1|0:0,0:0:0:0:
495,263,58439,2,0,L|510:180,1,83.9999974365235
227,304,58773,2,0,L|58:332,1,167.999994873047,2|2,0:0|0:0,0:0:0:0:
0,282,59273,1,8,0:0:0:0:
255,384,59439,5,10,0:0:0:0:
63,192,59773,1,2,0:0:0:0:
256,0,60105,1,2,0:0:0:0:
449,192,60439,1,10,0:0:0:0:
261,81,60773,5,10,0:1:0:0:
261,81,60856,1,0,0:0:0:0:
261,81,60939,2,0,L|202:72,1,41.9999987182618,10|0,0:1|0:0,0:0:0:0:
168,132,61106,2,0,L|126:125,1,41.9999987182618,2|0,0:0|0:0,0:0:0:0:
104,198,61273,2,0,L|62:191,1,41.9999987182618,2|0,0:0|0:0,0:0:0:0:
159,271,61439,6,0,L|200:264,1,41.9999987182618,2|0,0:0|0:0,0:0:0:0:
299,315,61606,2,0,L|340:308,1,41.9999987182618,2|0,0:0|0:0,0:0:0:0:
483,330,61773,1,2,0:0:0:0:
483,330,61856,1,0,0:0:0:0:
483,330,61939,1,2,0:0:0:0:
483,330,62023,1,0,0:0:0:0:
359,353,62106,6,0,L|332:347,1,28,12|0,0:0|0:0,0:0:0:0:
255,384,62939,1,0,0:0:0:0:
177,353,63106,2,0,L|157:262,1,83.9999974365235,8|8,0:1|0:1,0:0:0:0:
268,209,63356,1,8,0:1:0:0:
268,209,63439,2,0,L|377:228,1,83.9999974365235,10|0,0:1|0:0,0:0:0:0:
443,233,63773,2,0,L|457:150,1,83.9999974365235
367,48,64106,2,0,L|182:80,1,167.999994873047
0,151,64606,5,8,0:0:0:0:
78,205,64773,1,8,0:0:0:0:
319,135,64939,1,10,0:0:0:0:
90,122,65106,2,0,L|70:23,1,83.9999974365235
168,180,65439,1,0,0:0:0:0:
319,135,65773,2,0,L|418:149,1,83.9999974365235,8|8,0:1|0:1,0:0:0:0:
501,238,66023,5,8,0:1:0:0:
501,238,66106,1,10,0:1:0:0:
456,319,66273,2,0,L|206:353,1,251.999992309571,8|2,0:1|0:0,0:0:0:0:
206,352,67106,5,2,0:0:0:0:
36,125,67273,1,2,0:0:0:0:
95,13,67439,6,0,L|99:41,1,28,10|0,0:0|0:0,0:0:0:0:
168,180,68273,5,0,0:0:0:0:
233,132,68439,2,0,L|251:41,1,83.9999974365235,8|8,0:1|0:1,0:0:0:0:
345,93,68689,1,8,0:1:0:0:
345,93,68773,2,0,L|511:68,1,167.999994873047,10|0,0:1|0:0,0:0:0:0:
426,45,69273,1,0,0:0:0:0:
371,166,69439,2,0,P|355:204|349:246,1,83.9999974365235,2|0,0:0|0:0,0:0:0:0:
278,315,69773,2,0,L|167:299,1,83.9999974365235,2|8,0:0|0:0,0:0:0:0:
0,256,70106,5,10,0:0:0:0:
371,166,70439,1,2,0:0:0:0:
141,218,70773,1,2,0:0:0:0:
512,128,71106,1,2,0:0:0:0:
461,204,71439,5,8,0:1:0:0:
52,182,71606,1,8,0:1:0:0:
52,182,72106,2,0,L|35:89,1,83.9999974365235,2|2,0:0|0:0,0:0:0:0:
186,7,72439,5,2,0:0:0:0:
186,7,72523,1,0,0:0:0:0:
186,7,72606,1,2,0:0:0:0:
186,7,72689,1,0,0:0:0:0:
262,39,72773,2,0,L|344:25,1,83.9999974365235,12|0,0:0|0:0,0:0:0:0:
211,127,73106,2,0,L|128:113,1,83.9999974365235
332,185,73439,2,0,L|414:171,1,83.9999974365235,8|8,0:0|0:0,0:0:0:0:
152,239,73773,2,0,L|69:225,1,83.9999974365235,12|0,0:0|0:0,0:0:0:0:
349,359,74106,5,2,0:0:0:0:
446,341,74273,1,2,0:0:0:0:
256,293,74439,1,2,0:0:0:0:
333,276,74606,1,2,0:0:0:0:
160,355,74773,1,2,0:0:0:0:
64,337,74939,2,0,L|51:254,2,83.9999974365235,10|10|2,0:0|0:0|0:0,0:0:0:0:
160,355,75439,6,0,L|246:369,1,83.9999974365235,8|0,0:0|0:0,0:0:0:0:
377,267,75773,2,0,L|291:281,1,83.9999974365235
95,172,76106,2,0,L|181:186,1,83.9999974365235,8|8,0:1|0:1,0:0:0:0:
433,92,76439,2,0,L|347:106,1,83.9999974365235,8|0,0:1|0:0,0:0:0:0:
192,30,76773,2,0,L|26:0,1,167.999994873047
102,59,77273,1,0,0:0:0:0:
298,2,77439,5,2,0:0:0:0:
389,17,77606,1,10,0:0:0:0:
512,38,77773,1,10,0:0:0:0:
389,17,77939,1,2,0:0:0:0:
512,38,78106,1,8,0:0:0:0:
105,174,78606,5,0,0:0:0:0:
204,149,78773,1,2,0:0:0:0:
413,196,78939,1,2,0:0:0:0:
313,225,79106,1,10,0:1:0:0:
136,95,79273,1,10,0:1:0:0:
136,95,79439,1,12,0:0:0:0:
25,211,79939,5,0,0:0:0:0:
168,236,80106,1,2,0:0:0:0:
246,301,80273,1,2,0:0:0:0:
149,339,80439,1,2,0:0:0:0:
366,369,80606,5,2,0:0:0:0:
493,384,80773,1,8,0:0:0:0:
168,236,81106,5,0,0:0:0:0:
369,211,81439,1,10,0:0:0:0:
0,61,81773,5,2,0:0:0:0:
255,0,82106,1,6,0:0:0:0:
256,192,82189,12,2,85439,0:0:0:0:
378,144,86106,6,0,L|461:155,2,83.9999974365235,0|0|2,0:0|0:0|0:0,0:0:0:0:
134,240,87106,1,2,3:2:0:0:
