osu file format v14

[General]
AudioFilename: audio.mp3
AudioLeadIn: 0
PreviewTime: 50689
Countdown: 0
SampleSet: Soft
StackLeniency: 0.4
Mode: 0
LetterboxInBreaks: 0
WidescreenStoryboard: 1

[Editor]
Bookmarks: 34106
DistanceSpacing: 1.4
BeatDivisor: 4
GridSize: 32
TimelineZoom: 1.4

[Metadata]
Title:Akuma no Ko (TV Size)
TitleUnicode:悪魔の子 (TV Size)
Artist:Ai Higuchi
ArtistUnicode:ヒグチアイ
Creator:Aakki
Version:Easy
Source:進撃の巨人 Attack on Titan The Final Season Part 2
Tags:erisu lanzhu mayuzumi fuyuko iceluin zelq een persoon butylcyclobutyn enneya aot snk attack on titan shingeki no kyojin season 4 four final season part 2 two devil's child of evil demon hypercute eren jaeger yaeger freedom ending ed 2 last season pop jpop j-pop japanese orchestral anime higuchiai hypercyte
BeatmapID:3575066
BeatmapSetID:1738293

[Difficulty]
HPDrainRate:3
CircleSize:2.7
OverallDifficulty:3
ApproachRate:3.5
SliderMultiplier:1.3
SliderTickRate:1

[Events]
//Background and Video events
0,0,"R41Pa.jpg",0,0
Video,54,"akuma no ko 32rf.mp4"
//Break Periods
2,46306,50059
//Storyboard Layer 0 (Background)
//Storyboard Layer 1 (Fail)
//Storyboard Layer 2 (Pass)
//Storyboard Layer 3 (Foreground)
//Storyboard Layer 4 (Overlay)
//Storyboard Sound Samples

[TimingPoints]
765,666.666666666667,4,2,4,30,1,8
765,-100,4,2,4,30,0,8
1765,652.173913043479,4,2,4,30,1,8
1765,-100,4,2,4,30,0,8
2091,655.737704918033,4,2,4,30,1,8
2091,-100,4,2,4,30,0,8
3427,681.818181818182,4,2,4,30,1,8
3427,-100,4,2,4,30,0,8
4790,-97.0873786407767,4,2,4,30,0,8
4961,659.340659340659,4,2,4,30,1,8
4961,-100,4,2,4,30,0,8
5125,652.173913043478,4,2,4,30,1,8
5125,-100,4,2,4,30,0,8
6108,666.666666666667,4,2,4,30,1,8
6108,-100,4,2,4,30,0,8
11441,-100,4,2,4,30,0,8
14108,-100,4,2,4,40,0,8
16745,666.666666666667,4,2,4,40,1,8
16745,-100,4,2,4,40,0,8
17245,689.655172413793,4,2,4,40,1,8
17245,-100,4,2,4,40,0,8
17934,618.556701030928,4,2,4,40,1,8
17934,-100,4,2,4,40,0,8
18245,666.666666666667,4,2,4,40,1,8
18245,-100,4,2,4,40,0,8
19411,681.818181818182,4,2,4,40,1,8
19411,-100,4,2,4,40,0,8
20774,666.666666666667,4,2,4,40,1,8
20774,-100,4,2,4,40,0,8
22107,666.666666666667,4,2,4,44,1,8
22107,-100,4,2,4,44,0,8
23273,-100,4,2,4,44,0,8
23440,-100,4,2,4,40,0,8
24107,-100,4,2,4,40,0,8
24773,666.666666666667,4,2,4,50,1,8
24773,-100,4,2,4,50,0,8
25523,-100,4,2,4,5,0,8
25606,-100,4,2,4,50,0,8
25773,-100,4,2,4,50,0,8
26106,-100,4,2,4,50,0,8
26773,-100,4,2,4,50,0,8
28439,-100,4,2,4,50,0,8
28773,-100,4,2,4,50,0,8
30106,-100,4,2,4,50,0,8
31106,-100,4,2,4,50,0,8
31439,-100,4,2,4,50,0,8
32106,-100,4,2,4,50,0,8
32773,-100,4,2,4,50,0,8
33356,-100,4,2,4,5,0,8
33439,-100,4,2,4,50,0,8
34023,-100,4,2,4,5,0,8
34106,-100,4,2,4,50,0,8
34773,-100,4,2,4,50,0,8
35439,-100,4,2,4,50,0,8
36439,-100,4,2,4,50,0,8
36772,-100,4,2,4,50,0,8
37439,-100,4,2,4,50,0,8
39105,-100,4,2,4,50,0,8
39439,-100,4,2,4,50,0,8
40772,-100,4,2,4,50,0,8
41439,-100,4,2,4,60,0,8
41772,-100,4,2,4,60,0,8
42105,-100,4,2,4,60,0,8
42772,-100,4,2,4,60,0,8
43439,-100,4,2,4,60,0,8
44105,-100,4,2,4,60,0,8
44606,-100,4,2,4,65,0,8
44772,-100,4,2,4,65,0,8
45439,-100,4,2,4,65,0,8
46106,-100,4,2,4,44,0,8
46273,-100,4,2,4,30,0,8
48689,-100,4,2,4,5,0,8
48773,-100,4,2,4,30,0,8
49439,-100,4,2,4,70,0,8
51439,-100,4,2,4,70,0,9
52106,-100,4,2,4,70,0,9
53439,-100,4,2,4,70,0,9
54106,-100,4,2,4,70,0,9
55106,-100,4,2,4,70,0,9
55606,-100,4,2,4,70,0,9
56106,-100,4,2,4,70,0,9
56773,-100,4,2,4,70,0,9
58773,-100,4,2,4,70,0,9
59439,-100,4,2,4,70,0,9
60773,-100,4,2,4,70,0,9
61439,-100,4,2,4,70,0,9
62106,-100,4,2,4,70,0,9
62773,-100,4,2,4,70,0,9
64106,-100,4,2,4,70,0,9
64773,-100,4,2,4,70,0,9
65773,-100,4,2,4,70,0,9
66273,-100,4,2,4,70,0,9
66773,-100,4,2,4,70,0,9
67439,-100,4,2,4,70,0,9
69439,-100,4,2,4,70,0,9
70106,-100,4,2,4,70,0,9
72106,-100,4,2,4,70,0,9
72773,-100,4,2,4,70,0,8
82106,-100,4,2,4,70,0,8
82773,-100,4,2,4,30,0,8
83106,-100,4,2,4,35,0,8
87189,-100,4,2,4,5,0,8

[Colours]
Combo1 : 196,136,255
Combo2 : 255,204,255
Combo3 : 192,192,192
Combo4 : 185,185,115

[HitObjects]
256,192,11441,12,0,13441,0:0:0:0:
469,51,14108,6,0,P|412:39|347:98,1,130,6|0,0:0|0:0,0:0:0:0:
335,159,15108,1,0,0:0:0:0:
381,229,15441,2,0,P|392:275|398:302,2,65,2|0|0,0:0|0:0|0:0,0:0:0:0:
251,326,16745,5,2,0:0:0:0:
147,260,17245,2,0,P|108:260|81:293,1,65
5,231,17934,1,0,0:0:0:0:
30,143,18243,5,2,0:0:0:0:
161,103,18745,2,0,P|166:147|175:194,1,65
234,228,19411,2,0,P|276:232|314:152,1,130,2|0,0:0|0:0,0:0:0:0:
459,44,20774,2,0,P|465:105|472:123,2,65,2|0|0,0:0|0:0|0:0,0:0:0:0:
378,86,21774,1,0,0:0:0:0:
300,38,22107,6,0,B|235:31|235:31|172:77|172:77|105:68,1,195,2|0,0:0|0:0,0:0:0:0:
49,126,23440,1,2,0:0:0:0:
360,313,24773,6,0,P|395:295|392:198,1,130,8|2,0:2|0:0,0:0:0:0:
332,155,25773,1,0,0:0:0:0:
250,196,26106,2,0,P|217:214|167:240,2,65,10|2|2,0:0|3:2|0:0,0:0:0:0:
391,80,27439,6,0,P|404:30|398:11,1,65,10|0,0:2|3:0,0:0:0:0:
222,51,28439,1,0,0:0:0:0:
158,116,28773,2,0,P|134:162|119:245,1,130,2|2,0:0|0:0,0:0:0:0:
160,319,29773,1,2,0:0:0:0:
76,354,30106,6,0,P|31:359|-6:283,1,130,10|0,0:2|0:0,0:0:0:0:
33,213,31106,1,0,0:0:0:0:
23,122,31439,2,0,P|13:90|12:53,2,65,10|10|2,0:0|0:2|0:0,0:0:0:0:
187,196,32773,6,0,B|255:202|236:152|332:168,1,130,10|2,0:0|0:0,0:0:0:0:
476,90,34106,2,0,P|483:47|440:21,1,97.5,2|0,0:0|0:0,0:0:0:0:
396,19,34773,2,0,P|352:38|326:43,1,65,2|0,0:0|0:0,0:0:0:0:
272,107,35439,6,0,P|255:151|308:211,1,130,12|2,0:0|0:0,0:0:0:0:
380,257,36439,1,0,0:0:0:0:
345,341,36773,2,0,P|306:361|277:367,2,65,10|10|2,0:0|0:0|0:0,0:0:0:0:
496,239,38106,6,0,P|503:193|501:158,1,65,10|8,0:0|0:2,0:0:0:0:
379,40,39106,1,0,0:0:0:0:
305,93,39439,2,0,P|249:115|174:100,1,130,2|2,0:0|0:0,0:0:0:0:
105,53,40439,1,2,0:0:0:0:
46,122,40773,6,0,B|16:166|16:166|44:253,1,130,8|2,0:0|0:0,0:0:0:0:
189,342,42106,2,0,B|218:337|241:304|241:304|239:345|267:367,1,130,10|2,0:0|0:0,0:0:0:0:
411,259,43439,6,0,P|449:207|475:65,1,195,10|2,0:0|0:0,0:0:0:0:
389,52,44773,2,0,P|351:104|325:246,1,195,8|0,0:2|0:0,0:0:0:0:
355,315,46106,1,2,0:0:0:0:
355,315,51439,6,0,P|308:330|221:342,1,130,14|0,0:0|0:0,0:0:0:0:
148,298,52439,1,8,0:1:0:0:
149,213,52773,2,0,P|160:175|168:131,1,65,10|0,0:1|0:0,0:0:0:0:
111,76,53439,1,0,0:0:0:0:
32,122,53773,1,0,0:0:0:0:
47,211,54106,6,0,L|73:341,1,130,10|0,0:0|0:0,0:0:0:0:
163,347,55106,1,8,0:1:0:0:
222,277,55439,2,0,B|240:263|244:234|244:234|207:210|209:143,1,130,10|0,0:1|0:0,0:0:0:0:
378,96,56773,6,0,L|340:243,1,130,10|0,0:0|3:0,0:0:0:0:
404,291,57773,1,8,0:1:0:0:
354,367,58106,2,0,P|304:366|276:357,1,65,10|0,0:1|0:0,0:0:0:0:
232,291,58773,1,2,0:0:0:0:
252,202,59106,1,2,0:0:0:0:
319,140,59439,6,0,P|331:100|337:72,1,65,10|2,0:0|0:0,0:0:0:0:
257,30,60106,1,2,0:0:0:0:
174,67,60439,1,10,0:0:0:0:
159,166,60773,6,0,B|125:192|115:251|115:251|77:210|26:213,1,195,10|2,0:1|0:0,0:0:0:0:
32,302,62106,6,0,P|87:342|168:323,1,130,12|0,0:0|0:0,0:0:0:0:
235,331,63106,1,8,0:1:0:0:
273,248,63439,2,0,P|265:205|247:163,1,65,10|0,0:1|0:0,0:0:0:0:
183,132,64106,1,0,0:0:0:0:
207,44,64439,1,0,0:0:0:0:
295,22,64773,6,0,P|352:29|434:63,1,130,8|0,0:0|0:0,0:0:0:0:
486,116,65773,1,8,0:1:0:0:
422,181,66106,2,0,B|403:259|439:237|414:324,1,130,10|0,0:1|0:0,0:0:0:0:
244,364,67439,6,0,P|211:321|237:250,1,130,10|0,0:0|0:0,0:0:0:0:
302,195,68439,1,8,0:1:0:0:
257,115,68773,2,0,P|217:127|181:135,1,65,10|0,0:1|0:0,0:0:0:0:
113,91,69439,1,2,0:0:0:0:
58,163,69773,1,2,0:0:0:0:
116,232,70106,6,0,P|152:278|163:307,2,65,10|2|2,0:0|0:0|0:0,0:0:0:0:
44,287,71106,1,2,0:0:0:0:
99,358,71439,2,0,P|150:376|182:369,1,65,8|0,0:1|0:0,0:0:0:0:
239,341,72106,6,0,L|291:367,2,32.5,2|2|2,0:0|0:0|0:0,0:0:0:0:
221,254,72773,6,0,P|213:210|207:159,2,65,12|0|8,0:0|0:0|0:0,0:0:0:0:
305,287,73773,1,12,0:0:0:0:
376,230,74106,1,2,0:0:0:0:
497,93,74773,2,0,P|471:53|462:22,1,65,2|10,0:0|0:0,0:0:0:0:
379,67,75439,6,0,P|380:107|368:148,2,65,8|0|8,0:0|0:0|0:1,0:0:0:0:
305,13,76439,1,8,0:1:0:0:
243,80,76773,1,0,0:0:0:0:
71,20,77439,2,0,L|-1:45,1,65,2|10,0:0|0:0,0:0:0:0:
28,130,78106,6,0,P|49:166|45:208,1,65,8|0,0:0|0:0,0:0:0:0:
102,263,78773,1,2,0:0:0:0:
191,246,79106,1,10,0:1:0:0:
214,158,79439,1,12,0:0:0:0:
329,17,80106,2,0,P|396:35|415:41,1,65,2|2,0:0|0:0,0:0:0:0:
460,93,80773,6,0,P|464:133|430:166,1,65,8|0,0:0|0:0,0:0:0:0:
368,190,81439,1,10,0:0:0:0:
331,273,81773,1,2,0:0:0:0:
373,353,82106,5,6,0:0:0:0:
256,192,82439,12,2,87106,3:2:0:0:
