osu file format v14

[General]
AudioFilename: audio.mp3
AudioLeadIn: 0
PreviewTime: 37649
Countdown: 0
SampleSet: Soft
StackLeniency: 0.6
Mode: 0
LetterboxInBreaks: 0
WidescreenStoryboard: 1

[Editor]
DistanceSpacing: 1
BeatDivisor: 4
GridSize: 8
TimelineZoom: 1.7

[Metadata]
Title:Koko wa Doko (TV Size)
TitleUnicode:ココハドコ (TV Size)
Artist:Ahomushi
ArtistUnicode:あほむし
Creator:Affirmation
Version:Normal
Source:ソウナンですか?
Tags:M・A・O 河野ひより 安野希世乃 和氣あず未 japanese anime sounan desu ka? are you lost?
BeatmapID:2194548
BeatmapSetID:1049704

[Difficulty]
HPDrainRate:3.8
CircleSize:3.3
OverallDifficulty:4.8
ApproachRate:5.2
SliderMultiplier:1
SliderTickRate:1

[Events]
//Background and Video events
Video,469,"video.avi"
0,0,"BG.jpg",0,0
//Break Periods
//Storyboard Layer 0 (Background)
//Storyboard Layer 1 (Fail)
//Storyboard Layer 2 (Pass)
//Storyboard Layer 3 (Foreground)
//Storyboard Layer 4 (Overlay)
//Storyboard Sound Samples

[TimingPoints]
472,322.58064516129,4,2,1,65,1,0
472,-90.9090909090909,4,2,1,65,0,0
1762,-90.9090909090909,4,2,1,75,0,0
12084,-90.9090909090909,4,2,2,45,0,0
20955,-90.9090909090909,4,2,1,60,0,0
22084,-90.9090909090909,4,2,1,65,0,0
22407,-90.9090909090909,4,2,1,60,0,0
32730,-90.9090909090909,4,2,1,50,0,0
35310,-90.9090909090909,4,2,1,60,0,0
37891,-90.9090909090909,4,2,1,80,0,1
57891,-90.9090909090909,4,2,1,80,0,0
58213,-90.9090909090909,4,2,1,15,0,0

[Colours]
Combo1 : 17,179,219
Combo2 : 255,210,106
Combo3 : 210,23,80
Combo4 : 33,207,14

[HitObjects]
95,82,472,6,0,L|99:136,1,55.0000016784668,4|0,1:2|3:2,0:0:0:0:
146,164,794,2,0,L|141:218,1,55.0000016784668,0|0,1:2|3:2,0:0:0:0:
95,246,1117,1,0,1:2:0:0:
187,305,1439,2,0,L|241:300,1,55.0000016784668,0|0,1:2|3:2,0:0:0:0:
275,256,1762,5,12,3:2:0:0:
362,191,2084,2,0,P|417:198|465:224,2,110.000003356934,0|0|0,1:2|1:2|1:2,0:0:0:0:
316,161,2891,1,0,3:2:0:0:
279,57,3213,2,0,P|230:83|176:90,1,110.000003356934,0|0,3:2|3:2,0:0:0:0:
124,72,3697,2,0,L|127:14,2,55.0000016784668,0|0|0,1:2|3:2|1:2,0:0:0:0:
51,154,4342,5,4,3:2:0:0:
117,241,4665,2,0,P|83:284|31:297,2,110.000003356934,0|0|0,1:2|1:2|1:2,0:0:0:0:
154,201,5471,1,0,3:2:0:0:
226,284,5794,2,0,P|280:276|334:269,1,110.000003356934,0|0,3:2|3:2,0:0:0:0:
363,221,6278,2,0,P|390:224|417:228,2,55.0000016784668,0|0|0,1:2|3:2|1:2,0:0:0:0:
289,138,6923,5,4,3:2:0:0:
357,51,7246,2,0,P|411:52|453:85,2,110.000003356934,0|0|0,1:2|1:2|1:2,0:0:0:0:
306,28,8052,1,0,3:2:0:0:
208,78,8375,2,0,P|156:98|102:100,1,110.000003356934,0|0,3:2|3:2,0:0:0:0:
51,79,8859,2,0,L|55:25,2,55.0000016784668,0|0|0,1:2|3:2|1:2,0:0:0:0:
20,192,9504,6,0,P|28:246|37:300,1,110.000003356934,4|0,1:2|3:2,0:0:0:0:
19,353,9988,2,0,P|71:363|114:332,1,110.000003356934,4|0,1:2|3:2,0:0:0:0:
144,286,10471,1,4,1:2:0:0:
245,329,10794,2,0,P|326:316|408:304,2,165.000005035401,0|4|0,1:2|1:2|1:2,0:0:0:0:
219,221,12084,1,12,3:2:0:0:
283,131,12407,6,0,P|337:139|391:147,1,110.000003356934,0|0,3:2|3:2,0:0:0:0:
413,39,13052,1,0,3:2:0:0:
413,39,13213,2,0,P|358:30|304:22,1,110.000003356934,0|0,0:0|0:0,0:0:0:0:
201,63,13859,1,0,0:0:0:0:
201,63,14020,2,0,P|196:90|190:117,2,55.0000016784668,0|2|0,3:2|0:2|3:2,0:0:0:0:
98,23,14665,5,0,3:2:0:0:
41,117,14988,2,0,P|50:172|58:226,1,110.000003356934,0|0,3:2|3:2,0:0:0:0:
51,335,15633,1,0,3:2:0:0:
51,335,15794,2,0,P|106:326|160:318,1,110.000003356934,0|0,0:0|0:0,0:0:0:0:
259,271,16439,1,0,0:0:0:0:
259,271,16601,2,0,P|286:275|313:279,2,55.0000016784668,0|2|0,3:2|0:2|3:2,0:0:0:0:
190,184,17246,5,0,3:2:0:0:
258,98,17568,1,0,3:2:0:0:
341,169,17891,2,0,P|395:165|438:132,1,110.000003356934,0|0,3:2|3:2,0:0:0:0:
472,88,18375,2,0,L|460:252,1,165.000005035401,0|0,0:0|3:2,0:0:0:0:
429,358,19181,2,0,L|374:354,1,55.0000016784668,0|0,3:2|0:0,0:0:0:0:
331,319,19504,2,0,L|276:322,1,55.0000016784668,0|0,3:2|0:0,0:0:0:0:
236,361,19826,5,0,3:2:0:0:
153,288,20149,2,0,P|99:299|47:318,2,110.000003356934,0|2|0,3:2|3:2|3:2,0:0:0:0:
184,244,20955,1,0,1:2:0:0:
506,33,22084,2,0,P|483:17|456:10,1,55.0000016784668,0|0,1:0|1:0,0:0:0:0:
402,22,22407,5,12,3:2:0:0:
316,90,22730,2,0,P|264:108|210:101,1,110.000003356934,0|0,1:0|3:0,0:0:0:0:
107,62,23375,1,0,1:0:0:0:
62,94,23536,2,0,L|65:203,1,110.000003356934,0|0,3:0|3:0,0:0:0:0:
88,254,24020,2,0,P|113:244|140:239,1,55.0000016784668,0|0,1:0|0:0,0:0:0:0:
194,253,24342,2,0,L|192:307,2,55.0000016784668,0|0|0,3:0|3:0|1:0,0:0:0:0:
291,201,24988,5,0,3:0:0:0:
360,286,25310,2,0,P|413:296|462:274,1,110.000003356934,0|0,1:0|3:0,0:0:0:0:
497,169,25955,1,0,1:0:0:0:
458,129,26117,2,0,P|468:74|478:20,2,110.000003356934,0|0|0,3:0|3:0|0:0,0:0:0:0:
403,138,26923,2,0,L|405:192,2,55.0000016784668,0|0|0,3:0|3:0|1:0,0:0:0:0:
338,48,27568,5,4,3:2:0:0:
255,120,27891,1,0,1:0:0:0:
167,51,28213,2,0,P|115:35|65:56,1,110.000003356934,0|0,3:0|1:0,0:0:0:0:
34,102,28697,1,0,3:0:0:0:
114,177,29020,2,0,L|108:231,1,55.0000016784668,0|0,3:0|1:0,0:0:0:0:
107,286,29342,2,0,L|52:280,2,55.0000016784668,0|0|0,0:0|3:0|3:0,0:0:0:0:
145,325,29826,2,0,L|199:319,1,55.0000016784668,0|0,1:0|0:0,0:0:0:0:
239,280,30149,5,0,3:0:0:0:
332,337,30471,1,0,1:0:0:0:
417,267,30794,2,0,L|414:157,1,110.000003356934,0|0,3:0|1:0,0:0:0:0:
422,101,31278,2,0,P|372:122|322:103,1,110.000003356934,4|0,3:2|3:0,0:0:0:0:
298,54,31762,2,0,L|243:64,1,55.0000016784668,0|0,1:0|3:0,0:0:0:0:
201,99,32084,2,0,L|146:88,2,55.0000016784668,0|0|0,1:0|3:0|3:0,0:0:0:0:
269,185,32730,5,12,3:2:0:0:
182,252,33052,2,0,L|185:306,1,55.0000016784668,0|0,0:0|3:0,0:0:0:0:
221,349,33375,1,0,1:0:0:0:
315,293,33697,1,0,3:0:0:0:
315,293,33859,2,0,P|366:312|420:307,1,110.000003356934,4|0,1:2|3:0,0:0:0:0:
463,273,34342,1,0,3:0:0:0:
383,197,34665,2,0,L|379:87,1,110.000003356934,0|0,1:0|3:0,0:0:0:0:
271,64,35310,6,0,L|272:9,2,55.0000016784668,4|0|0,1:2|3:0|3:0,0:0:0:0:
204,150,35955,2,0,P|152:163|104:138,1,110.000003356934,0|0,1:0|3:0,0:0:0:0:
56,112,36439,1,4,1:2:0:0:
44,221,36762,1,4,1:2:0:0:
32,330,37084,1,4,1:2:0:0:
238,253,37730,1,0,3:0:0:0:
238,253,37891,6,0,P|289:239|337:264,1,110.000003356934,12|2,3:2|1:2,0:0:0:0:
370,308,38375,1,0,3:2:0:0:
437,219,38697,1,0,3:2:0:0:
376,127,39020,2,0,L|381:17,2,110.000003356934,0|0|0,3:2|3:2|3:2,0:0:0:0:
337,166,39826,1,2,1:2:0:0:
267,80,40149,2,0,P|239:80|213:90,1,55.0000016784668,2|0,1:2|3:2,0:0:0:0:
207,144,40471,6,0,P|155:157|107:132,1,110.000003356934,4|2,3:2|1:2,0:0:0:0:
68,93,40955,1,0,3:2:0:0:
16,190,41278,1,0,3:2:0:0:
90,271,41601,2,0,L|83:380,2,110.000003356934,0|0|0,3:2|3:2|3:2,0:0:0:0:
135,241,42407,2,0,P|188:246|224:286,1,110.000003356934,2|2,1:2|1:2,0:0:0:0:
266,324,42891,1,0,3:2:0:0:
318,308,43052,6,0,P|323:253|327:198,1,110.000003356934,4|2,3:2|1:2,0:0:0:0:
378,100,43697,2,0,L|432:94,1,55.0000016784668,2|0,1:2|3:2,0:0:0:0:
486,82,44020,2,0,P|498:106|503:133,1,55.0000016784668,2|0,1:2|3:2,0:0:0:0:
464,171,44342,2,0,P|455:225|458:279,1,110.000003356934,2|2,1:2|1:2,0:0:0:0:
389,366,44988,2,0,L|334:361,1,55.0000016784668,2|0,1:2|3:2,0:0:0:0:
290,328,45310,1,2,1:2:0:0:
247,363,45471,6,0,P|192:369|142:348,1,110.000003356934,0|0,3:2|3:2,0:0:0:0:
116,299,45955,2,0,L|118:244,1,55.0000016784668,0|0,3:2|1:2,0:0:0:0:
129,189,46278,2,0,L|74:186,2,55.0000016784668,0|0|0,3:2|3:2|3:2,0:0:0:0:
175,160,46762,2,0,P|228:147|271:178,1,110.000003356934,4|0,3:2|3:2,0:0:0:0:
306,221,47246,1,0,3:2:0:0:
390,151,47568,2,0,P|415:138|441:130,1,55.0000016784668,0|0,3:2|3:2,0:0:0:0:
476,87,47891,2,0,P|449:78|425:66,1,55.0000016784668,0|0,1:2|1:2,0:0:0:0:
383,30,48213,6,0,P|330:17|287:48,1,110.000003356934,12|2,3:2|1:2,0:0:0:0:
271,101,48697,1,0,3:2:0:0:
174,153,49020,1,0,3:2:0:0:
69,118,49342,2,0,P|65:63|63:8,2,110.000003356934,0|0|0,3:2|3:2|3:2,0:0:0:0:
48,169,50149,1,2,1:2:0:0:
27,220,50310,2,0,P|30:274|32:329,1,110.000003356934,0|0,3:2|3:2,0:0:0:0:
78,359,50794,6,0,P|121:325|175:323,1,110.000003356934,4|2,3:2|1:2,0:0:0:0:
219,357,51278,1,0,3:2:0:0:
328,365,51601,1,0,3:2:0:0:
400,282,51923,2,0,P|453:277|496:309,2,110.000003356934,0|0|0,3:2|3:2|3:2,0:0:0:0:
350,257,52730,1,2,1:2:0:0:
399,159,53052,2,0,P|398:131|393:104,1,55.0000016784668,2|0,1:2|3:2,0:0:0:0:
360,58,53375,6,0,P|314:88|259:93,1,110.000003356934,4|2,3:2|1:2,0:0:0:0:
214,63,53859,1,0,3:2:0:0:
169,30,54020,2,0,P|141:25|114:30,1,55.0000016784668,2|0,1:2|3:2,0:0:0:0:
75,69,54342,2,0,L|77:123,1,55.0000016784668,2|0,1:2|3:2,0:0:0:0:
122,155,54665,2,0,L|117:264,1,110.000003356934,4|2,1:2|1:2,0:0:0:0:
212,320,55310,2,0,L|214:374,2,55.0000016784668,2|0|2,3:2|3:2|3:2,0:0:0:0:
324,314,55955,6,0,L|378:308,1,55.0000016784668,4|0,1:2|1:2,0:0:0:0:
488,304,56439,2,0,L|482:249,1,55.0000016784668,4|0,1:2|1:2,0:0:0:0:
478,140,56923,2,0,L|423:145,1,55.0000016784668,4|0,1:2|1:2,0:0:0:0:
314,150,57407,2,0,L|319:204,1,55.0000016784668,4|0,1:2|1:2,0:0:0:0:
324,314,57891,1,12,1:2:0:0:
