osu file format v14

[General]
AudioFilename: audio.mp3
AudioLeadIn: 0
PreviewTime: 37649
Countdown: 0
SampleSet: Soft
StackLeniency: 0.6
Mode: 0
LetterboxInBreaks: 0
WidescreenStoryboard: 1

[Editor]
DistanceSpacing: 1.4
BeatDivisor: 4
GridSize: 32
TimelineZoom: 1.7

[Metadata]
Title:Koko wa Doko (TV Size)
TitleUnicode:ココハドコ (TV Size)
Artist:Ahomushi
ArtistUnicode:あほむし
Creator:Affirmation
Version:Insane
Source:ソウナンですか?
Tags:M・A・O 河野ひより 安野希世乃 和氣あず未 japanese anime sounan desu ka? are you lost?
BeatmapID:2194547
BeatmapSetID:1049704

[Difficulty]
HPDrainRate:5
CircleSize:4
OverallDifficulty:7.8
ApproachRate:9
SliderMultiplier:1
SliderTickRate:1

[Events]
//Background and Video events
Video,469,"video.avi"
0,0,"BG.jpg",0,0
//Break Periods
//Storyboard Layer 0 (Background)
//Storyboard Layer 1 (Fail)
//Storyboard Layer 2 (Pass)
//Storyboard Layer 3 (Foreground)
//Storyboard Layer 4 (Overlay)
//Storyboard Sound Samples

[TimingPoints]
472,322.58064516129,4,2,1,65,1,0
472,-65.7894736842105,4,2,1,65,0,0
1762,-61.7283950617284,4,2,1,75,0,0
12084,-80.6451612903226,4,2,2,45,0,0
12184,-80.6451612903226,4,2,1,60,0,0
22084,-62.5,4,2,1,65,0,0
22407,-70.4225352112676,4,2,1,60,0,0
32730,-78.125,4,2,1,50,0,0
35310,-67.5675675675676,4,2,1,60,0,0
37891,-59.5238095238095,4,2,1,80,0,1
57891,-89.2857142857143,4,2,1,80,0,0
58213,-89.2857142857143,4,2,1,15,0,0

[Colours]
Combo1 : 17,179,219
Combo2 : 255,210,106
Combo3 : 210,23,80
Combo4 : 33,207,14

[HitObjects]
126,111,472,5,4,1:2:0:0:
292,178,633,1,0,3:2:0:0:
105,104,794,2,0,L|110:179,1,75.9999990722656,0|0,1:2|3:2,0:0:0:0:
277,89,1117,5,0,1:2:0:0:
24,223,1278,1,0,3:2:0:0:
214,293,1439,2,0,L|251:287,3,37.9999995361328,0|0|0|0,1:2|3:0|3:2|3:0,0:0:0:0:
341,283,1762,6,0,P|320:317|322:357,1,81.0000019775391,12|0,3:2|0:0,0:0:0:0:
470,287,2084,2,0,P|471:247|451:212,1,81.0000019775391,0|0,1:2|3:2,0:0:0:0:
281,129,2407,2,0,P|358:140|420:91,1,162.000003955078,0|0,1:2|1:2,0:0:0:0:
190,101,2891,6,0,B|177:194|226:170|209:258,2,162.000003955078,0|0|0,3:2|3:2|3:2,0:0:0:0:
85,209,3697,1,0,1:2:0:0:
315,266,3859,1,0,3:2:0:0:
182,352,4020,2,0,P|173:312|187:275,1,81.0000019775391,0|0,1:2|3:2,0:0:0:0:
366,360,4342,6,0,P|326:363|286:367,1,81.0000019775391,4|0,3:2|0:0,0:0:0:0:
409,249,4665,2,0,P|449:252|489:255,1,81.0000019775391,0|0,1:2|3:2,0:0:0:0:
310,142,4988,2,0,B|227:148|255:201|168:209,1,162.000003955078,0|0,1:2|1:2,0:0:0:0:
94,47,5471,6,0,P|167:25|219:82,2,162.000003955078,0|0|0,3:2|3:2|3:2,0:0:0:0:
114,285,6278,1,0,1:2:0:0:
198,114,6439,1,0,3:2:0:0:
12,239,6601,2,0,P|18:278|23:319,1,81.0000019775391,0|0,1:2|3:2,0:0:0:0:
192,378,6923,6,0,P|227:358|266:351,1,81.0000019775391,4|0,3:2|0:0,0:0:0:0:
414,253,7246,2,0,P|378:233|339:226,1,81.0000019775391,0|0,1:2|3:2,0:0:0:0:
198,114,7568,2,0,P|217:192|227:272,1,162.000003955078,0|0,1:2|1:2,0:0:0:0:
331,140,8052,6,0,P|358:69|303:16,2,162.000003955078,0|0|0,3:2|3:2|3:2,0:0:0:0:
128,226,8859,1,0,1:2:0:0:
210,79,9020,1,0,3:2:0:0:
248,263,9181,2,0,P|241:303|239:343,1,81.0000019775391,0|0,1:2|3:2,0:0:0:0:
459,232,9504,6,0,P|425:213|385:211,1,81.0000019775391,4|0,1:2|3:2,0:0:0:0:
223,354,9826,1,0,3:2:0:0:
408,379,9988,6,0,P|406:338|400:299,1,81.0000019775391,4|0,1:2|3:2,0:0:0:0:
268,133,10310,1,0,3:2:0:0:
137,280,10471,6,0,P|177:277|217:271,1,81.0000019775391,4|0,1:2|3:2,0:0:0:0:
348,141,10794,6,0,P|308:134|267:132,1,81.0000019775391,0|0,1:2|3:2,0:0:0:0:
268,133,11036,1,0,3:2:0:0:
268,133,11117,1,0,3:2:0:0:
427,69,11278,2,0,P|390:51|351:39,1,81.0000019775391,4|0,1:2|3:2,0:0:0:0:
351,40,11520,1,0,3:2:0:0:
351,40,11601,1,0,3:2:0:0:
158,106,11762,1,0,1:2:0:0:
400,299,12084,5,4,3:2:0:0:
399,299,12407,2,0,P|451:269|510:284,2,123.999995080567,0|0|0,3:2|3:2|3:2,0:0:0:0:
339,362,13213,2,0,P|308:356|277:351,1,61.9999975402833,0|0,0:0|3:2,0:0:0:0:
275,264,13536,2,0,P|213:275|152:285,1,123.999995080567,0|0,0:0|0:0,0:0:0:0:
66,296,14020,2,0,P|68:327|69:358,2,61.9999975402833,0|2|0,3:2|0:2|3:2,0:0:0:0:
119,123,14665,5,0,3:2:0:0:
119,123,14988,2,0,P|67:93|8:108,2,123.999995080567,0|0|0,3:2|3:2|3:2,0:0:0:0:
180,186,15794,2,0,P|210:180|241:175,1,61.9999975402833,0|0,0:0|3:2,0:0:0:0:
244,88,16117,2,0,P|305:99|366:109,1,123.999995080567,0|0,0:0|0:0,0:0:0:0:
443,150,16601,2,0,P|444:119|446:88,2,61.9999975402833,0|2|0,3:2|0:2|3:2,0:0:0:0:
425,344,17246,5,0,3:2:0:0:
425,344,17568,2,0,P|481:327|484:269,2,123.999995080567,0|0|0,3:2|3:2|3:2,0:0:0:0:
359,286,18375,2,0,B|295:285|306:320|240:316,1,123.999995080567,0|0,0:0|0:0,0:0:0:0:
180,253,18859,1,0,3:2:0:0:
103,294,19020,2,0,L|107:355,2,61.9999975402833,0|0|0,0:0|3:2|0:0,0:0:0:0:
30,245,19504,2,0,L|34:183,1,61.9999975402833,0|0,3:2|0:0,0:0:0:0:
90,117,19826,5,0,3:2:0:0:
90,117,20149,2,0,P|60:67|2:71,2,123.999995080567,0|2|0,3:2|3:2|3:2,0:0:0:0:
30,245,20955,1,0,1:2:0:0:
487,77,22084,6,0,L|447:71,3,40,0|0|0|0,1:0|1:0|1:0|1:0,0:0:0:0:
363,51,22407,6,0,P|370:85|375:120,1,70.9999964248659,12|0,3:2|0:0,0:0:0:0:
282,215,22730,2,0,P|287:179|294:145,1,70.9999964248659,0|0,1:0|0:0,0:0:0:0:
221,56,23052,2,0,L|79:66,1,141.999992849732,0|0,3:0|1:0,0:0:0:0:
0,197,23536,6,0,L|141:207,1,141.999992849732,0|0,3:0|3:0,0:0:0:0:
232,299,24020,2,0,P|198:310|166:325,1,70.9999964248659,0|0,1:0|0:0,0:0:0:0:
347,241,24342,2,0,P|313:229|281:214,1,70.9999964248659,0|0,3:0|3:0,0:0:0:0:
400,327,24665,1,0,1:0:0:0:
402,59,24988,6,0,P|434:42|469:43,1,70.9999964248659,0|0,3:0|0:0,0:0:0:0:
463,169,25310,2,0,P|427:169|396:153,1,70.9999964248659,0|0,1:0|0:0,0:0:0:0:
304,68,25633,2,0,B|232:65|242:112|170:106,1,141.999992849732,0|0,3:0|1:0,0:0:0:0:
57,206,26117,6,0,P|63:240|66:276,1,70.9999964248659,0|0,3:0|0:0,0:0:0:0:
141,207,26439,2,0,P|147:241|150:277,1,70.9999964248659,0|0,3:0|1:0,0:0:0:0:
110,363,26762,1,0,0:0:0:0:
236,282,26923,2,0,L|306:285,1,70.9999964248659,0|0,3:0|3:0,0:0:0:0:
371,341,27246,1,0,1:0:0:0:
484,148,27568,6,0,P|453:130|418:123,1,70.9999964248659,4|0,3:2|0:0,0:0:0:0:
347,73,27891,2,0,P|408:37|477:24,2,141.999992849732,0|0|0,1:0|3:0|1:0,0:0:0:0:
293,139,28697,6,0,L|151:128,1,141.999992849732,0|0,3:0|3:0,0:0:0:0:
71,96,29181,2,0,P|73:61|82:27,1,70.9999964248659,0|0,1:0|0:0,0:0:0:0:
15,162,29504,2,0,P|23:196|26:231,1,70.9999964248659,0|0,3:0|3:0,0:0:0:0:
109,215,29826,2,0,P|106:250|97:284,1,70.9999964248659,0|0,1:0|0:0,0:0:0:0:
214,352,30149,5,0,3:0:0:0:
214,352,30471,2,0,P|281:334|342:367,2,141.999992849732,0|0|0,1:0|3:0|1:0,0:0:0:0:
131,374,31278,6,0,L|125:232,1,141.999992849732,4|0,3:2|3:0,0:0:0:0:
191,178,31762,2,0,P|223:191|258:195,1,70.9999964248659,0|0,1:0|3:0,0:0:0:0:
361,151,32084,1,0,1:0:0:0:
232,86,32246,1,0,3:0:0:0:
343,168,32407,2,0,L|337:238,1,70.9999964248659,0|0,3:0|3:0,0:0:0:0:
481,250,32730,5,12,3:2:0:0:
463,163,32891,2,0,L|467:132,2,32,0|0|0,0:0|0:0|0:0,0:0:0:0:
377,135,33213,1,0,3:0:0:0:
395,47,33375,2,0,P|333:38|281:73,1,128,0|0,1:0|3:0,0:0:0:0:
258,195,33859,6,0,L|130:185,1,128,4|0,1:2|3:0,0:0:0:0:
52,214,34342,2,0,P|62:243|63:275,1,64,0|0,3:0|0:0,0:0:0:0:
26,349,34665,2,0,P|79:317|143:317,1,128,0|0,1:0|3:0,0:0:0:0:
379,315,35310,5,4,1:2:0:0:
265,229,35471,1,0,3:0:0:0:
398,139,35633,2,0,P|385:173|379:210,1,74.0000018066407,0|0,3:0|3:0,0:0:0:0:
260,381,35955,2,0,P|254:344|241:309,1,74.0000018066407,0|0,1:0|3:0,0:0:0:0:
222,141,36278,1,0,3:0:0:0:
117,239,36439,6,0,L|264:228,2,148.000003613281,4|4|4,1:2|1:2|1:2,0:0:0:0:
425,93,37730,5,0,3:0:0:0:
425,93,37810,1,0,3:0:0:0:
425,93,37891,6,0,P|436:134|437:176,1,83.9999974365235,12|0,3:2|0:0,0:0:0:0:
310,301,38213,1,2,1:2:0:0:
507,313,38375,2,0,P|505:271|495:230,1,83.9999974365235,0|2,3:2|1:2,0:0:0:0:
313,322,38697,2,0,P|354:321|395:311,1,83.9999974365235,0|2,3:2|1:2,0:0:0:0:
319,185,39020,6,0,P|240:174|196:241,1,167.999994873047,0|0,3:2|3:2,0:0:0:0:
169,338,39504,2,0,P|129:329|87:323,1,83.9999974365235,2|0,1:2|3:2,0:0:0:0:
16,192,39826,2,0,P|57:186|98:176,1,83.9999974365235,2|0,1:2|3:2,0:0:0:0:
204,28,40149,1,2,1:2:0:0:
55,86,40310,1,0,3:2:0:0:
196,241,40471,6,0,P|206:200|202:159,1,83.9999974365235,4|0,3:2|0:0,0:0:0:0:
293,12,40794,1,2,1:2:0:0:
380,134,40955,2,0,P|374:175|369:217,1,83.9999974365235,0|2,3:2|1:2,0:0:0:0:
512,67,41278,2,0,P|473:50|433:59,1,83.9999974365235,0|2,3:2|1:2,0:0:0:0:
278,141,41601,6,0,P|196:150|132:99,2,167.999994873047,0|0|0,3:2|3:2|3:2,0:0:0:0:
351,209,42407,2,0,L|342:376,1,167.999994873047,2|2,1:2|1:2,0:0:0:0:
431,329,42891,1,0,3:2:0:0:
248,309,43052,6,0,P|207:319|168:335,1,83.9999974365235,4|0,3:2|0:0,0:0:0:0:
50,236,43375,1,2,1:2:0:0:
192,196,43536,1,0,3:2:0:0:
53,335,43697,2,0,P|43:294|27:255,1,83.9999974365235,2|0,1:2|3:2,0:0:0:0:
186,123,44020,2,0,P|169:161|160:202,1,83.9999974365235,2|0,1:2|3:2,0:0:0:0:
378,194,44342,6,0,P|339:177|298:168,1,83.9999974365235,2|0,1:2|3:2,0:0:0:0:
159,318,44665,1,2,1:2:0:0:
301,256,44826,1,0,3:2:0:0:
136,342,44988,2,0,L|52:334,1,83.9999974365235,2|0,1:2|3:2,0:0:0:0:
160,202,45310,1,2,1:2:0:0:
293,358,45471,6,0,P|374:366|440:317,1,167.999994873047,0|0,3:2|3:2,0:0:0:0:
401,116,45955,1,0,3:2:0:0:
301,256,46117,1,0,1:2:0:0:
493,185,46278,1,0,3:2:0:0:
279,100,46439,1,0,3:2:0:0:
501,31,46601,1,0,3:2:0:0:
273,136,46762,6,0,B|174:142|221:84|117:89,1,167.999994873047,4|0,3:2|3:2,0:0:0:0:
17,214,47246,1,0,3:2:0:0:
149,309,47407,1,0,3:2:0:0:
149,309,47488,1,0,3:2:0:0:
149,309,47568,2,0,L|190:300,3,41.9999987182618,0|0|0|0,3:2|3:2|3:2|3:2,0:0:0:0:
259,247,47891,2,0,L|300:255,3,41.9999987182618,0|0|0|0,1:2|1:2|1:2|1:2,0:0:0:0:
363,325,48213,6,0,P|414:313|456:307,1,83.9999974365235,12|0,3:2|0:0,0:0:0:0:
491,192,48536,1,2,1:2:0:0:
445,75,48697,2,0,P|403:69|363:59,1,83.9999974365235,0|2,3:2|1:2,0:0:0:0:
341,230,49020,2,0,P|300:240|258:246,1,83.9999974365235,0|2,3:2|1:2,0:0:0:0:
134,107,49342,6,0,B|224:104|200:162|289:158,1,167.999994873047,0|0,3:2|3:2,0:0:0:0:
158,285,49826,2,0,P|154:243|148:202,1,83.9999974365235,2|0,1:2|3:2,0:0:0:0:
97,366,50149,1,2,1:2:0:0:
263,360,50310,2,0,P|269:318|273:276,1,83.9999974365235,0|2,3:2|1:2,0:0:0:0:
148,202,50633,1,0,3:2:0:0:
311,129,50794,6,0,P|352:130|387:152,1,83.9999974365235,4|0,3:2|0:0,0:0:0:0:
358,327,51117,1,2,1:2:0:0:
512,222,51278,2,0,P|471:231|430:241,1,83.9999974365235,0|2,3:2|1:2,0:0:0:0:
262,359,51601,2,0,P|221:349|181:340,1,83.9999974365235,0|2,3:2|1:2,0:0:0:0:
124,181,51923,6,0,P|203:172|245:240,2,167.999994873047,0|0|0,3:2|3:2|3:2,0:0:0:0:
38,235,52730,2,0,P|47:151|56:68,1,167.999994873047,2|2,1:2|1:2,0:0:0:0:
139,11,53213,1,0,3:2:0:0:
310,108,53374,6,0,P|270:94|228:87,1,83.9999974365235,4|0,3:2|0:0,0:0:0:0:
398,48,53697,1,2,1:2:0:0:
273,216,53859,1,0,3:2:0:0:
453,216,54020,2,0,P|459:174|473:134,1,83.9999974365235,2|0,1:2|3:2,0:0:0:0:
292,238,54342,2,0,P|305:277|312:319,1,83.9999974365235,2|0,1:2|3:2,0:0:0:0:
203,130,54665,6,0,P|279:103|349:145,1,167.999994873047,4|2,1:2|1:2,0:0:0:0:
444,252,55149,2,0,P|464:248|485:248,2,41.9999987182618,0|0|2,1:2|1:2|3:2,0:0:0:0:
302,343,55471,1,0,3:2:0:0:
397,377,55633,2,0,P|438:376|477:361,1,83.9999974365235,2|0,3:2|3:2,0:0:0:0:
311,245,55955,5,4,1:2:0:0:
101,343,56117,2,0,L|23:375,1,83.9999974365235,0|0,1:2|0:0,0:0:0:0:
315,262,56439,5,4,1:2:0:0:
84,241,56601,2,0,L|0:230,1,83.9999974365235,0|0,1:2|0:0,0:0:0:0:
309,277,56923,5,4,1:2:0:0:
120,144,57085,2,0,L|53:93,1,83.9999974365235,0|0,1:2|0:0,0:0:0:0:
296,287,57407,5,4,1:2:0:0:
199,77,57569,2,0,L|166:0,1,83.9999974365235,0|0,1:2|0:0,0:0:0:0:
429,128,57891,6,0,P|385:161|331:155,1,112.000001367188,12|0,1:2|0:0,0:0:0:0:
