osu file format v14

[General]
AudioFilename: audio.mp3
AudioLeadIn: 0
PreviewTime: 37649
Countdown: 0
SampleSet: Soft
StackLeniency: 0.6
Mode: 0
LetterboxInBreaks: 0
WidescreenStoryboard: 1

[Editor]
DistanceSpacing: 1.2
BeatDivisor: 4
GridSize: 4
TimelineZoom: 1.7

[Metadata]
Title:Koko wa Doko (TV Size)
TitleUnicode:ココハドコ (TV Size)
Artist:Ahomushi
ArtistUnicode:あほむし
Creator:Affirmation
Version:Hard
Source:ソウナンですか?
Tags:M・A・O 河野ひより 安野希世乃 和氣あず未 japanese anime sounan desu ka? are you lost?
BeatmapID:2194546
BeatmapSetID:1049704

[Difficulty]
HPDrainRate:4.8
CircleSize:3.8
OverallDifficulty:6.2
ApproachRate:7.8
SliderMultiplier:1
SliderTickRate:1

[Events]
//Background and Video events
Video,469,"video.avi"
0,0,"BG.jpg",0,0
//Break Periods
//Storyboard Layer 0 (Background)
//Storyboard Layer 1 (Fail)
//Storyboard Layer 2 (Pass)
//Storyboard Layer 3 (Foreground)
//Storyboard Layer 4 (Overlay)
//Storyboard Sound Samples

[TimingPoints]
472,322.58064516129,4,2,1,65,1,0
472,-71.4285714285714,4,2,1,65,0,0
1762,-67.5675675675676,4,2,1,75,0,0
12084,-83.3333333333333,4,2,2,45,0,0
20955,-83.3333333333333,4,2,1,60,0,0
22084,-71.4285714285714,4,2,1,65,0,0
22407,-72.463768115942,4,2,1,60,0,0
32730,-80.6451612903226,4,2,1,50,0,0
35310,-72.463768115942,4,2,1,60,0,0
37891,-65.7894736842105,4,2,1,80,0,1
57891,-89.2857142857143,4,2,1,80,0,0
58213,-89.2857142857143,4,2,1,15,0,0

[Colours]
Combo1 : 17,179,219
Combo2 : 255,210,106
Combo3 : 210,23,80
Combo4 : 33,207,14

[HitObjects]
55,160,472,6,0,P|90:153|124:146,1,69.9999978637696,4|0,1:2|3:2,0:0:0:0:
149,66,794,2,0,P|183:72|217:79,1,69.9999978637696,0|0,1:2|3:2,0:0:0:0:
242,160,1117,2,0,P|276:153|310:146,1,69.9999978637696,0|0,1:2|3:2,0:0:0:0:
375,93,1439,2,0,L|369:58,2,34.9999989318848,0|0|0,1:2|3:0|3:2,0:0:0:0:
366,225,1762,5,12,3:2:0:0:
366,224,2084,2,0,P|435:217|468:278,2,148.000003613281,0|0|0,1:2|1:2|1:2,0:0:0:0:
302,288,2891,2,0,P|228:279|155:270,1,148.000003613281,0|0,3:2|3:2,0:0:0:0:
66,279,3375,2,0,P|52:244|57:208,1,74.0000018066407,0|0,1:2|3:2,0:0:0:0:
98,130,3697,2,0,P|61:124|24:121,1,74.0000018066407,0|0,1:2|3:2,0:0:0:0:
66,42,4020,1,0,1:2:0:0:
231,236,4342,5,4,3:2:0:0:
231,236,4665,2,0,P|216:163|198:91,2,148.000003613281,0|0|0,1:2|1:2|1:2,0:0:0:0:
302,288,5471,2,0,P|359:247|348:177,1,148.000003613281,0|0,3:2|3:2,0:0:0:0:
290,110,5955,2,0,P|325:99|361:92,1,74.0000018066407,0|0,1:2|3:2,0:0:0:0:
440,133,6278,2,0,P|450:97|457:61,1,74.0000018066407,0|0,1:2|3:2,0:0:0:0:
384,10,6601,1,0,1:2:0:0:
408,272,6923,5,4,3:2:0:0:
407,272,7246,2,0,P|476:265|501:329,2,148.000003613281,0|0|0,1:2|1:2|1:2,0:0:0:0:
342,330,8052,2,0,P|269:345|197:333,1,148.000003613281,0|0,3:2|3:2,0:0:0:0:
120,287,8536,2,0,P|114:323|112:360,1,74.0000018066407,0|0,1:2|3:2,0:0:0:0:
32,321,8859,2,0,P|37:284|39:247,1,74.0000018066407,0|0,1:2|3:2,0:0:0:0:
3,166,9181,1,0,1:2:0:0:
208,39,9504,6,0,P|244:31|280:24,2,74.0000018066407,4|0|0,1:2|3:2|3:2,0:0:0:0:
145,102,9988,2,0,P|108:94|72:87,2,74.0000018066407,4|0|0,1:2|3:2|3:2,0:0:0:0:
208,165,10471,2,0,P|244:157|280:150,1,74.0000018066407,4|0,1:2|3:2,0:0:0:0:
364,180,10794,5,0,1:2:0:0:
391,95,10955,2,0,L|386:58,2,37.0000009033203,0|0|0,3:2|3:2|3:2,0:0:0:0:
467,142,11279,1,4,1:2:0:0:
494,227,11440,2,0,L|489:263,2,37.0000009033203,0|0|0,3:2|3:2|3:2,0:0:0:0:
404,290,11762,1,0,1:2:0:0:
208,165,12084,5,4,3:2:0:0:
208,165,12407,2,0,B|147:161|155:199|93:190,2,119.999996337891,0|0|0,3:2|3:2|3:2,0:0:0:0:
272,218,13213,2,0,P|301:213|328:200,1,59.9999981689454,0|0,0:0|3:2,0:0:0:0:
362,123,13536,2,0,P|308:96|249:87,1,119.999996337891
165,87,14020,2,0,L|160:28,2,59.9999981689454,0|2|0,3:2|0:2|3:2,0:0:0:0:
53,213,14665,5,0,3:2:0:0:
53,213,14988,2,0,L|42:332,2,119.999996337891,0|0|0,3:2|3:2|3:2,0:0:0:0:
129,180,15794,2,0,P|154:198|182:207,1,59.9999981689454,0|0,0:0|3:2,0:0:0:0:
232,275,16117,2,0,P|280:239|337:221,1,119.999996337891,0|0,0:0|0:0,0:0:0:0:
419,241,16601,2,0,L|415:300,2,59.9999981689454,0|2|0,3:2|0:2|3:2,0:0:0:0:
401,73,17246,5,0,3:2:0:0:
401,73,17568,2,0,P|457:62|494:106,2,119.999996337891,0|0|0,3:2|3:2|3:2,0:0:0:0:
329,117,18375,2,0,L|209:114,1,119.999996337891,0|0,0:0|0:0,0:0:0:0:
131,82,18859,1,0,3:2:0:0:
49,99,19020,2,0,P|44:69|47:39,2,59.9999981689454,0|0|0,0:0|3:2|0:0,0:0:0:0:
96,168,19504,2,0,P|100:197|97:227,1,59.9999981689454,0|0,3:2|0:0,0:0:0:0:
41,290,19826,5,0,3:2:0:0:
41,290,20149,2,0,P|96:273|141:310,2,119.999996337891,0|2|0,3:2|3:2|3:2,0:0:0:0:
135,343,20955,1,0,1:2:0:0:
283,75,22084,6,0,L|317:71,3,34.9999989318848,0|0|0|0,1:0|1:0|1:0|1:0,0:0:0:0:
361,48,22407,6,0,P|359:82|357:116,1,69.0000001052856,12|0,3:2|0:0,0:0:0:0:
296,173,22730,2,0,P|298:207|300:241,1,69.0000001052856,0|0,1:0|0:0,0:0:0:0:
342,312,23052,2,0,P|281:280|213:280,1,138.000000210571,0|0,3:0|1:0,0:0:0:0:
186,201,23536,2,0,P|125:232|57:232,1,138.000000210571,0|0,3:0|3:0,0:0:0:0:
11,162,24020,2,0,L|16:93,1,69.0000001052856,0|0,1:0|0:0,0:0:0:0:
94,119,24342,2,0,L|99:50,1,69.0000001052856,0|0,3:0|3:0,0:0:0:0:
178,76,24665,1,0,1:0:0:0:
376,91,24988,6,0,P|409:83|443:80,1,69.0000001052856,0|0,3:0|0:0,0:0:0:0:
454,161,25310,2,0,P|420:168|386:171,1,69.0000001052856,0|0,1:0|0:0,0:0:0:0:
305,152,25633,2,0,L|299:289,1,138.000000210571,0|0,3:0|1:0,0:0:0:0:
366,338,26117,2,0,P|432:338|466:281,2,138.000000210571,0|0|0,3:0|3:0|0:0,0:0:0:0:
295,381,26923,2,0,P|261:373|227:367,1,69.0000001052856,0|0,3:0|3:0,0:0:0:0:
144,378,27246,1,0,1:0:0:0:
114,149,27568,5,4,3:2:0:0:
114,149,27891,2,0,P|51:130|8:179,2,138.000000210571,0|0|0,1:0|3:0|1:0,0:0:0:0:
175,204,28697,2,0,P|242:216|307:197,1,138.000000210571,0|0,3:0|3:0,0:0:0:0:
357,131,29181,1,0,1:0:0:0:
423,180,29342,2,0,P|457:176|491:174,2,69.0000001052856,0|0|0,0:0|3:0|3:0,0:0:0:0:
376,248,29826,2,0,P|386:282|393:315,1,69.0000001052856,0|0,1:0|0:0,0:0:0:0:
326,365,30149,5,0,3:0:0:0:
173,302,30471,2,0,P|108:304|92:366,2,138.000000210571,0|0|0,1:0|3:0|1:0,0:0:0:0:
251,273,31278,2,0,P|247:204|244:135,1,138.000000210571,4|0,3:2|3:0,0:0:0:0:
275,57,31762,2,0,P|306:73|340:80,1,69.0000001052856,0|0,1:0|3:0,0:0:0:0:
423,84,32084,2,0,L|419:152,1,69.0000001052856,0|0,1:0|3:0,0:0:0:0:
499,130,32407,2,0,L|495:198,1,69.0000001052856,0|0,3:0|3:0,0:0:0:0:
453,275,32730,6,0,P|405:236|344:234,1,123.999995080567,12|0,3:2|0:0,0:0:0:0:
271,280,33213,1,0,3:0:0:0:
332,341,33375,2,0,P|284:379|223:381,1,123.999995080567,0|0,1:0|3:0,0:0:0:0:
148,337,33859,2,0,P|152:275|157:213,1,123.999995080567,4|0,1:2|3:0,0:0:0:0:
206,141,34342,2,0,P|175:136|148:122,1,61.9999975402833,0|0,3:0|0:0,0:0:0:0:
96,51,34666,2,0,P|150:22|211:13,1,123.999995080567,0|0,1:0|3:0,0:0:0:0:
414,79,35310,5,4,1:2:0:0:
361,143,35471,1,0,3:0:0:0:
424,197,35633,2,0,P|430:230|426:264,1,69.0000001052856,0|0,3:0|3:0,0:0:0:0:
370,326,35955,2,0,P|337:319|303:314,1,69.0000001052856,0|0,1:0|3:0,0:0:0:0:
262,241,36278,1,0,3:0:0:0:
199,296,36439,2,0,P|138:324|71:312,2,138.000000210571,4|4|4,1:2|1:2|1:2,0:0:0:0:
64,75,37730,5,0,3:0:0:0:
154,58,37891,6,0,P|149:95|142:133,1,75.9999990722656,12|0,3:2|0:0,0:0:0:0:
231,110,38213,1,2,1:2:0:0:
293,178,38375,2,0,P|365:168|404:105,1,151.999998144531,0|0,3:2|3:2,0:0:0:0:
481,54,38859,1,2,1:2:0:0:
504,142,39020,6,0,P|497:217|489:293,1,151.999998144531,0|0,3:2|3:2,0:0:0:0:
425,357,39504,2,0,P|391:339|354:334,1,75.9999990722656,2|0,1:2|3:2,0:0:0:0:
290,270,39826,2,0,P|256:287|219:292,1,75.9999990722656,2|0,1:2|3:2,0:0:0:0:
144,238,40149,1,2,1:2:0:0:
87,309,40310,1,0,3:2:0:0:
19,215,40471,6,0,P|22:178|24:140,1,75.9999990722656,4|0,3:2|0:0,0:0:0:0:
3,49,40794,1,2,1:2:0:0:
87,16,40955,2,0,P|158:17|179:85,1,151.999998144531,0|0,3:2|3:2,0:0:0:0:
256,136,41439,1,2,1:2:0:0:
332,85,41601,6,0,P|353:17|425:16,2,151.999998144531,0|0|0,3:2|3:2|3:2,0:0:0:0:
396,149,42407,2,0,P|410:223|395:297,1,151.999998144531,2|2,1:2|1:2,0:0:0:0:
348,375,42891,1,0,3:2:0:0:
229,317,43052,6,0,L|78:331,1,151.999998144531,4|2,3:2|1:2,0:0:0:0:
31,253,43536,1,0,3:2:0:0:
105,200,43697,2,0,P|102:162|98:124,1,75.9999990722656,2|0,1:2|3:2,0:0:0:0:
12,94,44020,2,0,P|14:131|18:169,1,75.9999990722656,2|0,1:2|3:2,0:0:0:0:
105,200,44342,6,0,B|181:192|171:245|250:233,1,151.999998144531,2|2,1:2|1:2,0:0:0:0:
322,178,44826,1,0,3:2:0:0:
386,242,44988,2,0,L|381:317,2,75.9999990722656,2|0|2,1:2|3:2|1:2,0:0:0:0:
489,175,45471,6,0,L|479:23,1,151.999998144531,0|0,3:2|3:2,0:0:0:0:
387,18,45955,2,0,P|353:36|317:45,1,75.9999990722656,0|0,3:2|1:2,0:0:0:0:
248,106,46278,2,0,P|214:87|178:78,1,75.9999990722656,0|0,3:2|3:2,0:0:0:0:
110,16,46601,1,0,3:2:0:0:
35,113,46762,6,0,P|40:188|47:264,1,151.999998144531,4|0,3:2|3:2,0:0:0:0:
111,330,47246,1,0,3:2:0:0:
174,265,47407,1,0,3:2:0:0:
174,265,47488,1,0,3:2:0:0:
174,265,47568,2,0,L|211:267,3,37.9999995361328,0|0|0|0,3:2|3:2|3:2|3:2,0:0:0:0:
244,300,47891,2,0,L|281:297,3,37.9999995361328,0|0|0|0,1:2|1:2|1:2|1:2,0:0:0:0:
319,270,48213,6,0,P|313:308|315:346,1,75.9999990722656,12|0,3:2|0:0,0:0:0:0:
398,307,48536,1,2,1:2:0:0:
478,349,48697,2,0,P|484:274|469:200,1,151.999998144531,0|0,3:2|3:2,0:0:0:0:
415,126,49181,1,2,1:2:0:0:
450,42,49342,6,0,P|382:15|324:60,1,151.999998144531,0|0,3:2|3:2,0:0:0:0:
274,136,49826,2,0,P|236:128|199:122,1,75.9999990722656,2|0,1:2|3:2,0:0:0:0:
129,62,50149,1,2,1:2:0:0:
50,108,50310,2,0,P|65:182|77:257,1,151.999998144531,0|0,3:2|3:2,0:0:0:0:
175,342,50794,6,0,P|212:335|249:328,1,75.9999990722656,4|0,3:2|0:0,0:0:0:0:
333,366,51117,1,2,1:2:0:0:
378,288,51278,2,0,P|410:221|378:155,1,151.999998144531,0|0,3:2|3:2,0:0:0:0:
296,115,51762,1,2,1:2:0:0:
342,36,51923,6,0,L|493:46,2,151.999998144531,0|0|0,3:2|3:2|3:2,0:0:0:0:
296,115,52730,2,0,P|223:118|182:58,1,151.999998144531,2|2,1:2|1:2,0:0:0:0:
98,23,53213,1,0,3:2:0:0:
21,122,53375,6,0,P|26:197|30:273,1,151.999998144531,4|2,3:2|1:2,0:0:0:0:
98,335,53859,1,0,3:2:0:0:
155,264,54020,2,0,P|191:254|229:248,1,75.9999990722656,2|0,1:2|3:2,0:0:0:0:
279,323,54342,2,0,P|316:316|353:307,1,75.9999990722656,2|0,1:2|3:2,0:0:0:0:
429,256,54665,6,0,P|418:180|408:105,1,151.999998144531,4|2,1:2|1:2,0:0:0:0:
327,63,55149,2,0,L|327:25,2,37.9999995361328,0|0|2,1:2|1:2|3:2,0:0:0:0:
268,132,55471,1,0,3:2:0:0:
189,85,55633,2,0,P|151:79|116:93,1,75.9999990722656,2|0,3:2|3:2,0:0:0:0:
51,202,55955,5,4,1:2:0:0:
136,234,56117,2,0,L|212:225,1,75.9999990722656,0|0,1:2|0:0,0:0:0:0:
44,219,56439,5,4,1:2:0:0:
129,251,56601,2,0,L|205:242,1,75.9999990722656,0|0,1:2|0:0,0:0:0:0:
37,236,56923,5,4,1:2:0:0:
122,268,57085,2,0,L|198:259,1,75.9999990722656,0|0,1:2|0:0,0:0:0:0:
30,253,57406,5,4,1:2:0:0:
115,285,57568,2,0,L|191:276,1,75.9999990722656,0|0,1:2|0:0,0:0:0:0:
45,364,57891,6,0,P|3:368|35:341,1,112.000001367188,12|0,1:2|0:0,0:0:0:0:
