osu file format v14

[General]
AudioFilename: audio.mp3
AudioLeadIn: 0
PreviewTime: 37649
Countdown: 0
SampleSet: Soft
StackLeniency: 0.6
Mode: 0
LetterboxInBreaks: 0
WidescreenStoryboard: 0

[Editor]
DistanceSpacing: 1.4
BeatDivisor: 4
GridSize: 32
TimelineZoom: 1.7

[Metadata]
Title:Koko wa Doko (TV Size)
TitleUnicode:ココハドコ (TV Size)
Artist:Ahomushi
ArtistUnicode:あほむし
Creator:Affirmation
Version:Distress
Source:ソウナンですか?
Tags:M・A・O 河野ひより 安野希世乃 和氣あず未 japanese anime sounan desu ka? are you lost?
BeatmapID:2193895
BeatmapSetID:1049704

[Difficulty]
HPDrainRate:5.8
CircleSize:3.8
OverallDifficulty:8.7
ApproachRate:9.3
SliderMultiplier:1
SliderTickRate:1

[Events]
//Background and Video events
Video,469,"video.avi"
0,0,"BG.jpg",0,0
//Break Periods
//Storyboard Layer 0 (Background)
//Storyboard Layer 1 (Fail)
//Storyboard Layer 2 (Pass)
//Storyboard Layer 3 (Foreground)
//Storyboard Layer 4 (Overlay)
//Storyboard Sound Samples

[TimingPoints]
472,322.58064516129,4,2,1,65,1,0
472,-83.3333333333333,4,2,1,65,0,0
1762,-55.5555555555556,4,2,1,75,0,0
12084,-83.3333333333333,4,2,2,45,0,0
20955,-83.3333333333333,4,2,1,60,0,0
22084,-55.5555555555556,4,2,1,65,0,0
22407,-62.5,4,2,1,60,0,0
32730,-71.4285714285714,4,2,1,50,0,0
35310,-62.5,4,2,1,60,0,0
37891,-55.5555555555556,4,2,1,80,0,1
57891,-71.4285714285714,4,2,1,80,0,0
58213,-71.4285714285714,4,2,1,15,0,0

[Colours]
Combo1 : 17,179,219
Combo2 : 255,210,106
Combo3 : 210,23,80
Combo4 : 33,207,14

[HitObjects]
90,86,472,5,12,1:2:0:0:
339,179,633,1,0,3:2:0:0:
81,207,794,5,0,1:2:0:0:
372,83,955,1,0,3:2:0:0:
54,212,1117,5,0,1:2:0:0:
339,289,1278,1,0,3:2:0:0:
202,183,1439,5,0,1:2:0:0:
203,227,1519,1,0,3:0:0:0:
206,272,1600,1,0,3:2:0:0:
209,317,1680,1,0,3:0:0:0:
212,362,1762,6,0,P|254:376|296:364,1,89.9999972534181,12|0,3:2|0:0,0:0:0:0:
483,177,2084,5,0,1:2:0:0:
206,272,2246,1,0,3:2:0:0:
446,294,2407,5,0,1:2:0:0:
205,133,2568,1,0,3:2:0:0:
444,43,2730,1,0,1:2:0:0:
291,251,2891,6,0,P|250:269|206:272,1,89.9999972534181,0|0,3:2|1:2,0:0:0:0:
269,60,3213,2,0,P|313:62|354:80,1,89.9999972534181,0|0,3:2|1:2,0:0:0:0:
134,194,3536,1,0,3:2:0:0:
419,251,3697,5,0,1:2:0:0:
191,115,3859,1,0,3:2:0:0:
480,63,4020,2,0,P|471:107|462:151,1,89.9999972534181,0|0,1:2|3:2,0:0:0:0:
307,338,4342,6,0,P|298:293|289:249,1,89.9999972534181,4|0,3:2|0:0,0:0:0:0:
172,11,4665,5,0,1:2:0:0:
96,293,4826,1,0,3:2:0:0:
77,38,4988,5,0,1:2:0:0:
200,306,5149,1,0,3:2:0:0:
273,38,5310,1,0,1:2:0:0:
88,182,5471,6,0,P|47:201|3:198,1,89.9999972534181,0|0,3:2|1:2,0:0:0:0:
213,124,5794,2,0,P|257:121|297:140,1,89.9999972534181,0|0,3:2|1:2,0:0:0:0:
121,270,6117,1,0,3:2:0:0:
238,35,6278,5,0,1:2:0:0:
310,265,6439,1,0,3:2:0:0:
111,154,6601,2,0,L|100:64,1,89.9999972534181,0|0,1:2|3:2,0:0:0:0:
401,154,6923,6,0,L|412:64,1,89.9999972534181,4|0,3:2|0:0,0:0:0:0:
244,216,7246,5,0,1:2:0:0:
509,297,7408,1,0,3:2:0:0:
226,347,7569,5,0,1:2:0:0:
416,176,7730,1,0,3:2:0:0:
172,112,7891,1,0,1:2:0:0:
374,272,8052,6,0,L|380:361,1,89.9999972534181,0|0,3:2|1:2,0:0:0:0:
138,272,8375,2,0,L|131:361,1,89.9999972534181,0|0,3:2|1:2,0:0:0:0:
312,140,8697,1,0,3:2:0:0:
64,191,8859,5,0,1:2:0:0:
288,293,9020,1,0,3:2:0:0:
105,374,9181,2,0,P|60:379|21:358,1,89.9999972534181,0|0,1:2|3:2,0:0:0:0:
179,75,9504,5,4,1:2:0:0:
269,377,9665,1,0,3:2:0:0:
386,83,9826,1,0,3:2:0:0:
138,272,9988,5,4,1:2:0:0:
289,15,10149,1,0,3:2:0:0:
408,288,10310,1,0,3:2:0:0:
99,113,10471,5,4,1:2:0:0:
472,168,10633,1,0,3:2:0:0:
221,294,10794,5,0,1:2:0:0:
205,164,10955,2,0,L|209:119,2,44.999998626709,0|0|0,3:2|3:2|3:2,0:0:0:0:
321,376,11278,5,4,1:2:0:0:
408,288,11439,2,0,L|403:243,2,44.999998626709,0|0|0,3:2|3:2|3:2,0:0:0:0:
172,370,11762,5,0,1:2:0:0:
322,150,12084,5,4,3:2:0:0:
322,150,12407,2,0,P|351:143|380:136,1,59.9999981689454,0|0,3:2|0:0,0:0:0:0:
425,65,12730,2,0,P|366:51|307:38,1,119.999996337891,0|0,3:2|3:2,0:0:0:0:
194,55,13213,6,0,P|198:85|203:115,1,59.9999981689454,0|0,0:0|3:2,0:0:0:0:
109,169,13536,2,0,P|114:139|119:110,1,59.9999981689454,0|0,0:0|3:2,0:0:0:0:
52,58,13859,1,0,0:0:0:0:
9,168,14021,2,0,P|13:197|18:227,2,59.9999981689454,0|2|0,3:2|0:2|3:2,0:0:0:0:
139,299,14665,5,0,3:2:0:0:
139,298,14988,2,0,P|150:270|157:241,1,59.9999981689454,0|0,3:2|0:0,0:0:0:0:
239,227,15310,2,0,P|215:172|202:113,1,119.999996337891,0|0,3:2|3:2,0:0:0:0:
273,17,15794,6,0,P|301:29|330:34,1,59.9999981689454,0|0,0:0|3:2,0:0:0:0:
375,106,16117,2,0,P|345:111|318:123,1,59.9999981689454,0|0,0:0|3:2,0:0:0:0:
271,192,16439,1,0,0:0:0:0:
395,241,16601,2,0,L|454:234,2,59.9999981689454,0|2|0,3:2|0:2|3:2,0:0:0:0:
70,317,17246,5,0,3:2:0:0:
70,317,17568,2,0,L|130:324,1,59.9999981689454,0|0,3:2|0:0,0:0:0:0:
96,236,17891,2,0,L|156:243,1,59.9999981689454,0|0,3:2|1:2,0:0:0:0:
227,285,18213,1,0,3:2:0:0:
122,155,18375,1,0,0:0:0:0:
122,155,18536,6,0,L|182:162,1,59.9999981689454,0|0,3:2|0:0,0:0:0:0:
265,150,18859,2,0,L|258:90,1,59.9999981689454,0|0,3:2|0:0,0:0:0:0:
348,141,19181,2,0,L|341:201,1,59.9999981689454,0|0,3:2|0:0,0:0:0:0:
303,316,19504,1,0,3:2:0:0:
413,272,19665,1,0,0:0:0:0:
300,341,19826,6,0,P|272:332|242:328,1,59.9999981689454,0|0,3:2|0:0,0:0:0:0:
195,258,20149,2,0,P|168:271|144:289,1,59.9999981689454,0|0,3:2|0:0,0:0:0:0:
60,273,20471,2,0,P|50:301|46:331,1,59.9999981689454,2|0,3:2|0:0,0:0:0:0:
121,369,20794,1,0,3:2:0:0:
80,169,20955,1,0,1:2:0:0:
358,311,22084,6,0,L|401:301,3,44.999998626709,0|0|0|0,1:0|1:0|1:0|1:0,0:0:0:0:
478,250,22407,6,0,P|484:289|492:328,1,80,12|0,3:2|0:0,0:0:0:0:
366,198,22730,2,0,P|373:158|380:119,1,80,0|0,1:0|0:0,0:0:0:0:
191,231,23052,2,0,P|220:257|259:262,1,80,0|0,3:0|3:0,0:0:0:0:
345,221,23375,1,0,1:0:0:0:
177,112,23536,6,0,B|95:122|120:166|33:175,1,160,0|0,3:0|3:0,0:0:0:0:
191,231,24020,1,0,1:0:0:0:
262,35,24181,1,0,0:0:0:0:
332,209,24342,1,0,3:0:0:0:
177,112,24504,1,0,3:0:0:0:
108,292,24665,2,0,P|115:331|127:369,1,80,0|0,1:0|0:0,0:0:0:0:
296,333,24988,6,0,P|258:320|218:313,1,80,0|0,3:0|0:0,0:0:0:0:
25,215,25310,2,0,P|64:207|102:195,1,80,0|0,1:0|0:0,0:0:0:0:
256,117,25633,2,0,L|250:196,1,80,0|0,3:0|3:0,0:0:0:0:
242,292,25955,1,0,1:0:0:0:
479,207,26117,6,0,P|434:145|357:143,1,160,0|0,3:0|3:0,0:0:0:0:
275,303,26601,2,0,P|314:300|349:281,1,80,0|0,1:0|0:0,0:0:0:0:
195,168,26923,1,0,3:0:0:0:
130,361,27084,1,0,3:0:0:0:
27,214,27246,2,0,L|18:134,1,80,0|0,1:0|0:0,0:0:0:0:
164,35,27568,6,0,P|201:47|240:57,1,80,4|0,3:2|0:0,0:0:0:0:
214,245,27891,2,0,P|206:205|194:167,1,80,0|0,1:0|0:0,0:0:0:0:
371,97,28213,2,0,P|341:123|313:152,1,80,0|0,3:0|3:0,0:0:0:0:
223,276,28536,1,0,1:0:0:0:
402,334,28697,6,0,P|440:266|408:196,1,160,0|0,3:0|3:0,0:0:0:0:
307,301,29181,2,0,L|299:380,1,80,0|0,1:0|0:0,0:0:0:0:
139,246,29504,2,0,P|176:233|213:244,1,80,0|0,3:0|3:0,0:0:0:0:
83,163,29826,1,0,1:0:0:0:
11,321,29988,1,0,0:0:0:0:
54,173,30149,6,0,P|63:134|65:94,1,80,0|0,3:0|0:0,0:0:0:0:
228,109,30471,2,0,P|218:70|216:30,1,80,0|0,1:0|0:0,0:0:0:0:
377,197,30794,2,0,P|386:158|388:118,1,80,0|0,3:0|3:0,0:0:0:0:
331,40,31117,1,0,1:0:0:0:
248,220,31278,6,0,P|252:299|271:377,1,160,4|0,3:2|3:0,0:0:0:0:
365,242,31762,1,0,1:0:0:0:
143,323,31923,1,0,3:0:0:0:
386,338,32084,2,0,P|425:329|464:321,1,80,0|0,1:0|3:0,0:0:0:0:
265,203,32407,2,0,P|225:194|186:186,1,80,0|0,3:0|3:0,0:0:0:0:
307,72,32730,5,12,3:2:0:0:
372,144,32891,2,0,L|406:139,2,34.9999989318848,0|0|0,0:0|0:0|0:0,0:0:0:0:
265,203,33213,1,0,3:0:0:0:
265,203,33294,1,0,0:0:0:0:
265,203,33375,2,0,P|265:272|280:340,1,139.999995727539,0|0,1:0|3:0,0:0:0:0:
131,251,33859,6,0,P|146:182|146:113,1,139.999995727539,4|0,1:2|3:0,0:0:0:0:
32,63,34342,2,0,P|32:97|39:131,1,69.9999978637696,0|0,3:0|0:0,0:0:0:0:
162,261,34665,2,0,L|208:254,2,46.6666652425131,0|0|0,1:0|1:0|1:0,0:0:0:0:
93,324,34988,2,0,L|46:317,2,46.6666652425131,0|0|0,3:0|3:0|3:0,0:0:0:0:
175,361,35310,5,4,1:2:0:0:
245,71,35471,1,0,3:0:0:0:
378,242,35633,1,0,3:0:0:0:
59,175,35794,1,0,3:0:0:0:
274,367,35955,2,0,P|313:366|350:351,1,80,0|0,1:0|3:0,0:0:0:0:
222,147,36278,1,0,3:0:0:0:
93,323,36439,5,4,1:2:0:0:
490,226,36762,5,4,1:2:0:0:
34,82,37084,5,4,1:2:0:0:
34,82,37730,6,0,L|73:87,1,40,0|0,3:0|3:0,0:0:0:0:
287,111,37891,5,12,3:2:0:0:
8,198,38052,1,0,0:0:0:0:
349,311,38213,1,2,1:2:0:0:
108,375,38375,2,0,P|95:331|98:287,1,89.9999972534181,0|2,3:2|1:2,0:0:0:0:
301,146,38697,2,0,P|303:190|290:233,1,89.9999972534181,0|2,3:2|1:2,0:0:0:0:
43,189,39020,6,0,P|85:176|130:178,1,89.9999972534181,0|2,3:2|1:2,0:0:0:0:
408,239,39342,1,0,3:2:0:0:
97,287,39504,1,2,1:2:0:0:
291,111,39665,1,0,3:2:0:0:
330,373,39826,1,2,1:2:0:0:
160,172,39988,1,0,3:2:0:0:
417,148,40149,2,0,P|460:162|489:195,1,89.9999972534181,2|0,1:2|3:2,0:0:0:0:
215,282,40471,5,4,3:2:0:0:
371,64,40633,1,0,0:0:0:0:
323,346,40794,1,2,1:2:0:0:
143,179,40955,2,0,L|53:172,1,89.9999972534181,0|2,3:2|1:2,0:0:0:0:
317,242,41278,2,0,L|406:235,1,89.9999972534181,0|2,3:2|1:2,0:0:0:0:
141,381,41601,6,0,P|125:339|134:296,1,89.9999972534181,0|2,3:2|1:2,0:0:0:0:
373,152,41923,1,0,3:2:0:0:
236,375,42084,1,2,1:2:0:0:
191,120,42246,1,0,3:2:0:0:
397,318,42407,2,0,P|437:335|482:334,1,89.9999972534181,2|0,1:2|3:2,0:0:0:0:
309,71,42730,1,2,1:2:0:0:
217,332,42891,1,0,3:2:0:0:
87,108,43052,6,0,L|79:18,1,89.9999972534181,4|0,3:2|0:0,0:0:0:0:
270,150,43375,1,2,1:2:0:0:
12,233,43536,1,0,3:2:0:0:
306,286,43697,1,2,1:2:0:0:
83,131,43859,1,0,3:2:0:0:
363,150,44020,1,2,1:2:0:0:
116,315,44181,1,0,3:2:0:0:
420,308,44342,6,0,P|459:286|503:280,1,89.9999972534181,2|0,1:2|3:2,0:0:0:0:
252,163,44665,1,2,1:2:0:0:
332,378,44826,1,0,3:2:0:0:
353,113,44988,1,2,1:2:0:0:
195,374,45149,1,0,3:2:0:0:
135,75,45310,1,2,1:2:0:0:
336,280,45471,6,0,P|375:301|419:307,1,89.9999972534181,0|0,3:2|1:0,0:0:0:0:
276,72,45794,1,0,3:2:0:0:
199,338,45955,1,0,3:2:0:0:
135,75,46117,1,0,1:2:0:0:
78,332,46278,5,0,3:2:0:0:
204,29,46439,1,0,3:2:0:0:
285,354,46601,1,0,3:2:0:0:
470,101,46762,6,0,L|476:11,1,89.9999972534181,4|0,3:2|0:0,0:0:0:0:
262,139,47084,1,0,3:2:0:0:
489,250,47246,1,0,3:2:0:0:
247,359,47407,1,0,3:2:0:0:
247,359,47488,1,0,3:2:0:0:
247,359,47568,2,0,L|202:353,3,44.999998626709,0|0|0|0,3:2|3:2|3:2|3:2,0:0:0:0:
316,290,47891,2,0,L|360:284,3,44.999998626709,0|0|0|0,1:2|1:2|1:2|1:2,0:0:0:0:
226,222,48213,5,12,3:2:0:0:
466,353,48375,1,0,0:0:0:0:
347,103,48536,1,2,1:2:0:0:
114,284,48697,2,0,P|113:328|131:369,1,89.9999972534181,0|2,3:2|1:2,0:0:0:0:
360,284,49020,2,0,P|378:243|377:198,1,89.9999972534181,0|2,3:2|1:2,0:0:0:0:
153,120,49342,6,0,L|242:126,1,89.9999972534181,0|2,3:2|1:2,0:0:0:0:
479,175,49665,1,0,3:2:0:0:
220,261,49826,1,2,1:2:0:0:
357,48,49988,1,0,3:2:0:0:
360,284,50149,1,2,1:2:0:0:
252,100,50310,1,0,3:2:0:0:
227,359,50471,1,2,1:2:0:0:
388,174,50633,1,0,3:2:0:0:
130,341,50794,5,4,3:2:0:0:
445,257,50955,1,0,0:0:0:0:
186,145,51117,1,2,1:2:0:0:
341,375,51278,2,0,L|430:367,1,89.9999972534181,0|2,3:2|1:2,0:0:0:0:
220,261,51601,2,0,L|131:253,1,89.9999972534181,0|2,3:2|1:2,0:0:0:0:
352,100,51923,6,0,P|368:141|365:185,1,89.9999972534181,0|2,3:2|1:2,0:0:0:0:
146,368,52246,1,0,3:2:0:0:
206,116,52407,1,2,1:2:0:0:
293,350,52568,1,0,3:2:0:0:
89,177,52730,2,0,P|46:162|1:161,1,89.9999972534181,2|0,1:2|3:2,0:0:0:0:
204,16,53052,1,2,1:2:0:0:
220,261,53213,1,0,3:2:0:0:
419,106,53375,6,0,L|425:16,1,89.9999972534181,4|0,3:2|0:0,0:0:0:0:
169,138,53697,1,2,1:2:0:0:
397,233,53859,1,0,3:2:0:0:
144,322,54020,1,2,1:2:0:0:
299,78,54181,1,0,3:2:0:0:
26,165,54342,1,2,1:2:0:0:
307,286,54504,1,0,3:2:0:0:
56,356,54665,6,0,L|50:266,1,89.9999972534181,4|0,1:2|0:0,0:0:0:0:
191,55,54988,1,2,1:2:0:0:
222,273,55149,2,0,L|219:317,2,44.999998626709,0|0|2,1:2|1:2|3:2,0:0:0:0:
47,140,55471,1,0,3:2:0:0:
305,45,55633,2,0,P|349:33|393:36,1,89.9999972534181,2|0,3:2|3:2,0:0:0:0:
301,319,55955,5,4,1:2:0:0:
162,137,56117,2,0,L|156:47,1,89.9999972534181,0|0,1:2|0:0,0:0:0:0:
173,362,56439,5,4,1:2:0:0:
386,125,56601,2,0,L|392:35,1,89.9999972534181,0|0,1:2|0:0,0:0:0:0:
71,159,56923,5,4,1:2:0:0:
301,319,57084,2,0,L|391:325,1,89.9999972534181,0|0,1:2|0:0,0:0:0:0:
52,249,57407,5,4,1:2:0:0:
386,125,57568,2,0,L|476:119,1,89.9999972534181,0|0,1:2|0:0,0:0:0:0:
206,273,57891,6,0,B|172:240|172:240|186:148,1,139.999995727539,12|0,1:2|0:0,0:0:0:0:
