osu file format v14

[General]
AudioFilename: audio.mp3
AudioLeadIn: 0
PreviewTime: 51749
Countdown: 0
SampleSet: Normal
StackLeniency: 0.7
Mode: 1
LetterboxInBreaks: 0
WidescreenStoryboard: 1

[Editor]
Bookmarks: 35262,51814
DistanceSpacing: 1.3
BeatDivisor: 4
GridSize: 32
TimelineZoom: 1

[Metadata]
Title:AHAREN HEART (TV Size)
TitleUnicode:AHAREN HEART (TV Size)
Artist:Aharen Reina (CV: Inori Minase)
ArtistUnicode:阿波連れいな (CV: 水瀬いのり)
Creator:Faputa
Version:MUZUKASHII
Source:阿波連さんははかれない
Tags:Tyistiana anime japanese jpop j-pop pop episode 3 ep3 ending ed aharen-san wa hakarenai
BeatmapID:3591915
BeatmapSetID:1753924

[Difficulty]
HPDrainRate:6.5
CircleSize:2
OverallDifficulty:4.5
ApproachRate:10
SliderMultiplier:1.4
SliderTickRate:1

[Events]
//Background and Video events
Video,-200,"aha.mp4"
0,0,"aha.jpg",0,0
//Break Periods
//Storyboard Layer 0 (Background)
//Storyboard Layer 1 (Fail)
//Storyboard Layer 2 (Pass)
//Storyboard Layer 3 (Foreground)
//Storyboard Layer 4 (Overlay)
//Storyboard Sound Samples

[TimingPoints]
90,517.241379310345,4,1,0,70,1,0
8301,-100,4,1,0,80,0,0
16512,-100,4,1,0,70,0,0
24788,-100,4,1,0,75,0,0
35133,-100,4,1,0,80,0,0
51749,-100,4,1,0,85,0,0
51814,-100,4,1,0,85,0,1
78581,-100,4,1,0,75,0,1
78710,-100,4,1,0,75,0,0
87115,-100,4,1,0,40,0,0
87503,-100,4,1,0,30,0,0
87762,-100,4,1,0,25,0,0
88021,-100,4,1,0,20,0,0
88279,-100,4,1,0,15,0,0
88538,-100,4,1,0,10,0,0

[HitObjects]
256,192,90,5,8,0:0:0:0:
256,192,607,1,8,0:0:0:0:
256,192,1124,1,8,0:0:0:0:
256,192,1383,1,0,0:0:0:0:
256,192,1641,1,8,0:0:0:0:
256,192,2158,1,0,0:0:0:0:
256,192,2676,1,0,0:0:0:0:
256,192,3193,1,0,0:0:0:0:
256,192,3452,1,8,0:0:0:0:
256,192,3710,1,0,0:0:0:0:
256,192,4227,1,0,0:0:0:0:
256,192,5262,1,8,0:0:0:0:
256,192,5650,1,8,0:0:0:0:
256,192,6038,1,0,0:0:0:0:
256,192,6296,1,8,0:0:0:0:
256,192,6814,1,0,0:0:0:0:
256,192,7331,1,8,0:0:0:0:
256,192,7719,1,0,0:0:0:0:
256,192,7848,1,8,0:0:0:0:
256,192,8365,1,12,0:0:0:0:
256,192,8883,1,8,0:0:0:0:
256,192,9529,1,0,0:0:0:0:
256,192,9658,1,8,0:0:0:0:
256,192,9917,1,8,0:0:0:0:
256,192,10176,1,0,0:0:0:0:
256,192,10434,1,8,0:0:0:0:
256,192,10952,1,0,0:0:0:0:
256,192,11598,1,8,0:0:0:0:
256,192,11727,1,8,0:0:0:0:
256,192,11986,1,0,0:0:0:0:
256,192,12245,1,8,0:0:0:0:
256,192,12503,1,0,0:0:0:0:
256,192,13021,1,8,0:0:0:0:
256,192,13667,1,0,0:0:0:0:
256,192,13796,1,8,0:0:0:0:
256,192,14055,1,8,0:0:0:0:
256,192,14314,1,0,0:0:0:0:
256,192,14572,1,8,0:0:0:0:
256,192,14831,1,8,0:0:0:0:
256,192,14960,1,0,0:0:0:0:
256,192,15219,1,8,0:0:0:0:
256,192,15477,1,8,0:0:0:0:
256,192,16124,1,0,0:0:0:0:
256,192,16383,1,0,0:0:0:0:
256,192,16641,1,12,0:0:0:0:
256,192,17158,1,0,0:0:0:0:
256,192,17546,1,8,0:0:0:0:
256,192,18710,1,0,0:0:0:0:
256,192,19227,1,0,0:0:0:0:
256,192,19615,1,8,0:0:0:0:
256,192,20779,1,8,0:0:0:0:
256,192,21296,1,0,0:0:0:0:
256,192,21684,1,0,0:0:0:0:
256,192,22848,1,8,0:0:0:0:
256,192,23365,1,0,0:0:0:0:
256,192,23753,1,0,0:0:0:0:
256,192,24141,1,8,0:0:0:0:
256,192,24400,1,8,0:0:0:0:
256,192,24917,1,12,0:0:0:0:
256,192,25693,1,0,0:0:0:0:
256,192,25952,1,8,0:0:0:0:
256,192,26340,1,8,0:0:0:0:
256,192,26727,1,0,0:0:0:0:
256,192,26986,1,8,0:0:0:0:
256,192,27503,1,0,0:0:0:0:
256,192,27762,1,0,0:0:0:0:
256,192,28021,1,8,0:0:0:0:
256,192,28538,1,0,0:0:0:0:
256,192,29055,1,12,0:0:0:0:
256,192,29831,1,0,0:0:0:0:
256,192,30090,1,8,0:0:0:0:
256,192,30477,1,8,0:0:0:0:
256,192,30865,1,0,0:0:0:0:
256,192,31124,1,8,0:0:0:0:
256,192,31641,1,0,0:0:0:0:
256,192,31900,1,8,0:0:0:0:
256,192,32158,1,0,0:0:0:0:
256,192,32676,1,8,0:0:0:0:
256,192,33193,1,0,0:0:0:0:
256,192,33452,1,8,0:0:0:0:
256,192,33710,1,0,0:0:0:0:
256,192,34098,1,8,0:0:0:0:
256,192,34357,1,0,0:0:0:0:
256,192,34486,1,8,0:0:0:0:
256,192,34745,1,0,0:0:0:0:
256,192,35262,1,12,0:0:0:0:
256,192,35779,1,8,0:0:0:0:
256,192,36296,1,0,0:0:0:0:
256,192,36555,1,0,0:0:0:0:
256,192,36814,1,8,0:0:0:0:
256,192,37072,1,8,0:0:0:0:
256,192,37331,1,0,0:0:0:0:
256,192,37590,1,8,0:0:0:0:
256,192,37848,1,0,0:0:0:0:
256,192,37977,1,0,0:0:0:0:
256,192,38236,1,8,0:0:0:0:
256,192,39400,1,0,0:0:0:0:
256,192,39917,1,8,0:0:0:0:
256,192,40176,1,8,0:0:0:0:
256,192,40434,1,0,0:0:0:0:
256,192,40693,1,0,0:0:0:0:
256,192,40952,1,8,0:0:0:0:
256,192,41210,1,8,0:0:0:0:
256,192,41469,1,0,0:0:0:0:
256,192,41857,1,8,0:0:0:0:
256,192,42115,1,0,0:0:0:0:
256,192,42245,1,0,0:0:0:0:
256,192,42503,1,8,0:0:0:0:
256,192,42891,1,0,0:0:0:0:
256,192,43538,1,12,0:0:0:0:
256,192,44055,1,0,0:0:0:0:
256,192,44572,1,8,0:0:0:0:
256,192,44831,1,0,0:0:0:0:
256,192,45090,1,8,0:0:0:0:
256,192,45348,1,8,0:0:0:0:
256,192,45607,1,0,0:0:0:0:
256,192,45865,1,8,0:0:0:0:
256,192,46124,1,0,0:0:0:0:
256,192,46253,1,0,0:0:0:0:
256,192,46512,1,8,0:0:0:0:
256,192,47417,1,0,0:0:0:0:
256,192,47676,1,12,0:0:0:0:
256,192,48064,1,0,0:0:0:0:
256,192,48452,1,0,0:0:0:0:
256,192,48710,1,12,0:0:0:0:
256,192,49098,1,8,0:0:0:0:
256,192,49486,1,0,0:0:0:0:
256,192,49745,1,12,0:0:0:0:
256,192,50133,1,12,0:0:0:0:
256,192,50521,1,12,0:0:0:0:
256,192,50779,1,4,0:0:0:0:
256,192,51296,1,8,0:0:0:0:
256,192,51814,1,4,0:0:0:0:
256,192,52202,1,8,0:0:0:0:
256,192,52331,1,8,0:0:0:0:
256,192,52719,1,8,0:0:0:0:
256,192,52848,1,8,0:0:0:0:
256,192,53107,1,0,0:0:0:0:
256,192,53365,1,8,0:0:0:0:
256,192,53624,1,8,0:0:0:0:
256,192,54141,1,8,0:0:0:0:
256,192,54400,1,8,0:0:0:0:
256,192,54658,1,0,0:0:0:0:
256,192,54917,1,8,0:0:0:0:
256,192,55434,1,0,0:0:0:0:
256,192,55952,1,8,0:0:0:0:
256,192,56340,1,0,0:0:0:0:
256,192,56469,1,0,0:0:0:0:
256,192,56857,1,0,0:0:0:0:
256,192,56986,1,0,0:0:0:0:
256,192,57245,1,8,0:0:0:0:
256,192,57503,1,8,0:0:0:0:
256,192,57762,1,0,0:0:0:0:
256,192,58021,1,8,0:0:0:0:
256,192,58279,1,0,0:0:0:0:
256,192,58538,1,8,0:0:0:0:
256,192,58796,1,8,0:0:0:0:
256,192,59572,1,0,0:0:0:0:
256,192,60090,1,12,0:0:0:0:
256,192,60477,1,8,0:0:0:0:
256,192,60607,1,8,0:0:0:0:
256,192,60995,1,8,0:0:0:0:
256,192,61124,1,8,0:0:0:0:
256,192,61383,1,0,0:0:0:0:
256,192,61641,1,8,0:0:0:0:
256,192,61900,1,8,0:0:0:0:
256,192,62158,1,0,0:0:0:0:
256,192,62417,1,8,0:0:0:0:
256,192,62676,1,0,0:0:0:0:
256,192,62934,1,0,0:0:0:0:
256,192,63452,1,0,0:0:0:0:
256,192,63710,1,8,0:0:0:0:
256,192,63969,1,0,0:0:0:0:
256,192,64227,1,8,0:0:0:0:
256,192,65003,1,8,0:0:0:0:
256,192,65262,1,8,0:0:0:0:
256,192,65521,1,0,0:0:0:0:
256,192,65650,1,0,0:0:0:0:
256,192,65779,1,0,0:0:0:0:
256,192,66038,1,0,0:0:0:0:
256,192,66296,1,8,0:0:0:0:
256,192,66555,1,0,0:0:0:0:
256,192,66814,1,8,0:0:0:0:
256,192,67072,1,8,0:0:0:0:
256,192,67202,1,8,0:0:0:0:
256,192,67848,1,0,0:0:0:0:
256,192,68107,1,0,0:0:0:0:
256,192,68365,1,12,0:0:0:0:
256,192,68624,1,0,0:0:0:0:
256,192,68883,1,8,0:0:0:0:
256,192,69141,1,0,0:0:0:0:
256,192,69400,1,8,0:0:0:0:
256,192,69917,1,8,0:0:0:0:
256,192,70434,1,4,0:0:0:0:
256,192,70952,1,8,0:0:0:0:
256,192,71340,1,8,0:0:0:0:
256,192,71727,1,0,0:0:0:0:
256,192,71986,1,8,0:0:0:0:
256,192,72503,1,0,0:0:0:0:
256,192,73021,1,8,0:0:0:0:
256,192,73408,1,0,0:0:0:0:
256,192,73796,1,8,0:0:0:0:
256,192,74055,1,0,0:0:0:0:
256,192,74831,1,8,0:0:0:0:
256,192,75090,1,8,0:0:0:0:
256,192,75607,1,8,0:0:0:0:
256,192,75995,1,0,0:0:0:0:
256,192,76383,1,0,0:0:0:0:
256,192,76641,1,8,0:0:0:0:
256,192,76900,1,0,0:0:0:0:
256,192,77158,1,8,0:0:0:0:
256,192,77417,1,8,0:0:0:0:
256,192,77676,1,0,0:0:0:0:
256,192,78193,1,8,0:0:0:0:
256,192,78710,1,4,0:0:0:0:
256,192,79227,1,8,0:0:0:0:
256,192,79615,1,0,0:0:0:0:
256,192,79874,1,8,0:0:0:0:
256,192,80003,1,8,0:0:0:0:
256,192,80262,1,8,0:0:0:0:
256,192,80779,1,0,0:0:0:0:
256,192,81296,1,8,0:0:0:0:
256,192,81684,1,0,0:0:0:0:
256,192,81943,1,8,0:0:0:0:
256,192,82072,1,8,0:0:0:0:
256,192,82331,1,0,0:0:0:0:
256,192,83107,1,8,0:0:0:0:
256,192,83365,1,8,0:0:0:0:
256,192,83883,1,8,0:0:0:0:
256,192,84271,1,0,0:0:0:0:
256,192,84658,1,0,0:0:0:0:
256,192,84917,1,8,0:0:0:0:
256,192,85176,1,8,0:0:0:0:
256,192,85434,1,0,0:0:0:0:
256,192,85693,1,0,0:0:0:0:
256,192,85952,1,8,0:0:0:0:
256,192,86469,1,0,0:0:0:0:
256,192,86986,1,12,0:0:0:0:
256,192,87245,12,0,88538,0:0:0:0:
