osu file format v14

[General]
AudioFilename: audio.mp3
AudioLeadIn: 0
PreviewTime: 51287
Countdown: 0
SampleSet: Soft
StackLeniency: 0.3
Mode: 0
LetterboxInBreaks: 0
WidescreenStoryboard: 0

[Editor]
DistanceSpacing: 2
BeatDivisor: 4
GridSize: 4
TimelineZoom: 1

[Metadata]
Title:AHAREN HEART (TV Size)
TitleUnicode:AHAREN HEART (TV Size)
Artist:Aharen Reina (CV: Inori Minase)
ArtistUnicode:阿波連れいな (CV: 水瀬いのり)
Creator:Andrea
Version:Sekai's Cute Heart
Source:阿波連さんははかれない
Tags:osuplayer111 Sekaii Sekai Sekai-nyan sanairrt - Ex - -_Ex_- Moecho midorijeon anime japanese jpop j-pop pop episode 3 ep3 ending aharen-san wa hakarenai female vocals vocalist
BeatmapID:3572461
BeatmapSetID:1746540

[Difficulty]
HPDrainRate:6
CircleSize:4
OverallDifficulty:8
ApproachRate:9
SliderMultiplier:2
SliderTickRate:1

[Events]
//Background and Video events
0,0,"Aharenqt.jpg",0,0
Video,-200,"Video.mp4"
//Break Periods
//Storyboard Layer 0 (Background)
//Storyboard Layer 1 (Fail)
//Storyboard Layer 2 (Pass)
//Storyboard Layer 3 (Foreground)
//Storyboard Layer 4 (Overlay)
//Storyboard Sound Samples

[TimingPoints]
81,517.241379310345,4,2,1,50,1,0
81,-125,4,2,1,50,0,0
8356,-100,4,2,1,75,0,0
16374,-100,4,2,2,75,0,0
16632,-111.111111111111,4,2,1,65,0,0
24908,-100,4,2,1,70,0,0
51805,-83.3333333333333,4,2,1,80,0,1
70425,-100,4,2,1,70,0,0
86977,-166.666666666667,4,2,1,60,0,0
88529,-100,4,2,1,5,0,0

[Colours]
Combo1 : 255,255,128
Combo2 : 64,159,255
Combo3 : 255,128,191
SliderBorder : 200,200,200
SliderTrackOverride : 25,34,58

[HitObjects]
187,115,81,6,0,P|177:154|184:172,1,40,2|2,0:0|0:2,0:0:0:0:
145,246,339,2,0,P|195:245|207:235,1,40,2|0,0:0|0:0,0:0:0:0:
268,187,598,2,0,P|305:181|350:175,1,80,2|2,0:0|0:2,0:0:0:0:
422,211,986,2,0,P|405:242|397:267,1,40,2|0,0:0|0:0,0:0:0:0:
424,349,1244,2,0,P|389:332|350:328,1,40,2|2,0:2|0:0,0:0:0:0:
279,293,1503,1,0,0:0:0:0:
264,371,1632,2,0,P|279:325|277:274,1,80,2|0,0:0|0:0,0:0:0:0:
274,161,2149,6,0,P|263:198|263:215,1,40,2|2,0:0|0:2,0:0:0:0:
354,119,2408,2,0,P|325:91|302:83,1,40,2|0,0:0|0:0,0:0:0:0:
355,204,2667,2,0,P|403:194|435:163,1,80,2|2,0:0|0:2,0:0:0:0:
509,111,3055,2,0,P|506:146|516:174,1,40,2|0,0:0|0:0,0:0:0:0:
511,251,3313,2,0,P|493:244|473:241,1,40,2|2,0:2|0:0,0:0:0:0:
355,204,3572,1,0,0:0:0:0:
364,130,3701,2,0,P|346:172|363:215,1,80,2|0,0:0|0:0,0:0:0:0:
223,244,4218,6,0,P|220:224|223:205,1,40,2|0,0:2|0:0,0:0:0:0:
159,336,4477,2,0,P|189:325|247:332,2,80,2|2|0,0:0|0:0|0:0,0:0:0:0:
48,119,5253,6,0,P|40:163|34:204,1,80,2|0,0:0|0:0,0:0:0:0:
149,119,5641,2,0,P|143:79|135:40,1,80,2|0,0:0|0:0,0:0:0:0:
267,41,6029,2,0,P|246:70|235:89,1,40,2|0,0:0|0:0,0:0:0:0:
316,142,6287,6,0,P|355:136|402:128,2,80,2|2|2,0:0|0:0|0:0,0:0:0:0:
226,264,7063,2,0,P|216:246|214:213,1,40,2|0,0:2|0:0,0:0:0:0:
313,238,7322,2,0,P|352:244|391:250,1,80,2|0,0:0|0:0,0:0:0:0:
425,332,7710,1,0,3:2:0:0:
452,178,7839,2,0,P|412:171|373:165,1,80,10|0,3:2|0:0,0:0:0:0:
313,238,8227,1,8,0:2:0:0:
93,238,8356,6,0,P|140:237|167:276,1,100,6|2,3:2|0:2,0:0:0:0:
54,348,8744,1,0,0:0:0:0:
8,213,8874,2,0,P|35:173|84:157,1,100,10|0,3:2|0:0,0:0:0:0:
67,41,9262,1,2,0:2:0:0:
197,99,9391,2,0,P|155:94|136:94,1,50,0|2,3:2|0:2,0:0:0:0:
271,31,9649,1,2,0:2:0:0:
239,175,9779,1,0,0:0:0:0:
339,71,9908,2,0,P|325:94|317:126,1,50,10|0,3:2|0:0,0:0:0:0:
367,236,10167,2,0,P|340:219|302:213,1,50,2|0,0:2|0:0,0:0:0:0:
193,330,10425,6,0,P|228:320|301:298,1,100,0|2,3:2|0:2,0:0:0:0:
395,331,10813,1,0,0:0:0:0:
322,214,10943,2,0,P|272:202|232:254,1,100,10|0,3:2|0:0,0:0:0:0:
288,301,11331,1,0,0:0:0:0:
304,170,11460,2,0,P|266:164|237:176,1,50,0|2,3:2|0:2,0:0:0:0:
103,135,11718,1,10,0:2:0:0:
176,242,11848,1,2,2:2:0:0:
210,103,11977,2,0,P|251:88|285:81,1,50,10|0,3:2|0:0,0:0:0:0:
362,38,12236,2,0,P|348:65|344:102,1,50,2|2,0:2|0:2,0:0:0:0:
415,232,12494,6,0,P|419:178|428:124,1,100,0|2,3:2|0:2,0:0:0:0:
499,196,12882,1,0,0:0:0:0:
393,258,13012,2,0,P|391:204|391:144,1,100,10|0,3:2|0:0,0:0:0:0:
278,209,13399,1,2,0:2:0:0:
312,120,13529,2,0,P|307:95|305:70,1,50,0|2,3:2|0:2,0:0:0:0:
213,27,13787,2,0,P|210:51|206:76,1,50,2|0,0:2|0:0,0:0:0:0:
107,114,14046,2,0,P|111:89|113:64,1,50,10|0,3:2|0:0,0:0:0:0:
26,150,14305,2,0,P|23:174|19:199,1,50,2|0,0:2|0:0,0:0:0:0:
96,336,14563,5,10,3:2:0:0:
177,183,14693,1,10,2:2:0:0:
216,344,14822,1,10,2:2:0:0:
95,230,14951,2,0,P|137:256|148:264,1,50,10|0,2:2|3:2,0:0:0:0:
242,357,15210,2,0,P|289:346|310:335,1,50,10|0,2:2|0:0,0:0:0:0:
365,244,15468,1,10,2:2:0:0:
365,355,15598,1,0,3:2:0:0:
289,262,15727,5,8,2:3:0:0:
420,305,15856,2,0,P|457:297|473:288,1,50,0|8,0:0|2:2,0:0:0:0:
501,180,16115,2,0,P|476:183|453:193,1,50,6|0,3:3|0:0,0:0:0:0:
345,198,16374,2,0,P|366:248|374:273,1,50,8|0,3:3|0:0,0:0:0:0:
358,111,16632,6,0,B|313:103|313:103|269:138,1,89.9999972534181,6|2,3:2|2:2,0:0:0:0:
205,192,17020,1,0,0:0:0:0:
151,112,17149,2,0,P|180:80|232:74,1,89.9999972534181,2|2,3:2|2:2,0:0:0:0:
182,180,17537,1,2,2:2:0:0:
79,143,17667,2,0,P|74:102|103:47,1,89.9999972534181,0|0,3:2|0:0,0:0:0:0:
151,112,18055,1,0,0:0:0:0:
92,58,18184,2,0,P|69:54|34:63,1,44.999998626709,0|0,3:2|0:0,0:0:0:0:
34,143,18443,2,0,P|56:146|78:142,1,44.999998626709
101,281,18701,6,0,P|152:276|205:275,1,89.9999972534181,2|2,3:2|2:2,0:0:0:0:
204,363,19089,1,0,0:0:0:0:
265,276,19218,2,0,P|253:229|206:203,1,89.9999972534181,2|2,3:2|2:2,0:0:0:0:
144,276,19606,1,2,2:2:0:0:
147,177,19736,2,0,P|179:134|238:136,1,89.9999972534181,0|0,3:2|0:0,0:0:0:0:
305,162,20124,1,0,0:0:0:0:
268,69,20253,2,0,P|311:57|369:41,1,89.9999972534181,0|2,3:2|2:2,0:0:0:0:
354,44,20641,1,0,0:0:0:0:
459,160,20770,6,0,B|440:198|440:198|441:217|441:217|425:241,1,89.9999972534181,2|2,3:2|2:2,0:0:0:0:
360,312,21158,1,0,0:0:0:0:
360,202,21287,2,0,P|332:202|304:213,1,44.999998626709,2|0,3:2|0:0,0:0:0:0:
232,171,21546,2,0,P|229:208|236:234,1,44.999998626709,2|2,2:2|2:2,0:0:0:0:
269,317,21805,2,0,P|219:300|163:286,1,89.9999972534181,0|0,3:2|0:0,0:0:0:0:
89,327,22193,1,0,0:0:0:0:
57,236,22322,2,0,P|85:201|119:158,1,89.9999972534181,0|2,3:2|2:2,0:0:0:0:
150,83,22710,1,0,0:0:0:0:
262,173,22839,6,0,P|218:189|205:256,1,89.9999972534181,2|2,3:2|2:2,0:0:0:0:
331,228,23227,1,0,0:0:0:0:
342,132,23356,2,0,P|305:95|253:94,1,89.9999972534181,2|2,3:2|2:2,0:0:0:0:
174,145,23744,1,2,2:2:0:0:
173,19,23874,2,0,P|186:57|193:79,1,44.999998626709,0|0,3:2|0:0,0:0:0:0:
257,133,24132,2,0,P|268:93|270:76,1,44.999998626709,2|0,2:3|0:0,0:0:0:0:
378,49,24391,2,0,P|359:85|338:143,1,89.9999972534181,2|2,3:2|2:2,0:0:0:0:
463,123,24779,1,0,0:0:0:0:
376,309,24908,6,0,B|352:342|284:332|284:332|255:303|224:295|192:307,1,200,6|8,3:2|3:2,0:0:0:0:
219,381,25555,1,0,0:0:0:0:
178,231,25684,2,0,P|123:272|119:341,1,100,2|0,2:2|3:2,0:0:0:0:
7,333,26072,1,0,0:0:0:0:
11,225,26201,2,0,P|13:200|17:175,1,50
104,119,26460,2,0,P|145:101|201:125,1,100,8|2,3:2|0:2,0:0:0:0:
132,10,26848,1,0,0:0:0:0:
290,90,26977,6,0,P|240:104|187:121,1,100,2|2,3:2|0:2,0:0:0:0:
292,182,27365,1,0,0:0:0:0:
366,81,27494,2,0,P|347:35|303:14,1,100,10|2,3:2|0:2,0:0:0:0:
371,191,27882,1,0,0:0:0:0:
290,90,28012,2,0,B|360:33|436:79|436:79|447:56|476:37,1,200,2|10,3:2|3:2,0:0:0:0:
175,287,29046,6,0,P|112:243|124:329,1,200,6|8,3:2|3:2,0:0:0:0:
213,189,29822,2,0,P|178:167|112:160,1,100,2|0,0:2|3:2,0:0:0:0:
15,234,30210,1,0,0:0:0:0:
23,91,30339,2,0,P|40:128|45:153,1,50
120,64,30598,2,0,P|178:58|254:52,1,100,8|2,3:2|0:2,0:0:0:0:
321,98,30986,1,0,0:0:0:0:
432,212,31115,6,0,B|383:197|383:197|323:214,1,100,2|2,3:2|0:2,0:0:0:0:
222,249,31503,1,0,0:0:0:0:
299,339,31632,2,0,P|349:331|410:321,1,100,10|2,3:2|0:2,0:0:0:0:
507,343,32020,1,0,0:0:0:0:
432,212,32149,2,0,B|374:200|374:200|320:231|320:231|235:218,1,200,2|10,3:2|3:2,0:0:0:0:
72,56,33184,6,0,P|54:98|104:136,1,100,2|2,3:2|0:2,0:0:0:0:
176,67,33572,1,0,0:0:0:0:
160,170,33701,2,0,P|118:202|89:208,1,50,10|2,3:2|0:2,0:0:0:0:
144,302,33960,2,0,P|186:270|215:264,1,50,0|2,0:0|0:2,0:0:0:0:
257,147,34218,1,0,3:2:0:0:
265,281,34348,1,2,0:2:0:0:
160,170,34477,1,2,0:2:0:0:
314,221,34606,1,2,0:2:0:0:
183,272,34736,2,0,P|193:330|203:386,1,100,10|2,3:2|0:2,0:0:0:0:
314,221,35253,6,0,P|377:206|426:197,1,100,6|0,3:2|0:0,0:0:0:0:
485,269,35641,1,0,0:0:0:0:
482,139,35770,2,0,P|443:122|388:101,1,100,10|2,3:2|2:2,0:0:0:0:
261,149,36158,1,0,0:0:0:0:
316,26,36287,2,0,P|374:24|428:28,1,100,2|2,3:2|2:2,0:0:0:0:
482,139,36675,1,0,0:0:0:0:
415,26,36805,2,0,P|390:65|360:112,1,100,10|2,3:2|2:2,0:0:0:0:
377,237,37193,1,0,0:0:0:0:
252,117,37322,6,0,P|200:132|142:151,1,100,2|2,3:2|2:2,0:0:0:0:
91,250,37710,1,0,0:0:0:0:
45,140,37839,2,0,P|81:99|127:55,1,100,10|0,3:2|0:0,0:0:0:0:
252,117,38227,1,2,0:2:0:0:
156,146,38356,2,0,P|160:204|170:258,1,100,0|0,3:2|0:0,0:0:0:0:
140,364,38744,1,0,0:0:0:0:
263,270,38874,2,0,P|202:254|146:240,1,100,8|0,3:2|0:0,0:0:0:0:
62,310,39262,1,0,0:0:0:0:
229,179,39391,6,0,P|222:138|262:92,1,100,2|0,3:2|0:0,0:0:0:0:
346,169,39779,1,0,0:0:0:0:
333,54,39908,2,0,P|294:18|242:17,1,100,10|2,3:2|2:2,0:0:0:0:
256,94,40296,1,0,0:0:0:0:
404,87,40425,2,0,P|371:131|341:175,1,100,2|2,3:2|2:2,0:0:0:0:
338,288,40813,1,0,0:0:0:0:
238,192,40943,2,0,P|248:140|257:85,1,100,10|2,3:2|2:2,0:0:0:0:
345,168,41331,1,0,0:0:0:0:
221,32,41460,6,0,B|184:-2|184:-2|163:51,1,100,2|0,3:2|0:0,0:0:0:0:
101,133,41848,1,2,0:2:0:0:
204,159,41977,2,0,P|238:166|263:143,1,50,8|2,3:2|0:2,0:0:0:0:
296,159,42236,2,0,P|262:166|237:143,1,50,2|0,2:2|0:0,0:0:0:0:
339,47,42494,2,0,B|376:13|376:13|397:66,1,100,2|0,3:2|0:0,0:0:0:0:
462,145,42882,1,2,0:2:0:0:
375,217,43012,2,0,P|376:165|386:136,1,50,8|0,3:2|0:0,0:0:0:0:
475,220,43270,1,8,2:2:0:0:
377,341,43399,1,8,2:2:0:0:
274,219,43529,6,0,P|219:217|142:220,1,100,6|0,3:2|0:0,0:0:0:0:
75,289,43917,1,0,0:0:0:0:
130,153,44046,2,0,P|179:181|167:226,1,100,10|2,3:2|2:2,0:0:0:0:
42,178,44434,1,0,0:0:0:0:
97,68,44563,2,0,P|153:66|206:81,1,100,2|2,3:2|2:2,0:0:0:0:
257,172,44951,1,0,0:0:0:0:
278,21,45081,2,0,P|232:48|186:84,1,100,10|2,3:2|2:2,0:0:0:0:
127,192,45468,1,0,0:0:0:0:
333,104,45598,6,0,P|320:155|309:213,1,100,2|2,3:2|2:2,0:0:0:0:
376,332,45986,1,0,0:0:0:0:
480,208,46115,2,0,P|453:211|427:223,1,50,10|2,3:2|0:2,0:0:0:0:
376,332,46374,2,0,P|348:334|316:322,1,50,0|2,0:0|0:2,0:0:0:0:
243,242,46632,2,0,P|209:241|184:250,1,50,0|0,3:2|0:0,0:0:0:0:
106,341,46891,1,2,2:2:0:0:
102,233,47020,1,0,0:0:0:0:
203,344,47149,2,0,P|231:346|263:334,1,50,8|0,3:2|0:0,0:0:0:0:
315,243,47408,2,0,P|339:236|363:239,1,50,2|0,2:2|0:0,0:0:0:0:
438,98,47667,6,0,P|387:83|355:131,1,100,6|0,3:2|0:0,0:0:0:0:
469,7,48055,1,2,0:2:0:0:
512,126,48184,2,0,P|501:174|486:233,1,100,8|2,3:2|0:2,0:0:0:0:
445,333,48572,1,0,0:0:0:0:
323,239,48701,2,0,P|367:231|421:271,1,100,6|0,3:2|0:0,0:0:0:0:
332,341,49089,1,2,0:2:0:0:
232,268,49218,2,0,P|249:218|267:167,1,100,8|2,3:2|0:2,0:0:0:0:
339,78,49606,1,0,0:0:0:0:
139,61,49736,6,0,P|161:95|174:123,1,50,6|0,3:2|0:0,0:0:0:0:
81,330,50124,2,0,P|59:296|46:268,1,50,2|0,3:2|0:0,0:0:0:0:
256,227,50512,1,2,3:2:0:0:
77,137,50770,1,2,3:2:0:0:
286,91,51029,5,2,3:2:0:0:
382,224,51158,1,0,3:2:0:0:
402,96,51287,2,0,P|371:121|363:130,5,33.3333333333333,14|2|2|10|2|2,2:2|0:0|0:0|2:2|0:0|0:0,0:0:0:0:
500,240,51805,6,0,P|455:233|373:222,1,119.999996337891,6|0,3:2|0:0,0:0:0:0:
436,345,52193,1,2,2:2:0:0:
284,291,52322,2,0,P|295:234|314:160,1,119.999996337891,10|0,3:2|0:0,0:0:0:0:
333,57,52710,1,0,0:0:0:0:
228,66,52839,2,0,P|193:91|165:109,1,59.9999981689454,2|0,3:2|0:0,0:0:0:0:
113,183,53097,2,0,P|95:136|79:110,1,59.9999981689454,2|0,2:2|0:0,0:0:0:0:
65,281,53356,2,0,P|133:264|196:253,1,119.999996337891,10|2,3:2|2:2,0:0:0:0:
254,327,53744,1,0,0:0:0:0:
302,146,53874,6,0,P|289:186|281:228,1,59.9999981689454,0|0,3:2|0:0,0:0:0:0:
370,293,54132,2,0,P|383:333|391:375,1,59.9999981689454,2|0,2:2|0:0,0:0:0:0:
250,358,54391,2,0,P|257:328|266:300,1,59.9999981689454,10|0,3:2|0:0,0:0:0:0:
404,217,54649,2,0,P|394:188|387:159,1,59.9999981689454,2|0,2:2|0:0,0:0:0:0:
312,17,54908,5,2,3:2:0:0:
291,164,55037,1,0,0:0:0:0:
405,46,55167,1,0,0:0:0:0:
245,85,55296,1,0,0:0:0:0:
387,159,55425,2,0,P|438:153|483:95,1,119.999996337891,10|0,3:2|0:0,0:0:0:0:
405,46,55813,1,0,0:0:0:0:
291,164,55943,6,0,P|285:211|276:286,1,119.999996337891,2|0,3:2|0:0,0:0:0:0:
346,373,56331,1,2,2:2:0:0:
174,348,56460,2,0,P|186:288|199:225,1,119.999996337891,10|0,3:2|0:0,0:0:0:0:
154,95,56848,1,2,2:2:0:0:
80,200,56977,2,0,P|78:229|75:259,1,59.9999981689454,2|0,3:2|0:0,0:0:0:0:
169,288,57236,2,0,P|170:317|173:347,1,59.9999981689454,2|0,2:2|0:0,0:0:0:0:
276,283,57494,2,0,P|272:253|271:223,1,59.9999981689454,10|0,3:2|0:0,0:0:0:0:
346,93,57753,1,2,2:2:0:0:
369,239,57882,1,0,0:0:0:0:
267,118,58012,6,0,P|219:111|141:101,1,119.999996337891,2|2,3:2|2:2,0:0:0:0:
31,138,58399,1,0,0:0:0:0:
162,0,58529,2,0,P|180:59|142:106,1,119.999996337891,10|2,3:2|2:2,0:0:0:0:
158,220,58917,1,0,0:0:0:0:
17,196,59046,2,0,P|26:152|37:119,1,59.9999981689454,0|0,3:2|0:0,0:0:0:0:
143,122,59305,6,0,L|188:116,2,39.9999987792969,2|2|2,0:0|0:0|0:0,0:0:0:0:
197,214,59563,2,0,L|152:220,5,39.9999987792969,10|2|2|2|2|2,3:2|0:0|0:0|0:0|0:0|0:0,0:0:0:0:
301,106,60081,6,0,P|360:102|423:97,1,119.999996337891,6|0,3:2|0:0,0:0:0:0:
363,207,60468,1,2,2:2:0:0:
496,94,60598,2,0,P|456:30|393:27,1,119.999996337891,10|0,3:2|0:0,0:0:0:0:
246,127,60986,1,2,2:2:0:0:
420,97,61115,1,2,3:2:0:0:
308,37,61244,1,0,0:0:0:0:
363,207,61374,2,0,P|352:178|333:146,1,59.9999981689454,2|0,2:2|0:0,0:0:0:0:
469,256,61632,2,0,P|433:281|413:308,1,59.9999981689454,10|0,3:2|0:0,0:0:0:0:
293,341,61891,2,0,P|299:283|286:249,1,59.9999981689454,2|0,2:2|0:0,0:0:0:0:
114,263,62149,6,0,P|162:275|157:339,1,119.999996337891,0|2,3:2|2:2,0:0:0:0:
23,307,62537,1,0,0:0:0:0:
112,177,62667,2,0,P|165:188|195:197,1,59.9999981689454,10|0,3:2|0:0,0:0:0:0:
257,279,62925,1,2,2:2:0:0:
219,122,63055,1,0,0:0:0:0:
311,205,63184,6,0,P|340:212|369:217,1,59.9999981689454,0|0,3:2|0:0,0:0:0:0:
449,93,63443,2,0,P|419:100|390:105,1,59.9999981689454,2|0,2:2|0:0,0:0:0:0:
480,212,63701,1,10,3:2:0:0:
312,112,63831,1,0,0:0:0:0:
449,93,63960,1,0,0:0:0:0:
369,217,64089,1,0,0:0:0:0:
340,32,64218,6,0,B|273:30|273:30|221:82,1,119.999996337891,2|0,3:2|0:0,0:0:0:0:
205,187,64606,1,0,0:0:0:0:
121,93,64736,2,0,P|138:63|159:26,1,59.9999981689454,8|0,3:2|0:0,0:0:0:0:
25,136,64994,2,0,P|39:162|54:188,1,59.9999981689454,2|0,2:2|0:0,0:0:0:0:
144,297,65253,1,2,3:2:0:0:
138,173,65382,1,0,0:0:0:0:
40,296,65512,5,2,2:2:0:0:
220,226,65641,1,2,2:2:0:0:
134,369,65770,2,0,P|171:360|202:353,1,59.9999981689454,8|0,3:2|0:0,0:0:0:0:
220,226,66029,2,0,P|249:232|278:239,1,59.9999981689454,2|0,2:2|0:0,0:0:0:0:
319,340,66287,5,2,3:2:0:0:
442,204,66417,1,0,0:0:0:0:
414,351,66546,1,2,2:2:0:0:
343,204,66675,1,0,0:0:0:0:
500,324,66805,2,0,P|504:275|511:233,1,59.9999981689454,10|0,3:2|0:0,0:0:0:0:
406,144,67063,2,0,P|423:185|427:216,1,59.9999981689454,2|2,2:2|2:2,0:0:0:0:
445,38,67322,5,0,3:2:0:0:
512,160,67451,1,2,2:2:0:0:
362,67,67581,2,0,P|337:79|304:106,1,59.9999981689454,2|0,2:2|0:0,0:0:0:0:
244,184,67839,2,0,P|205:161|179:141,1,59.9999981689454,10|0,3:2|0:0,0:0:0:0:
142,23,68098,1,2,2:2:0:0:
226,82,68227,1,0,0:0:0:0:
76,126,68356,6,0,P|60:184|42:260,1,119.999996337891,6|2,3:2|2:2,0:0:0:0:
83,359,68744,1,0,0:0:0:0:
147,271,68874,2,0,P|140:232|138:198,1,59.9999981689454,10|0,3:2|0:0,0:0:0:0:
76,126,69132,2,0,P|115:119|149:117,1,59.9999981689454,2|0,2:2|0:0,0:0:0:0:
228,175,69391,2,0,B|288:190|288:190|342:152,1,119.999996337891,2|0,3:2|0:0,0:0:0:0:
418,96,69779,1,0,0:0:0:0:
441,228,69908,2,0,P|405:254|383:277,1,59.9999981689454,10|0,3:2|0:0,0:0:0:0:
326,357,70167,2,0,P|303:336|278:320,1,59.9999981689454
136,256,70425,5,6,3:2:0:0:
265,215,70555,1,0,0:0:0:0:
198,332,70684,1,2,2:2:0:0:
190,176,70813,1,2,2:2:0:0:
116,279,70943,2,0,P|83:250|68:233,1,50,10|0,3:2|0:0,0:0:0:0:
152,142,71201,5,2,2:2:0:0:
152,142,71331,2,0,P|185:171|200:188,1,50,2|0,2:2|3:2,0:0:0:0:
249,253,71589,1,2,0:2:0:0:
313,176,71718,2,0,P|331:159|350:143,1,50,2|0,0:2|0:0,0:0:0:0:
440,109,71977,2,0,P|404:67|334:62,1,100,10|0,3:2|0:0,0:0:0:0:
350,143,72365,1,0,0:0:0:0:
346,240,72494,5,2,3:2:0:0:
467,176,72624,1,0,0:0:0:0:
407,291,72753,1,2,0:2:0:0:
366,170,72882,1,2,0:2:0:0:
472,260,73012,2,0,P|482:289|476:322,1,50,10|0,3:2|0:0,0:0:0:0:
360,332,73270,5,2,0:2:0:0:
360,332,73399,2,0,P|382:310|388:290,1,50,2|0,0:2|3:2,0:0:0:0:
294,223,73658,1,2,0:2:0:0:
219,300,73787,2,0,P|253:307|274:315,1,50,2|0,0:2|0:0,0:0:0:0:
132,346,74046,2,0,P|126:289|107:237,1,100,10|0,3:2|0:0,0:0:0:0:
29,178,74434,1,0,0:0:0:0:
120,80,74563,6,0,B|160:69|160:69|181:77|181:77|237:68,1,100,2|2,3:2|0:2,0:0:0:0:
323,43,74951,1,0,0:0:0:0:
318,154,75081,2,0,B|270:138|270:138|215:156,1,100,10|0,3:2|0:0,0:0:0:0:
128,211,75468,1,0,0:0:0:0:
232,284,75598,2,0,P|234:241|234:214,1,50,2|0,3:2|0:0,0:0:0:0:
318,154,75856,2,0,P|315:184|318:203,1,50,0|2,0:0|0:2,0:0:0:0:
445,228,76115,2,0,P|409:237|388:248,1,50,8|0,3:2|0:0,0:0:0:0:
364,332,76374,2,0,P|400:341|421:352,1,50,2|0,0:2|0:0,0:0:0:0:
285,355,76632,6,0,P|237:333|185:312,1,100,2|2,3:2|0:2,0:0:0:0:
78,319,77020,1,0,0:0:0:0:
141,205,77149,2,0,P|189:227|241:248,1,100,10|2,3:2|0:2,0:0:0:0:
349,199,77537,1,0,0:0:0:0:
213,86,77667,6,0,P|199:119|204:149,1,50,2|0,3:2|0:0,0:0:0:0:
232,244,77925,1,2,0:0:0:0:
278,131,78055,5,0,0:0:0:0:
307,275,78184,2,0,P|305:299|293:321,1,50,10|0,3:2|0:0,0:0:0:0:
431,360,78443,2,0,P|417:327|422:297,1,50,2|0,0:0|0:0,0:0:0:0:
362,103,78701,5,6,3:2:0:0:
408,231,78831,1,2,0:2:0:0:
439,113,78960,1,2,0:2:0:0:
331,184,79089,1,2,0:2:0:0:
490,207,79218,2,0,P|447:197|404:258,1,100,10|2,3:2|0:2,0:0:0:0:
456,173,79606,6,0,P|419:175|402:192,1,50,2|0,0:2|3:2,0:0:0:0:
326,243,79865,1,2,0:2:0:0:
326,243,79994,2,0,P|289:238|271:227,1,50,2|0,0:2|0:0,0:0:0:0:
173,198,80253,2,0,P|187:245|204:303,1,100,10|2,3:2|0:0,0:0:0:0:
201,293,80641,1,0,0:0:0:0:
84,204,80770,5,2,3:2:0:0:
124,306,80899,1,2,0:2:0:0:
173,198,81029,1,2,0:2:0:0:
53,285,81158,1,2,0:2:0:0:
87,168,81287,2,0,P|57:163|31:169,1,50,10|0,3:2|0:0,0:0:0:0:
137,69,81546,5,2,0:2:0:0:
137,69,81675,2,0,P|164:82|194:85,1,50,2|0,0:2|3:2,0:0:0:0:
287,74,81934,1,2,0:2:0:0:
384,110,82064,2,0,P|389:134|385:159,1,50,2|0,0:2|0:0,0:0:0:0:
308,245,82322,2,0,P|364:253|372:305,1,100,10|2,3:2|0:0,0:0:0:0:
376,288,82710,1,0,0:0:0:0:
167,349,82839,6,0,P|182:297|195:245,1,100,2|2,3:2|0:2,0:0:0:0:
62,249,83227,1,0,0:0:0:0:
130,165,83356,2,0,P|176:172|240:175,1,100,10|0,3:2|0:0,0:0:0:0:
312,90,83744,1,0,0:0:0:0:
207,77,83874,2,0,P|218:132|232:187,1,100,2|0,3:2|0:0,0:0:0:0:
331,231,84262,1,2,0:2:0:0:
195,331,84391,2,0,P|178:274|161:226,1,100,8|2,3:2|0:2,0:0:0:0:
87,151,84779,1,0,0:0:0:0:
250,129,84908,6,0,P|232:163|223:187,1,50,2|0,3:2|0:0,0:0:0:0:
261,278,85167,1,2,0:2:0:0:
315,191,85296,1,0,0:0:0:0:
161,231,85425,2,0,P|143:197|134:173,1,50,10|0,3:2|0:0,0:0:0:0:
180,52,85684,1,2,0:2:0:0:
227,173,85813,1,0,0:0:0:0:
279,35,85943,6,0,P|237:41|168:55,1,100,2|0,3:2|0:0,0:0:0:0:
103,165,86331,1,0,0:0:0:0:
180,52,86460,2,0,P|219:76|205:141,1,100,10|2,3:2|0:0,0:0:0:0:
157,239,86848,1,0,0:0:0:0:
272,192,86977,5,6,3:2:0:0:
256,192,87106,12,0,88529,0:0:0:0:
