osu file format v14

[General]
AudioFilename: audio.mp3
AudioLeadIn: 0
PreviewTime: 51287
Countdown: 0
SampleSet: Soft
StackLeniency: 0.4
Mode: 0
LetterboxInBreaks: 0
WidescreenStoryboard: 1

[Editor]
DistanceSpacing: 1.2
BeatDivisor: 4
GridSize: 4
TimelineZoom: 1

[Metadata]
Title:AHAREN HEART (TV Size)
TitleUnicode:AHAREN HEART (TV Size)
Artist:Aharen Reina (CV: Inori Minase)
ArtistUnicode:阿波連れいな (CV: 水瀬いのり)
Creator:Andrea
Version:Normal
Source:阿波連さんははかれない
Tags:osuplayer111 Sekaii Sekai Sekai-nyan sanairrt - Ex - -_Ex_- Moecho midorijeon anime japanese jpop j-pop pop episode 3 ep3 ending aharen-san wa hakarenai female vocals vocalist
BeatmapID:3572459
BeatmapSetID:1746540

[Difficulty]
HPDrainRate:3
CircleSize:3
OverallDifficulty:3
ApproachRate:5
SliderMultiplier:1.4
SliderTickRate:1

[Events]
//Background and Video events
0,0,"Aharenqt.jpg",0,0
Video,-200,"Video.mp4"
//Break Periods
//Storyboard Layer 0 (Background)
//Storyboard Layer 1 (Fail)
//Storyboard Layer 2 (Pass)
//Storyboard Layer 3 (Foreground)
//Storyboard Layer 4 (Overlay)
//Storyboard Sound Samples

[TimingPoints]
81,517.241379310345,4,2,1,50,1,0
81,-100,4,2,1,50,0,0
8356,-100,4,2,1,75,0,0
16374,-100,4,2,2,75,0,0
16632,-100,4,2,1,65,0,0
24908,-100,4,2,1,70,0,0
51805,-100,4,2,1,80,0,1
70425,-100,4,2,1,70,0,0
86977,-100,4,2,1,60,0,0
88529,-100,4,2,1,5,0,0

[Colours]
Combo1 : 255,255,128
Combo2 : 64,159,255
Combo3 : 255,128,191
SliderBorder : 200,200,200
SliderTrackOverride : 25,34,58

[HitObjects]
56,292,81,6,0,P|112:280|140:240,1,105,2|0,0:0|0:0,0:0:0:0:
152,204,598,1,2,0:0:0:0:
212,96,986,2,0,L|320:116,1,105,2|2,0:0|0:0,0:0:0:0:
400,128,1632,1,2,0:0:0:0:
364,292,2149,6,0,P|316:264|268:272,1,105,2|0,0:0|0:0,0:0:0:0:
236,300,2667,1,2,0:0:0:0:
164,196,3055,2,0,L|92:100,1,105,2|2,0:0|0:0,0:0:0:0:
48,48,3701,1,2,0:0:0:0:
216,48,4218,5,2,0:2:0:0:
264,116,4477,1,2,0:0:0:0:
336,72,4736,2,0,P|380:92|424:184,1,140,2|2,0:0|0:0,0:0:0:0:
380,288,5641,1,2,0:0:0:0:
284,208,6029,1,2,0:0:0:0:
256,288,6287,6,0,L|188:312,1,70,2|2,0:0|0:0,0:0:0:0:
164,232,6805,2,0,L|96:256,1,70,2|2,0:0|0:2,0:0:0:0:
32,204,7322,1,2,0:0:0:0:
72,84,7710,1,0,3:2:0:0:
72,84,7839,2,0,P|116:48|164:48,1,105,10|8,3:2|0:2,0:0:0:0:
200,60,8356,6,0,L|264:24,1,70,6|2,3:2|0:2,0:0:0:0:
340,60,8874,2,0,P|364:112|444:132,1,140,10|0,3:2|3:2,0:0:0:0:
480,128,9520,1,2,0:2:0:0:
480,128,9649,1,2,0:2:0:0:
468,212,9908,2,0,L|456:288,1,70,10|2,3:2|0:2,0:0:0:0:
384,320,10425,5,0,3:2:0:0:
252,212,10943,1,10,3:2:0:0:
384,112,11460,2,0,L|396:72,2,35,0|2|10,3:2|0:2|0:2,0:0:0:0:
300,96,11977,2,0,L|220:76,1,70,10|2,3:2|0:2,0:0:0:0:
152,56,12494,2,0,P|112:80|96:168,1,140,0|10,3:2|3:2,0:0:0:0:
148,328,13529,6,0,L|112:340,2,35,0|2|2,3:2|0:2|0:2,0:0:0:0:
228,308,14046,1,10,3:2:0:0:
300,348,14305,1,2,0:2:0:0:
344,276,14563,6,0,P|384:288|416:280,1,70,10|10,3:2|2:2,0:0:0:0:
452,268,14951,1,10,2:2:0:0:
428,188,15210,1,10,2:2:0:0:
392,112,15468,2,0,P|363:92|329:82,1,70,10|8,2:2|2:3,0:0:0:0:
288,68,15856,1,0,0:0:0:0:
216,108,16115,1,6,3:3:0:0:
76,204,16632,6,0,P|112:216|136:248,1,70,6|2,3:2|2:2,0:0:0:0:
176,312,17149,1,2,3:2:0:0:
252,280,17408,1,2,2:2:0:0:
252,280,17537,2,0,B|297:302|342:280|342:280|424:294,1,175,2|0,2:2|3:2,0:0:0:0:
452,128,18701,5,2,3:2:0:0:
380,172,18960,1,2,2:2:0:0:
328,108,19218,1,2,3:2:0:0:
264,160,19477,1,2,2:2:0:0:
264,160,19606,2,0,P|196:112|96:128,1,175,2|0,2:2|3:2,0:0:0:0:
92,204,20512,1,2,2:2:0:0:
80,288,20770,6,0,L|160:300,1,70,2|2,3:2|2:2,0:0:0:0:
232,304,21287,1,2,3:2:0:0:
284,236,21546,1,2,2:2:0:0:
284,236,21675,2,0,P|324:176|296:80,1,175,2|0,2:2|3:2,0:0:0:0:
360,24,22581,1,2,2:2:0:0:
428,72,22839,6,0,L|492:120,1,70,2|2,3:2|2:2,0:0:0:0:
460,196,23356,1,2,3:2:0:0:
440,276,23615,1,2,2:2:0:0:
440,276,23744,2,0,L|328:312,1,105,2|2,2:2|2:3,0:0:0:0:
260,332,24391,1,2,3:2:0:0:
184,292,24649,1,2,2:2:0:0:
108,252,24908,6,0,P|56:200|48:128,1,140,6|8,3:2|3:2,0:0:0:0:
92,64,25684,1,2,2:2:0:0:
168,104,25943,1,2,3:2:0:0:
220,40,26201,2,0,L|268:28,1,35,2|2,0:0|0:0,0:0:0:0:
344,120,26718,5,2,0:2:0:0:
320,200,26977,2,0,L|296:276,1,70,2|2,3:2|0:2,0:0:0:0:
380,292,27494,2,0,L|404:216,1,70,10|2,3:2|0:2,0:0:0:0:
428,144,28012,1,2,3:2:0:0:
312,20,28529,1,10,3:2:0:0:
176,116,29046,6,0,B|128:124|108:160|108:160|52:152,1,140,6|8,3:2|3:2,0:0:0:0:
20,228,29822,1,2,0:2:0:0:
72,296,30081,1,2,3:2:0:0:
148,260,30339,2,0,L|188:284,1,35,2|2,0:0|0:0,0:0:0:0:
292,336,30856,5,2,0:2:0:0:
368,296,31115,2,0,L|440:280,1,70,2|2,3:2|0:2,0:0:0:0:
440,196,31632,2,0,L|368:212,1,70,10|2,3:2|0:2,0:0:0:0:
288,228,32149,1,2,3:2:0:0:
180,100,32667,1,10,3:2:0:0:
336,36,33184,6,0,P|376:32|408:48,1,70,2|2,3:2|0:2,0:0:0:0:
452,112,33701,2,0,L|444:152,1,35,10|2,3:2|0:2,0:0:0:0:
384,204,34089,1,2,0:2:0:0:
332,268,34348,2,0,L|324:308,1,35,2|2,0:2|0:2,0:0:0:0:
260,356,34736,2,0,P|224:352|192:328,1,70,10|2,3:2|0:2,0:0:0:0:
228,256,35253,6,0,P|256:220|256:128,1,140,6|10,3:2|3:2,0:0:0:0:
208,60,36029,1,2,2:2:0:0:
132,92,36287,2,0,L|104:156,1,70,2|2,3:2|2:2,0:0:0:0:
68,232,36805,1,10,3:2:0:0:
112,304,37063,1,2,2:2:0:0:
184,260,37322,6,0,L|256:284,1,70,2|2,3:2|2:2,0:0:0:0:
332,308,37839,2,0,L|372:320,1,35,10|2,3:2|0:0,0:0:0:0:
436,272,38227,1,2,0:2:0:0:
436,272,38356,2,0,P|472:220|476:144,1,140,0|8,3:2|3:2,0:0:0:0:
432,76,39132,1,0,0:0:0:0:
356,116,39391,6,0,P|300:88|224:100,1,140,2|10,3:2|3:2,0:0:0:0:
180,172,40167,1,2,2:2:0:0:
100,148,40425,2,0,L|72:80,1,70,2|2,3:2|2:2,0:0:0:0:
4,132,40943,2,0,L|32:200,1,70,10|2,3:2|2:2,0:0:0:0:
68,272,41460,6,0,P|120:264|164:296,1,105,2|2,3:2|0:2,0:0:0:0:
220,352,42106,2,0,L|260:340,1,35,2|2,0:2|2:2,0:0:0:0:
336,320,42494,2,0,B|376:304|376:304|440:332,1,105,2|2,3:2|0:2,0:0:0:0:
488,216,43270,2,0,L|468:176,1,35,8|8,2:2|2:2,0:0:0:0:
456,144,43529,6,0,P|408:164|332:128,1,140,6|10,3:2|3:2,0:0:0:0:
300,52,44305,1,2,2:2:0:0:
232,100,44563,2,0,L|160:84,1,70,2|2,3:2|2:2,0:0:0:0:
116,152,45081,2,0,L|44:136,1,70,10|2,3:2|2:2,0:0:0:0:
28,220,45598,6,0,L|100:236,1,70,2|2,3:2|2:2,0:0:0:0:
180,252,46115,2,0,L|208:288,1,35,10|2,3:2|0:2,0:0:0:0:
252,344,46503,1,2,0:2:0:0:
324,300,46762,2,0,L|351:278,1,35,2|2,0:0|2:2,0:0:0:0:
412,220,47149,2,0,P|440:192|452:144,1,70,8|2,3:2|2:2,0:0:0:0:
420,84,47667,6,0,L|308:64,2,105,6|2|2,3:2|0:2|0:2,0:0:0:0:
472,148,48701,2,0,L|453:251,2,105,6|2|2,3:2|0:2|0:2,0:0:0:0:
420,84,49736,5,6,3:2:0:0:
316,156,50124,1,2,3:2:0:0:
236,60,50512,1,2,3:2:0:0:
224,144,50770,2,0,L|212:216,1,70,2|2,3:2|3:2,0:0:0:0:
196,296,51287,1,14,2:2:0:0:
112,276,51546,2,0,L|68:268,1,35,10|2,2:2|0:0,0:0:0:0:
44,244,51805,6,0,P|20:200|24:144,1,105,6|2,3:2|2:2,0:0:0:0:
48,112,52322,2,0,P|92:88|148:92,1,105,10|2,3:2|0:0,0:0:0:0:
184,112,52839,1,2,3:2:0:0:
244,172,53098,1,2,2:2:0:0:
300,112,53356,2,0,L|380:104,1,70,10|2,3:2|2:2,0:0:0:0:
444,148,53874,6,0,L|452:228,1,70,0|2,3:2|2:2,0:0:0:0:
396,284,54391,2,0,L|316:292,1,70,10|2,3:2|2:2,0:0:0:0:
244,296,54908,2,0,L|188:300,2,35,2|2|2,3:2|0:0|0:0,0:0:0:0:
260,212,55425,1,10,3:2:0:0:
272,128,55684,1,2,0:0:0:0:
284,44,55943,6,0,B|232:24|232:24|180:40,1,105,2|2,3:2|2:2,0:0:0:0:
148,60,56460,2,0,B|128:112|128:112|144:164,1,105,10|2,3:2|2:2,0:0:0:0:
156,200,56977,2,0,L|88:216,1,70,2|2,3:2|2:2,0:0:0:0:
28,276,57494,2,0,L|44:344,1,70,10|2,3:2|2:2,0:0:0:0:
124,368,58012,6,0,L|192:352,1,70,2|2,3:2|2:2,0:0:0:0:
248,288,58529,1,10,3:2:0:0:
324,324,58787,1,2,2:2:0:0:
388,268,59046,1,0,3:2:0:0:
464,304,59305,2,0,L|480:260,2,35,2|2|10,0:0|0:0|3:2,0:0:0:0:
400,148,60081,6,0,P|360:152|304:112,1,105,6|2,3:2|2:2,0:0:0:0:
272,92,60598,2,0,L|188:172,1,105,10|2,3:2|2:2,0:0:0:0:
164,192,61115,2,0,P|128:192|96:204,1,70,2|2,3:2|2:2,0:0:0:0:
64,280,61632,1,10,3:2:0:0:
124,340,61891,6,0,P|192:344|256:304,1,140,2|2,2:2|2:2,0:0:0:0:
312,248,62667,1,10,3:2:0:0:
252,188,62925,2,0,P|192:152|123:156,1,140,2|2,2:2|2:2,0:0:0:0:
60,104,63701,2,0,L|88:36,1,70,10|0,3:2|0:0,0:0:0:0:
168,20,64218,6,0,P|224:24|284:84,1,140,2|8,3:2|3:2,0:0:0:0:
344,140,64994,1,2,2:2:0:0:
400,204,65253,1,2,3:2:0:0:
460,264,65512,2,0,L|496:236,2,35,2|2|8,2:2|2:2|3:2,0:0:0:0:
412,336,66029,1,2,2:2:0:0:
332,312,66287,6,0,L|252:300,1,70,2|2,3:2|2:2,0:0:0:0:
180,288,66805,1,10,3:2:0:0:
120,232,67063,2,0,L|128:196,1,35,2|2,2:2|2:2,0:0:0:0:
56,152,67451,2,0,L|64:116,1,35,2|2,2:2|2:2,0:0:0:0:
84,36,67839,1,10,3:2:0:0:
168,48,68098,1,2,2:2:0:0:
252,60,68356,6,0,P|288:64|316:88,1,70,6|2,3:2|2:2,0:0:0:0:
304,168,68874,2,0,L|280:240,1,70,10|2,3:2|2:2,0:0:0:0:
328,304,69391,2,0,P|384:324|464:288,1,140,2|10,3:2|3:2,0:0:0:0:
472,128,70425,6,0,L|392:120,1,70,6|2,3:2|2:2,0:0:0:0:
332,72,70943,1,10,3:2:0:0:
256,108,71201,2,0,L|208:104,1,35,2|2,2:2|2:2,0:0:0:0:
156,160,71589,2,0,L|108:156,1,35,2|2,0:2|0:2,0:0:0:0:
52,204,71977,1,10,3:2:0:0:
120,356,72494,6,0,P|152:328|160:300,1,70,2|2,3:2|0:2,0:0:0:0:
160,220,73012,1,10,3:2:0:0:
144,136,73270,2,0,L|164:108,1,35,2|2,0:2|0:2,0:0:0:0:
248,108,73658,2,0,L|268:80,1,35,2|2,0:2|0:2,0:0:0:0:
316,12,74046,1,10,3:2:0:0:
464,92,74563,6,0,L|452:160,1,70,2|2,3:2|0:2,0:0:0:0:
436,244,75081,2,0,P|388:232|304:260,1,140,10|2,3:2|3:2,0:0:0:0:
212,344,75986,2,0,L|96:328,1,105,2|2,0:2|0:2,0:0:0:0:
52,264,76632,6,0,L|64:188,1,70,2|2,3:2|0:2,0:0:0:0:
140,160,77149,2,0,L|152:84,1,70,10|2,3:2|0:2,0:0:0:0:
216,36,77667,5,2,3:2:0:0:
356,128,78184,1,10,3:2:0:0:
236,244,78701,6,0,P|260:272|292:284,1,70,6|2,3:2|0:2,0:0:0:0:
368,312,79218,1,10,3:2:0:0:
448,340,79477,2,0,L|468:300,1,35,2|2,0:2|0:2,0:0:0:0:
444,228,79865,2,0,L|464:188,1,35,2|2,0:2|0:2,0:0:0:0:
492,120,80253,1,10,3:2:0:0:
344,40,80770,6,0,P|304:32|264:40,1,70,2|2,3:2|0:2,0:0:0:0:
248,116,81287,1,10,3:2:0:0:
232,200,81546,2,0,L|192:196,1,35,2|2,0:2|0:2,0:0:0:0:
140,260,81934,2,0,L|100:256,1,35,2|2,0:2|0:2,0:0:0:0:
20,248,82322,2,0,P|16:208|24:176,1,70,10|2,3:2|0:0,0:0:0:0:
76,112,82839,5,2,3:2:0:0:
152,72,83098,1,2,0:2:0:0:
204,136,83356,2,0,P|272:116|336:152,1,140,10|2,3:2|3:2,0:0:0:0:
388,256,84262,2,0,L|484:180,1,105,2|2,0:2|0:2,0:0:0:0:
448,108,84908,6,0,L|392:48,1,70,2|2,3:2|0:2,0:0:0:0:
316,56,85425,2,0,L|264:103,1,70,10|2,3:2|0:2,0:0:0:0:
200,156,85943,1,2,3:2:0:0:
336,256,86460,1,10,3:2:0:0:
196,348,86977,5,6,3:2:0:0:
256,192,87106,12,0,88529,0:0:0:0:
