osu file format v14

[General]
AudioFilename: audio.mp3
AudioLeadIn: 0
PreviewTime: 51287
Countdown: 0
SampleSet: Soft
StackLeniency: 0.4
Mode: 0
LetterboxInBreaks: 0
WidescreenStoryboard: 1

[Editor]
DistanceSpacing: 1.3
BeatDivisor: 4
GridSize: 4
TimelineZoom: 1

[Metadata]
Title:AHAREN HEART (TV Size)
TitleUnicode:AHAREN HEART (TV Size)
Artist:Aharen Reina (CV: Inori Minase)
ArtistUnicode:阿波連れいな (CV: 水瀬いのり)
Creator:Andrea
Version:Ex's Hard
Source:阿波連さんははかれない
Tags:osuplayer111 Sekaii Sekai Sekai-nyan sanairrt - Ex - -_Ex_- Moecho midorijeon anime japanese jpop j-pop pop episode 3 ep3 ending aharen-san wa hakarenai female vocals vocalist
BeatmapID:3572457
BeatmapSetID:1746540

[Difficulty]
HPDrainRate:5
CircleSize:4.5
OverallDifficulty:6
ApproachRate:7.5
SliderMultiplier:1.6
SliderTickRate:1

[Events]
//Background and Video events
0,0,"Aharenqt.jpg",0,0
Video,-200,"Video.mp4"
//Break Periods
//Storyboard Layer 0 (Background)
//Storyboard Layer 1 (Fail)
//Storyboard Layer 2 (Pass)
//Storyboard Layer 3 (Foreground)
//Storyboard Layer 4 (Overlay)
//Storyboard Sound Samples

[TimingPoints]
81,517.241379310345,4,2,1,50,1,0
81,-125,4,2,1,50,0,0
8356,-111.111111111111,4,2,1,75,0,0
16374,-100,4,2,2,75,0,0
16632,-111.111111111111,4,2,1,65,0,0
24908,-111.111111111111,4,2,1,70,0,0
51805,-100,4,2,1,80,0,1
70425,-111.111111111111,4,2,1,70,0,0
86977,-166.666666666667,4,2,1,60,0,0
88529,-111.111111111111,4,2,1,5,0,0

[Colours]
Combo1 : 255,255,128
Combo2 : 64,159,255
Combo3 : 255,128,191
SliderBorder : 200,200,200
SliderTrackOverride : 25,34,58

[HitObjects]
80,329,81,6,0,P|90:369|93:388,2,32,2|2|2,0:0|0:2|0:0,0:0:0:0:
38,242,598,2,0,P|32:197|32:154,1,64,2|2,0:0|0:2,0:0:0:0:
55,159,986,2,0,P|61:114|61:71,1,64,2|2,0:0|0:2,0:0:0:0:
46,68,1374,1,2,0:0:0:0:
113,13,1632,2,0,P|169:23|229:32,1,96,2|0,0:0|0:0,0:0:0:0:
232,46,2149,6,0,L|277:33,2,32,2|2|2,0:0|0:2|0:0,0:0:0:0:
173,112,2667,2,0,P|183:165|187:193,1,64,2|2,0:0|0:2,0:0:0:0:
212,185,3055,2,0,P|202:238|198:266,1,64,2|2,0:0|0:2,0:0:0:0:
196,278,3443,1,2,0:0:0:0:
255,349,3701,2,0,P|310:357|370:363,1,96,2|0,0:0|0:0,0:0:0:0:
381,367,4218,5,2,0:2:0:0:
455,315,4477,1,2,0:0:0:0:
455,315,4736,2,0,P|447:277|443:247,1,64,2|0,0:0|0:0,0:0:0:0:
402,171,5253,2,0,P|447:160|505:153,2,96,2|2|2,0:0|0:0|0:0,0:0:0:0:
316,133,6287,6,0,P|313:90|312:57,1,64,2|2,0:0|0:0,0:0:0:0:
215,63,6805,2,0,P|212:20|211:-13,1,64,2|2,0:0|0:2,0:0:0:0:
143,138,7322,1,2,0:0:0:0:
259,222,7710,1,0,3:2:0:0:
259,222,7839,2,0,P|302:225|335:226,1,64,10|0,3:2|0:0,0:0:0:0:
190,301,8356,6,0,P|127:265|31:278,2,143.999995605469,6|10|0,3:2|3:2|3:2,0:0:0:0:
277,358,9649,1,2,0:2:0:0:
339,278,9908,2,0,P|330:223|322:185,1,71.9999978027344,10|2,3:2|0:2,0:0:0:0:
255,124,10425,5,0,3:2:0:0:
255,124,10684,2,0,P|246:179|238:217,1,71.9999978027344,2|10,0:2|3:2,0:0:0:0:
151,139,11201,1,0,0:0:0:0:
75,206,11460,1,0,3:2:0:0:
75,206,11589,1,2,0:2:0:0:
75,206,11718,2,0,L|29:195,2,35.9999989013672,10|2|10,0:2|2:2|3:2,0:0:0:0:
150,273,12236,1,2,0:2:0:0:
65,335,12494,5,0,3:2:0:0:
65,335,12753,1,2,0:2:0:0:
159,370,13012,2,0,P|226:377|253:380,1,71.9999978027344,10|0,3:2|0:0,0:0:0:0:
313,326,13529,1,0,3:2:0:0:
313,326,13658,1,2,0:2:0:0:
313,326,13787,2,0,P|306:259|303:232,2,71.9999978027344,2|10|2,0:2|3:2|0:2,0:0:0:0:
404,344,14563,6,0,L|400:387,2,35.9999989013672,10|10|10,2:2|2:2|2:2,0:0:0:0:
422,318,14951,2,0,P|469:307|509:303,2,71.9999978027344,10|10|10,2:2|2:2|2:2,0:0:0:0:
327,237,15727,1,8,2:3:0:0:
402,146,15986,1,8,2:2:0:0:
402,146,16115,2,0,P|413:109|424:71,1,71.9999978027344,6|8,3:3|3:3,0:0:0:0:
316,34,16632,6,0,B|289:87|322:139|322:139|307:166|304:200,1,143.999995605469,6|2,3:2|3:2,0:0:0:0:
276,255,17408,1,2,2:2:0:0:
276,255,17537,2,0,P|242:264|194:274,1,71.9999978027344,2|0,2:2|0:0,0:0:0:0:
104,323,18055,1,0,0:0:0:0:
104,323,18184,2,0,P|70:332|22:342,1,71.9999978027344,0|0,3:2|0:0,0:0:0:0:
10,238,18701,6,0,P|58:200|159:207,1,143.999995605469,2|2,3:2|3:2,0:0:0:0:
228,177,19477,1,2,2:2:0:0:
228,177,19606,2,0,P|220:137|209:93,1,71.9999978027344,2|0,2:2|0:0,0:0:0:0:
325,75,20124,1,0,0:0:0:0:
325,75,20253,2,0,P|333:35|344:-9,1,71.9999978027344,0|2,3:2|2:2,0:0:0:0:
418,112,20770,6,0,P|460:101|506:94,2,71.9999978027344,2|2|2,3:2|2:2|3:2,0:0:0:0:
339,160,21546,1,2,2:2:0:0:
339,160,21675,2,0,P|351:196|362:242,1,71.9999978027344,2|0,2:2|0:0,0:0:0:0:
441,317,22193,1,0,0:0:0:0:
441,317,22322,2,0,P|430:353|412:397,1,71.9999978027344,0|2,3:2|2:2,0:0:0:0:
327,260,22839,6,0,B|286:261|262:274|262:274|227:269|169:284,1,143.999995605469,2|2,3:2|3:2,0:0:0:0:
58,340,23615,1,2,2:2:0:0:
58,340,23744,1,2,2:2:0:0:
79,208,24003,1,0,0:0:0:0:
79,208,24132,2,0,P|36:195|-1:184,2,71.9999978027344,2|2|2,2:3|3:2|2:2,0:0:0:0:
187,194,24908,6,0,B|248:171|265:189|331:167,1,143.999995605469,6|8,3:2|3:2,0:0:0:0:
356,65,25684,2,0,P|297:33|205:61,1,143.999995605469,2|0,2:2|0:0,0:0:0:0:
213,82,26331,2,0,P|156:68|122:59,1,71.9999978027344,2|0,0:0|0:0,0:0:0:0:
114,59,26718,1,2,0:2:0:0:
35,1,26977,6,0,B|4:68|42:120|42:120|33:141,1,143.999995605469,2|10,3:2|3:2,0:0:0:0:
117,203,27753,1,2,0:2:0:0:
62,308,28012,2,0,P|32:320|-11:335,1,71.9999978027344,2|0,3:2|0:0,0:0:0:0:
160,354,28529,2,0,P|190:366|233:381,1,71.9999978027344,10|0,3:2|0:0,0:0:0:0:
335,369,29046,6,0,P|361:324|338:222,1,143.999995605469,6|8,3:2|3:2,0:0:0:0:
247,193,29822,2,0,P|221:148|244:46,1,143.999995605469,2|0,0:2|0:0,0:0:0:0:
261,41,30468,2,0,P|319:51|341:56,1,71.9999978027344,2|0,0:0|0:0,0:0:0:0:
353,35,30856,1,2,0:2:0:0:
435,116,31115,6,0,P|493:106|515:101,1,71.9999978027344,2|2,3:2|0:2,0:0:0:0:
373,220,31632,2,0,P|357:163|351:141,1,71.9999978027344,10|2,3:2|0:2,0:0:0:0:
440,297,32149,2,0,P|498:307|520:312,1,71.9999978027344,2|0,3:2|0:0,0:0:0:0:
356,364,32667,2,0,P|298:374|276:379,1,71.9999978027344,10|0,3:2|0:0,0:0:0:0:
187,326,33184,5,2,3:2:0:0:
262,251,33443,2,0,P|271:196|275:159,1,71.9999978027344,2|10,0:2|3:2,0:0:0:0:
256,165,33831,2,0,P|247:110|243:73,1,71.9999978027344,2|2,0:2|0:2,0:0:0:0:
261,68,34218,1,0,3:2:0:0:
173,17,34477,2,0,L|119:7,1,35.9999989013672,2|2,0:2|0:2,0:0:0:0:
104,14,34736,1,10,3:2:0:0:
25,87,34994,1,2,0:2:0:0:
90,167,35253,6,0,P|110:211|121:315,1,143.999995605469,6|10,3:2|3:2,0:0:0:0:
29,349,36029,1,2,2:2:0:0:
0,243,36287,2,0,P|48:252|86:261,1,71.9999978027344,2|2,3:2|2:2,0:0:0:0:
160,323,36805,2,0,P|208:332|246:341,1,71.9999978027344,10|2,3:2|2:2,0:0:0:0:
333,375,37322,6,0,P|384:382|494:332,1,143.999995605469,2|10,3:2|3:2,0:0:0:0:
490,332,37968,2,0,P|505:283|511:239,1,71.9999978027344,2|2,0:0|0:2,0:0:0:0:
489,237,38356,1,0,3:2:0:0:
402,289,38615,1,0,0:0:0:0:
402,289,38874,2,0,P|364:302|323:319,1,71.9999978027344,8|0,3:2|0:0,0:0:0:0:
235,365,39391,6,0,B|204:298|242:246|242:246|233:225,1,143.999995605469,2|10,3:2|3:2,0:0:0:0:
168,152,40167,1,2,2:2:0:0:
268,109,40425,2,0,P|280:56|288:19,1,71.9999978027344,2|2,3:2|2:2,0:0:0:0:
184,0,40943,2,0,P|176:35|168:70,1,71.9999978027344,10|2,3:2|2:2,0:0:0:0:
152,174,41460,5,2,3:2:0:0:
53,109,41848,1,2,0:2:0:0:
53,109,41977,2,0,L|58:155,1,35.9999989013672,8|2,3:2|0:2,0:0:0:0:
35,175,42236,2,0,L|30:221,1,35.9999989013672,2|0,2:2|0:0,0:0:0:0:
30,245,42494,1,2,3:2:0:0:
94,346,42882,1,2,0:2:0:0:
94,346,43012,1,8,3:2:0:0:
176,294,43270,2,0,L|227:301,1,35.9999989013672,8|8,2:2|2:2,0:0:0:0:
249,303,43529,6,0,P|269:245|268:140,1,143.999995605469,6|10,3:2|3:2,0:0:0:0:
216,77,44305,1,2,2:2:0:0:
321,71,44563,2,0,P|336:26|346:-8,1,71.9999978027344,2|2,3:2|2:2,0:0:0:0:
420,81,45081,2,0,P|435:36|445:2,1,71.9999978027344,10|2,3:2|2:2,0:0:0:0:
366,154,45598,6,0,P|376:188|388:222,1,71.9999978027344,2|2,3:2|2:2,0:0:0:0:
461,292,46115,1,10,3:2:0:0:
461,292,46244,2,0,P|450:326|438:360,1,71.9999978027344,2|2,0:2|0:2,0:0:0:0:
405,379,46632,1,0,3:2:0:0:
321,320,46891,1,2,2:2:0:0:
233,370,47149,2,0,P|183:374|128:374,1,71.9999978027344,8|2,3:2|2:2,0:0:0:0:
60,326,47667,5,6,3:2:0:0:
137,212,48055,1,2,0:2:0:0:
137,212,48184,1,8,3:2:0:0:
67,144,48443,1,2,0:2:0:0:
134,38,48701,5,6,3:2:0:0:
211,152,49089,1,2,0:2:0:0:
211,152,49218,1,8,3:2:0:0:
137,212,49477,1,2,0:2:0:0:
226,270,49736,6,0,B|251:345|251:345|239:395,2,107.999996704102,6|2|2,3:2|3:2|3:2,0:0:0:0:
137,212,50770,1,2,3:2:0:0:
211,152,51029,2,0,L|274:164,1,35.9999989013672,2|0,3:2|3:2,0:0:0:0:
275,182,51287,2,0,L|338:170,3,35.9999989013672,14|2|10|2,2:2|0:0|2:2|0:0,0:0:0:0:
346,175,51805,6,0,P|362:128|361:44,1,120,6|2,3:2|2:2,0:0:0:0:
350,30,52322,1,10,3:2:0:0:
227,125,52710,1,0,0:0:0:0:
227,125,52839,2,0,P|175:115|140:109,1,80,2|2,3:2|2:2,0:0:0:0:
51,6,53356,1,10,3:2:0:0:
1,127,53615,6,0,P|11:179|17:214,1,80,2|0,2:2|3:2,0:0:0:0:
93,306,54132,2,0,P|103:358|109:393,1,80,2|10,2:2|3:2,0:0:0:0:
198,278,54649,2,0,B|239:288|239:288|261:302|261:302|297:290|369:313,1,160,2|0,2:2|0:0,0:0:0:0:
436,236,55425,2,0,P|479:222|517:211,1,80,10|0,3:2|0:0,0:0:0:0:
346,184,55943,6,0,P|332:123|324:86,1,80,2|0,3:2|0:0,0:0:0:0:
348,84,56331,1,2,2:2:0:0:
348,84,56460,2,0,P|362:23|370:-14,1,80,10|0,3:2|0:0,0:0:0:0:
237,63,56977,1,2,3:2:0:0:
280,190,57236,2,0,P|341:204|378:212,1,80,2|10,2:2|3:2,0:0:0:0:
458,141,57753,1,2,2:2:0:0:
510,230,58012,5,2,3:2:0:0:
436,303,58270,1,2,2:2:0:0:
362,376,58529,1,10,3:2:0:0:
254,314,58787,2,0,B|186:288|167:308|94:284,1,160,2|2,2:2|0:0,0:0:0:0:
66,291,59434,1,2,0:0:0:0:
66,291,59563,2,0,P|24:234|19:161,1,120,10|0,3:2|0:0,0:0:0:0:
48,165,60081,6,0,P|90:108|95:35,1,120,6|2,3:2|2:2,0:0:0:0:
87,32,60598,1,10,3:2:0:0:
211,139,60986,1,2,2:2:0:0:
211,139,61115,2,0,P|224:189|230:239,1,80,2|2,3:2|2:2,0:0:0:0:
136,307,61632,1,10,3:2:0:0:
251,357,61891,6,0,P|312:373|341:380,1,80,2|0,2:2|3:2,0:0:0:0:
407,281,62408,2,0,P|468:265|497:258,1,80,2|10,2:2|3:2,0:0:0:0:
290,224,62925,2,0,P|254:151|266:63,1,160,2|2,2:2|2:2,0:0:0:0:
359,4,63701,2,0,P|410:12|482:25,1,120,10|0,3:2|0:0,0:0:0:0:
491,49,64218,6,0,B|525:123|483:180|483:180|493:204,1,160,2|8,3:2|3:2,0:0:0:0:
405,110,64994,1,2,2:2:0:0:
320,198,65253,2,0,P|276:212|226:224,1,80,2|2,3:2|2:2,0:0:0:0:
212,210,65641,1,2,2:2:0:0:
212,210,65770,2,0,P|168:196|118:184,1,80,8|2,3:2|2:2,0:0:0:0:
33,73,66287,6,0,B|72:116|72:116|41:158|61:226,1,160,2|10,3:2|3:2,0:0:0:0:
122,326,67063,1,2,2:2:0:0:
122,326,67193,2,0,P|73:345|-12:366,1,120,2|2,2:2|2:2,0:0:0:0:
138,210,67839,2,0,P|190:221|230:232,1,80,10|2,3:2|2:2,0:0:0:0:
320,161,68356,5,6,3:2:0:0:
320,161,68615,2,0,P|337:219|343:265,1,80,2|10,2:2|3:2,0:0:0:0:
245,334,69132,1,2,2:2:0:0:
363,365,69391,2,0,P|409:373|458:382,1,80,2|0,3:2|0:0,0:0:0:0:
245,334,69908,2,0,P|205:341|166:347,1,80,10|0,3:2|0:0,0:0:0:0:
69,302,70425,6,0,P|61:257|61:239,1,35.9999989013672,6|0,3:2|0:0,0:0:0:0:
36,229,70684,2,0,P|55:187|65:172,1,35.9999989013672,2|2,2:2|2:2,0:0:0:0:
79,168,70943,1,10,3:2:0:0:
46,84,71201,1,2,2:2:0:0:
46,84,71331,2,0,P|100:74|140:68,1,71.9999978027344,2|2,2:2|0:2,0:0:0:0:
147,65,71718,1,2,0:2:0:0:
233,137,71977,2,0,P|243:188|249:222,1,71.9999978027344,10|0,3:2|0:0,0:0:0:0:
226,308,72494,6,0,P|261:325|286:331,1,35.9999989013672,2|0,3:2|0:0,0:0:0:0:
291,351,72753,2,0,P|329:344|353:335,1,35.9999989013672,2|2,0:2|0:2,0:0:0:0:
354,328,73012,1,10,3:2:0:0:
442,273,73270,1,2,0:2:0:0:
442,273,73399,2,0,P|451:223|459:188,1,71.9999978027344,2|2,0:2|0:2,0:0:0:0:
465,173,73787,1,2,0:2:0:0:
399,90,74046,2,0,P|390:40|382:5,1,71.9999978027344,10|0,3:2|0:0,0:0:0:0:
294,146,74563,5,2,3:2:0:0:
211,83,74822,1,2,0:2:0:0:
211,83,75081,2,0,P|205:26|203:-9,1,71.9999978027344,10|0,3:2|0:0,0:0:0:0:
118,146,75598,2,0,P|61:140|26:138,1,71.9999978027344,2|0,3:2|0:0,0:0:0:0:
8,135,75986,2,0,P|-5:188|9:256,1,107.999996704102,2|2,0:2|0:2,0:0:0:0:
81,312,76632,6,0,P|89:360|92:392,1,71.9999978027344,2|2,3:2|0:2,0:0:0:0:
166,248,77149,2,0,P|217:233|249:224,1,71.9999978027344,10|2,3:2|0:2,0:0:0:0:
118,146,77667,6,0,P|67:131|35:122,1,71.9999978027344,2|0,3:2|0:0,0:0:0:0:
185,48,78184,2,0,P|236:33|268:24,1,71.9999978027344,10|0,3:2|0:0,0:0:0:0:
360,30,78701,6,0,L|372:70,1,35.9999989013672,6|2,3:2|0:2,0:0:0:0:
410,88,78960,2,0,L|422:128,1,35.9999989013672,2|2,0:2|0:2,0:0:0:0:
449,152,79218,1,10,3:2:0:0:
390,239,79477,1,2,0:2:0:0:
390,239,79606,2,0,P|343:231|313:225,1,71.9999978027344,2|2,0:2|0:2,0:0:0:0:
289,219,79994,1,2,0:2:0:0:
223,293,80253,2,0,P|234:343|239:371,1,71.9999978027344,10|0,3:2|0:0,0:0:0:0:
122,296,80770,6,0,L|84:288,1,35.9999989013672,2|2,3:2|0:2,0:0:0:0:
69,252,81029,2,0,L|31:244,1,35.9999989013672,2|2,0:2|0:2,0:0:0:0:
14,215,81287,1,10,3:2:0:0:
85,141,81546,1,2,0:2:0:0:
85,141,81675,2,0,P|76:88|71:54,1,71.9999978027344,2|2,0:2|0:2,0:0:0:0:
67,39,82063,1,2,0:2:0:0:
163,3,82322,2,0,P|220:16|245:22,1,71.9999978027344,10|2,3:2|0:0,0:0:0:0:
319,83,82839,5,2,3:2:0:0:
237,143,83098,1,2,0:2:0:0:
237,143,83356,2,0,P|227:187|222:231,1,71.9999978027344,10|0,3:2|0:0,0:0:0:0:
152,280,83874,2,0,P|176:318|203:352,1,71.9999978027344,2|0,3:2|0:0,0:0:0:0:
218,364,84262,2,0,P|280:359|341:348,1,107.999996704102,2|2,0:2|0:2,0:0:0:0:
393,267,84908,6,0,P|403:215|416:166,1,71.9999978027344,2|2,3:2|0:2,0:0:0:0:
316,134,85425,2,0,P|306:82|293:33,1,71.9999978027344,10|2,3:2|0:2,0:0:0:0:
225,217,85943,2,0,P|167:205|130:200,1,71.9999978027344,2|0,3:2|0:0,0:0:0:0:
298,319,86460,2,0,P|356:307|393:302,1,71.9999978027344,10|0,3:2|0:0,0:0:0:0:
485,277,86977,5,6,3:2:0:0:
256,192,87106,12,0,88529,0:0:0:0:
