osu file format v14

[General]
AudioFilename: audio.mp3
AudioLeadIn: 0
PreviewTime: 44302
Countdown: 0
SampleSet: Normal
StackLeniency: 0.7
Mode: 1
LetterboxInBreaks: 0
WidescreenStoryboard: 0

[Editor]
Bookmarks: 11199,22233,33268,44302,55337,66371,77406,88440,107751
DistanceSpacing: 1
BeatDivisor: 4
GridSize: 8
TimelineZoom: 1.5

[Metadata]
Title:Acid Mirage (Cut Ver.)
TitleUnicode:Acid Mirage (Cut Ver.)
Artist:Agressor Bunx
ArtistUnicode:Agressor Bunx
Creator:-Kazuha
Version:Apparition
Source:
Tags:electronic instrumental drum and & 'n' bass drum'n'bass d'n'b d&b dnb neurofunk ep featured artist fa mappers' guild mpg mg
BeatmapID:4466532
BeatmapSetID:2125034

[Difficulty]
HPDrainRate:6
CircleSize:5
OverallDifficulty:6
ApproachRate:5
SliderMultiplier:1.4
SliderTickRate:1

[Events]
//Background and Video events
0,0,"city_tornado.jpg",0,0
//Break Periods
//Storyboard Layer 0 (Background)
//Storyboard Layer 1 (Fail)
//Storyboard Layer 2 (Pass)
//Storyboard Layer 3 (Foreground)
//Storyboard Layer 4 (Overlay)
//Storyboard Sound Samples

[TimingPoints]
165,344.827586206897,4,1,0,80,1,0
165,-133.333333333333,4,1,0,80,0,0
332,-132.987826925395,4,1,0,80,0,0
504,-132.644106509587,4,1,0,80,0,0
677,-132.300175357084,4,1,0,80,0,0
1022,-131.61959860436,4,1,0,80,0,0
1194,-131.282905499866,4,1,0,80,0,0
1539,-130.612728052913,4,1,0,80,0,0
1711,-130.281160061988,4,1,0,80,0,0
1797,-130.116006544715,4,1,0,80,0,0
1884,-129.949358143917,4,1,0,80,0,0
2228,-129.294586360441,4,1,0,80,0,0
2401,-128.9677843524,4,1,0,80,0,0
2573,-128.644505006048,4,1,0,80,0,0
2918,-128.00092804733,4,1,0,80,0,0
3091,-127.680624864396,4,1,0,80,0,0
3263,-127.363758350527,4,1,0,80,0,0
3435,-127.048460685963,4,1,0,80,0,0
3780,-126.420714940422,4,1,0,80,0,0
3953,-126.108261782648,4,1,0,80,0,0
4297,-125.491534098179,4,1,0,80,0,0
4470,-125.183651473466,4,1,0,80,0,0
4556,-125.031161473088,4,1,0,80,0,0
4642,-124.879042526101,4,1,0,80,0,0
4987,-124.272500739114,4,1,0,80,0,0
5160,-123.970563451492,4,1,0,80,0,0
5332,-123.671822461332,4,1,0,80,0,0
5418,-123.5229912401,4,1,0,80,0,0
5677,-123.076923076923,4,1,0,80,0,0
5849,-122.782468390525,4,1,0,80,0,0
6022,-122.487719590375,4,1,0,80,0,0
6194,-122.19607408843,4,1,0,80,0,0
6539,-121.61525426064,4,1,0,80,0,0
6711,-121.327743797677,4,1,0,80,0,0
7056,-120.75512995896,4,1,0,80,0,0
7228,-120.471667212578,4,1,0,80,0,0
7315,-120.328794013005,4,1,0,80,0,0
7401,-120.187895704268,4,1,0,80,0,0
7746,-119.625965577992,4,1,0,80,0,0
7918,-119.347773180823,4,1,0,80,0,0
8091,-119.069265529102,4,1,0,80,0,0
8435,-118.519314169095,4,1,0,80,0,0
8608,-118.244655200129,4,1,0,80,0,0
8780,-117.972842938095,4,1,0,80,0,0
8953,-117.700708028321,4,1,0,80,0,0
9297,-117.163297540516,4,1,0,80,0,0
9470,-116.894880419525,4,1,0,80,0,0
9815,-116.363252877048,4,1,0,80,0,0
9987,-116.100011837277,4,1,0,80,0,0
10073,-115.968837447614,4,1,0,80,0,0
10160,-115.836439032072,4,1,0,80,0,0
10504,-115.315880232011,4,1,0,80,0,0
10677,-115.055851722475,4,1,0,80,0,0
10849,-114.798486208107,4,1,0,80,0,0
10935,-114.670234739344,4,1,0,80,0,0
11194,-114.285714285714,4,1,0,80,0,0
11366,-114.031778839943,4,1,0,80,0,0
11539,-113.777502803449,4,1,0,80,0,0
11711,-113.525818275352,4,1,0,80,0,0
11884,-113.273791191869,4,1,0,80,0,0
12056,-113.024327784891,4,1,0,80,0,0
12228,-112.775960752249,4,1,0,80,0,0
12573,-112.281058804075,4,1,0,80,0,0
12746,-112.034522147481,4,1,0,80,0,0
12832,-111.912368781378,4,1,0,80,0,0
12918,-111.790481497429,4,1,0,80,0,0
13091,-111.546092121059,4,1,0,80,0,0
13263,-111.304172393357,4,1,0,80,0,0
13435,-111.063299739554,4,1,0,80,0,0
13608,-110.822076030734,4,1,0,80,0,0
13953,-110.344137905171,4,1,0,80,0,0
14125,-110.107398121468,4,1,0,80,0,0
14297,-109.871671998108,4,1,0,80,0,0
14470,-109.635591325732,4,1,0,80,0,0
14642,-109.401878888531,4,1,0,80,0,0
14815,-109.167810633325,4,1,0,80,0,0
14987,-108.936086189236,4,1,0,80,0,0
15332,-108.474243020055,4,1,0,80,0,0
15504,-108.245450532202,4,1,0,80,0,0
15591,-108.130091259876,4,1,0,80,0,0
15677,-108.016299360018,4,1,0,80,0,0
15849,-107.789432552233,4,1,0,80,0,0
16022,-107.562206029293,4,1,0,80,0,0
16194,-107.337240691651,4,1,0,80,0,0
16366,-107.113214415726,4,1,0,80,0,0
16453,-107.000254554711,4,1,0,80,0,0
16711,-106.666666666667,4,1,0,80,0,0
16884,-106.444144317963,4,1,0,80,0,0
17056,-106.223826714801,4,1,0,80,0,0
17228,-106.00441925257,4,1,0,80,0,0
17401,-105.784648570915,4,1,0,80,0,0
17573,-105.567049762608,4,1,0,80,0,0
17746,-105.349087003222,4,1,0,80,0,0
18091,-104.91709752184,4,1,0,80,0,0
18263,-104.703049568838,4,1,0,80,0,0
18349,-104.596352778074,4,1,0,80,0,0
18435,-104.489873222931,4,1,0,80,0,0
18608,-104.276331332987,4,1,0,80,0,0
18780,-104.064887296048,4,1,0,80,0,0
18953,-103.853077167429,4,1,0,80,0,0
19125,-103.643344409351,4,1,0,80,0,0
19470,-103.225202890755,4,1,0,80,0,0
19642,-103.01799593866,4,1,0,80,0,0
19815,-102.810421737966,4,1,0,80,0,0
19987,-102.604874986923,4,1,0,80,0,0
20160,-102.398960605076,4,1,0,80,0,0
20332,-102.195054181717,4,1,0,80,0,0
20504,-101.991958219716,4,1,0,80,0,0
20849,-101.587009310301,4,1,0,80,0,0
21022,-101.385156088485,4,1,0,80,0,0
21108,-101.285111070314,4,1,0,80,0,0
21194,-101.185263302689,4,1,0,80,0,0
21366,-100.986157190253,4,1,0,80,0,0
21539,-100.786682347031,4,1,0,80,0,0
21711,-100.58914021993,4,1,0,80,0,0
21884,-100.391229187517,4,1,0,80,0,0
21970,-100.293135183039,4,1,0,80,0,0
22147,-83.3333333333333,4,1,0,90,0,0
22573,-90.9090909090909,4,1,0,90,0,0
23608,-100,4,1,0,90,0,0
23953,-83.3333333333333,4,1,0,90,0,0
24987,-100,4,1,0,90,0,0
25332,-76.9230769230769,4,1,0,90,0,0
26366,-100,4,1,0,90,0,0
26711,-71.4285714285714,4,1,0,90,0,0
27746,-100,4,1,0,90,0,0
28091,-66.6666666666667,4,1,0,90,0,0
29125,-100,4,1,0,90,0,0
29470,-62.5,4,1,0,90,0,0
30504,-100,4,1,0,90,0,0
30849,-58.8235294117647,4,1,0,90,0,0
31884,-100,4,1,0,90,0,0
32228,-55.5555555555556,4,1,0,90,0,0
33263,-100,4,1,0,90,0,0
33608,-97.2208236834156,4,1,0,90,0,0
33953,-94.5919467032429,4,1,0,90,0,0
34297,-92.1085268359696,4,1,0,90,0,0
34642,-89.7454964585154,4,1,0,90,0,0
34987,-87.5006797049174,4,1,0,90,0,0
35332,-85.3654223621156,4,1,0,90,0,0
35677,-83.3318948404136,4,1,0,90,0,0
36022,-81.3929962401578,4,1,0,90,0,0
36366,-79.5475142946595,4,1,0,90,0,0
36711,-77.7788518858653,4,1,0,90,0,0
37056,-76.0871278389837,4,1,0,90,0,0
37401,-74.4674286948339,4,1,0,90,0,0
37746,-72.9152506532542,4,1,0,90,0,0
38091,-71.4264577507509,4,1,0,90,0,0
38435,-70.0013050476342,4,1,0,90,0,0
38780,-68.6280084727691,4,1,0,90,0,0
38953,-67.9594566058985,4,1,0,90,0,0
39125,-67.3075582449145,4,1,0,90,0,0
39297,-66.668047672315,4,1,0,90,0,0
39470,-66.0369615474057,4,1,0,90,0,0
39642,-65.4212573349053,4,1,0,90,0,0
39815,-64.813447363828,4,1,0,90,0,0
39987,-64.2202445091857,4,1,0,90,0,0
40160,-63.6344463045226,4,1,0,90,0,0
40332,-63.0625334744157,4,1,0,90,0,0
40504,-62.5008091767112,4,1,0,90,0,0
40677,-61.9458238698336,4,1,0,90,0,0
40849,-61.4037319223089,4,1,0,90,0,0
41022,-60.8679754384638,4,1,0,90,0,0
41194,-60.3445043063038,4,1,0,90,0,0
41366,-59.8299602166396,4,1,0,90,0,0
41539,-59.3212008011895,4,1,0,90,0,0
41625,-59.0714976200091,4,1,0,90,0,0
41711,-58.8238877989935,4,1,0,90,0,0
41797,-58.5783451238306,4,1,0,90,0,0
41884,-58.3320243115552,4,1,0,90,0,0
41970,-58.0905623142366,4,1,0,90,0,0
42056,-57.8510911117236,4,1,0,90,0,0
42142,-57.6135861846738,4,1,0,90,0,0
42228,-57.3780234147501,4,1,0,90,0,0
42315,-57.1416734727697,4,1,0,90,0,0
42401,-56.909946125644,4,1,0,90,0,0
42487,-56.6800906411807,4,1,0,90,0,0
42573,-56.4520844296322,4,1,0,90,0,0
42660,-56.2232859322409,4,1,0,90,0,0
42746,-55.9989328012806,4,1,0,90,0,0
42832,-55.7763630691731,4,1,0,90,0,0
42918,-55.5555555555556,4,1,0,90,0,0
44302,-58.8235294117647,4,1,0,100,0,1
44470,-63.8455369810622,4,1,0,100,0,1
44642,-69.7674418604651,4,1,0,100,0,1
44728,-73.160387361278,4,1,0,100,0,1
44815,-76.9459519738309,4,1,0,100,0,1
44901,-81.0937867272585,4,1,0,100,0,1
44987,-85.7142857142857,4,1,0,100,0,1
45073,-90.8931237375955,4,1,0,100,0,1
45160,-96.810401272098,4,1,0,100,0,1
45332,-111.111111111111,4,1,0,100,0,1
45677,-58.8235294117647,4,1,0,100,0,1
45763,-61.0287707061901,4,1,0,100,0,1
45849,-63.4057971014493,4,1,0,100,0,1
45935,-65.9754948162111,4,1,0,100,0,1
46022,-68.7960687960688,4,1,0,100,0,1
46194,-75.1476113794954,4,1,0,100,0,1
46280,-78.7844682048396,4,1,0,100,0,1
46366,-82.7912477823773,4,1,0,100,0,1
46453,-87.2817955112219,4,1,0,100,0,1
46539,-92.2266139657444,4,1,0,100,0,1
46711,-104.011887072808,4,1,0,100,0,1
46797,-111.111111111111,4,1,0,100,0,1
47056,-58.8235294117647,4,1,0,100,0,1
47228,-63.8140452555645,4,1,0,100,0,1
47401,-69.7674418604651,4,1,0,100,0,1
47487,-73.160387361278,4,1,0,100,0,1
47573,-76.9002154692028,4,1,0,100,0,1
47660,-81.0937867272585,4,1,0,100,0,1
47746,-85.7142857142857,4,1,0,100,0,1
47832,-90.8931237375955,4,1,0,100,0,1
47918,-96.7380128984017,4,1,0,100,0,1
48091,-111.111111111111,4,1,0,100,0,1
48435,-58.8235294117647,4,1,0,100,0,1
48522,-61.0889774236388,4,1,0,100,0,1
48608,-63.5066728025771,4,1,0,100,0,1
48694,-66.1236224245328,4,1,0,100,0,1
48780,-68.9655172413793,4,1,0,100,0,1
48953,-100,4,1,0,100,0,1
49039,-94.7432762836186,4,1,0,100,0,1
49125,-90.0116144018583,4,1,0,100,0,1
49211,-85.7300884955752,4,1,0,100,0,1
49297,-81.8373812038015,4,1,0,100,0,1
49384,-78.2433114588592,4,1,0,100,0,1
49470,-74.9879051765844,4,1,0,100,0,1
49556,-71.9925685090571,4,1,0,100,0,1
49642,-69.2273336310853,4,1,0,100,0,1
49728,-66.6666666666667,4,1,0,100,0,1
49815,-58.8235294117647,4,1,0,100,0,1
49983,-63.8455369810622,4,1,0,100,0,1
50155,-69.7674418604651,4,1,0,100,0,1
50241,-73.160387361278,4,1,0,100,0,1
50328,-76.9459519738309,4,1,0,100,0,1
50414,-81.0937867272585,4,1,0,100,0,1
50500,-85.7142857142857,4,1,0,100,0,1
50586,-90.8931237375955,4,1,0,100,0,1
50673,-96.810401272098,4,1,0,100,0,1
50845,-111.111111111111,4,1,0,100,0,1
51190,-58.8235294117647,4,1,0,100,0,1
51276,-61.0287707061901,4,1,0,100,0,1
51362,-63.4057971014493,4,1,0,100,0,1
51448,-65.9754948162111,4,1,0,100,0,1
51535,-68.7960687960688,4,1,0,100,0,1
51707,-75.1476113794954,4,1,0,100,0,1
51793,-78.7844682048396,4,1,0,100,0,1
51879,-82.7912477823773,4,1,0,100,0,1
51966,-87.2817955112219,4,1,0,100,0,1
52052,-92.2266139657444,4,1,0,100,0,1
52224,-104.011887072808,4,1,0,100,0,1
52310,-111.111111111111,4,1,0,100,0,1
52569,-58.8235294117647,4,1,0,100,0,1
52741,-63.8140452555645,4,1,0,100,0,1
52914,-69.7674418604651,4,1,0,100,0,1
53000,-73.160387361278,4,1,0,100,0,1
53086,-76.9002154692028,4,1,0,100,0,1
53173,-81.0937867272585,4,1,0,100,0,1
53259,-85.7142857142857,4,1,0,100,0,1
53345,-90.8931237375955,4,1,0,100,0,1
53431,-96.7380128984017,4,1,0,100,0,1
53604,-111.111111111111,4,1,0,100,0,1
53948,-58.8235294117647,4,1,0,100,0,1
54039,-60.9704342905644,4,1,0,100,0,1
54125,-63.2799882542945,4,1,0,100,0,1
54211,-65.7714024111094,4,1,0,100,0,1
54297,-68.4670373312153,4,1,0,100,0,1
54384,-71.4285714285714,4,1,0,100,0,1
54470,-74.6191135734072,4,1,0,100,0,1
54556,-78.1080101486046,4,1,0,100,0,1
54642,-81.9391634980989,4,1,0,100,0,1
54728,-86.1655337864854,4,1,0,100,0,1
54815,-90.9090909090909,4,1,0,100,0,1
54901,-96.1409770243141,4,1,0,100,0,1
54987,-102.011834319527,4,1,0,100,0,1
55073,-108.646332240988,4,1,0,100,0,1
55160,-116.297895304911,4,1,0,100,0,1
55246,-125,4,1,0,100,0,1
55332,-58.8235294117647,4,1,0,100,0,1
55504,-63.8192815701765,4,1,0,100,0,1
55677,-69.7799973005804,4,1,0,100,0,1
55763,-73.1776362349611,4,1,0,100,0,1
55849,-76.9230769230769,4,1,0,100,0,1
55935,-81.0726046730437,4,1,0,100,0,1
56022,-85.7521977110632,4,1,0,100,0,1
56108,-90.9410729991205,4,1,0,100,0,1
56194,-96.7983523684703,4,1,0,100,0,1
56280,-103.462077246348,4,1,0,100,0,1
56366,-111.111111111111,4,1,0,100,0,1
56711,-58.8235294117647,4,1,0,100,0,1
56797,-61.0267298165387,4,1,0,100,0,1
56884,-63.4300910994172,4,1,0,100,0,1
56970,-65.9994112452164,4,1,0,100,0,1
57056,-68.7856660735105,4,1,0,100,0,1
57228,-75.1290128007506,4,1,0,100,0,1
57315,-78.804920913884,4,1,0,100,0,1
57401,-82.8100760877595,4,1,0,100,0,1
57487,-87.2441435131139,4,1,0,100,0,1
57573,-92.1799194145218,4,1,0,100,0,1
57660,-97.7758395115569,4,1,0,100,0,1
57746,-104.01781571866,4,1,0,100,0,1
57832,-111.111111111111,4,1,0,100,0,1
58091,-58.8235294117647,4,1,0,100,0,1
58263,-63.8192815701765,4,1,0,100,0,1
58435,-69.7423445298799,4,1,0,100,0,1
58522,-73.1776362349611,4,1,0,100,0,1
58608,-76.9230769230769,4,1,0,100,0,1
58694,-81.0726046730437,4,1,0,100,0,1
58780,-85.6953422841041,4,1,0,100,0,1
58866,-90.8771313060292,4,1,0,100,0,1
58953,-96.7983523684703,4,1,0,100,0,1
59039,-103.462077246348,4,1,0,100,0,1
59125,-111.111111111111,4,1,0,100,0,1
59470,-58.8235294117647,4,1,0,100,0,1
59556,-61.0619469026549,4,1,0,100,0,1
59642,-63.4774609015639,4,1,0,100,0,1
59728,-66.0919540229885,4,1,0,100,0,1
59815,-68.9655172413793,4,1,0,100,0,1
59987,-100,4,1,0,100,0,1
60073,-94.7496947496948,4,1,0,100,0,1
60160,-89.9710144927536,4,1,0,100,0,1
60246,-85.6985091109884,4,1,0,100,0,1
60332,-81.8133895624671,4,1,0,100,0,1
60418,-78.2652546646495,4,1,0,100,0,1
60504,-75.0120831319478,4,1,0,100,0,1
60591,-71.9851576994434,4,1,0,100,0,1
60677,-69.2239072256913,4,1,0,100,0,1
60763,-66.6666666666667,4,1,0,100,0,1
60849,-58.8235294117647,4,1,0,100,0,1
61022,-63.17138671875,4,1,0,100,0,1
61194,-68.1818181818182,4,1,0,100,0,1
61280,-70.9973933324187,4,1,0,100,0,1
61366,-74.0555237550086,4,1,0,100,0,1
61453,-77.4294905363956,4,1,0,100,0,1
61539,-81.0810810810811,4,1,0,100,0,1
61625,-85.094137959385,4,1,0,100,0,1
61711,-89.525127584119,4,1,0,100,0,1
61797,-94.4429236244183,4,1,0,100,0,1
61884,-100,4,1,0,100,0,1
62228,-58.8235294117647,4,1,0,100,0,1
62315,-60.7653946227233,4,1,0,100,0,1
62401,-62.81519668273,4,1,0,100,0,1
62487,-65.0081187659476,4,1,0,100,0,1
62573,-67.3596923446701,4,1,0,100,0,1
62746,-72.6459723932344,4,1,0,100,0,1
62832,-75.5951176748264,4,1,0,100,0,1
62918,-78.7938426934702,4,1,0,100,0,1
63004,-82.2752293577982,4,1,0,100,0,1
63091,-86.1247695144438,4,1,0,100,0,1
63177,-90.3012727565652,4,1,0,100,0,1
63263,-94.9034879783271,4,1,0,100,0,1
63349,-100,4,1,0,100,0,1
63613,-90.9090909090909,4,1,0,100,0,0
63694,-66.6666666666667,4,1,0,100,0,0
64987,-76.9230769230769,4,1,0,100,0,0
65849,-83.3199033037873,4,1,0,100,0,0
65935,-86.934588868337,4,1,0,100,0,0
66022,-90.9250791417517,4,1,0,100,0,0
66108,-95.246868091378,4,1,0,100,0,0
66194,-100,4,1,0,100,0,0
66366,-58.8235294117647,4,1,0,100,0,0
66371,-58.8235294117647,4,1,0,100,0,1
66625,-62.6409421197695,4,1,0,100,0,1
66711,-64.0204865556978,4,1,0,100,0,1
66884,-66.9882100750268,4,1,0,100,0,1
67056,-70.2247191011236,4,1,0,100,0,1
67142,-71.9631548647093,4,1,0,100,0,1
67228,-73.7898465171192,4,1,0,100,0,1
67315,-75.7346258709482,4,1,0,100,0,1
67401,-77.7604976671851,4,1,0,100,0,1
67573,-82.1557673348669,4,1,0,100,0,1
67660,-84.573748308525,4,1,0,100,0,1
67746,-87.1080139372822,4,1,0,100,0,1
67832,-89.7988505747126,4,1,0,100,0,1
67918,-92.6612305411416,4,1,0,100,0,1
68004,-95.7120980091884,4,1,0,100,0,1
68091,-99.009900990099,4,1,0,100,0,1
68177,-102.50102501025,4,1,0,100,0,1
68263,-106.247343816405,4,1,0,100,0,1
68349,-110.277900308778,4,1,0,100,0,1
68435,-114.626318202659,4,1,0,100,0,1
68522,-119.388729703916,4,1,0,100,0,1
68608,-124.501992031873,4,1,0,100,0,1
68780,-136.165577342048,4,1,0,100,0,1
68866,-142.857142857143,4,1,0,100,0,1
69125,-200,4,1,0,100,0,1
69384,-165.672630881378,4,1,0,100,0,1
69470,-156.739811912226,4,1,0,100,0,1
69642,-141.482739105829,4,1,0,100,0,1
69815,-128.865979381443,4,1,0,100,0,1
69901,-123.395853899309,4,1,0,100,0,1
69987,-118.371212121212,4,1,0,100,0,1
70073,-113.739763421292,4,1,0,100,0,1
70160,-109.409190371991,4,1,0,100,0,1
70332,-101.750101750102,4,1,0,100,0,1
70504,-95.0931913275009,4,1,0,100,0,1
70591,-92.0471281296024,4,1,0,100,0,1
70677,-89.2219842969308,4,1,0,100,0,1
70763,-86.5650969529086,4,1,0,100,0,1
70849,-84.0618695359785,4,1,0,100,0,1
70935,-81.6993464052288,4,1,0,100,0,1
71022,-79.4407372100413,4,1,0,100,0,1
71108,-77.3275595422208,4,1,0,100,0,1
71194,-75.3238927387767,4,1,0,100,0,1
71280,-73.4214390602056,4,1,0,100,0,1
71366,-71.6127184187912,4,1,0,100,0,1
71539,-68.2314410480349,4,1,0,100,0,1
71625,-66.6666666666667,4,1,0,100,0,1
71884,-58.8235294117647,4,1,0,100,0,1
72142,-62.625250501002,4,1,0,100,0,1
72228,-64.0040962621608,4,1,0,100,0,1
72401,-66.9702652022502,4,1,0,100,0,1
72573,-70.2049985959,4,1,0,100,0,1
72660,-71.9631548647093,4,1,0,100,0,1
72746,-73.7898465171192,4,1,0,100,0,1
72832,-75.7116898849182,4,1,0,100,0,1
72918,-77.7363184079602,4,1,0,100,0,1
73091,-82.1557673348669,4,1,0,100,0,1
73177,-84.545147108556,4,1,0,100,0,1
73263,-87.0776732845698,4,1,0,100,0,1
73349,-89.7666068222621,4,1,0,100,0,1
73435,-92.6268988514264,4,1,0,100,0,1
73522,-95.7120980091884,4,1,0,100,0,1
73608,-98.9707046714173,4,1,0,100,0,1
73694,-102.459016393443,4,1,0,100,0,1
73780,-106.202209005947,4,1,0,100,0,1
73866,-110.229276895944,4,1,0,100,0,1
73953,-114.626318202659,4,1,0,100,0,1
74039,-119.331742243437,4,1,0,100,0,1
74125,-124.440019910403,4,1,0,100,0,1
74297,-136.091453456723,4,1,0,100,0,1
74384,-142.857142857143,4,1,0,100,0,1
74642,-200,4,1,0,100,0,1
74901,-165.672630881378,4,1,0,100,0,1
74987,-156.739811912226,4,1,0,100,0,1
75160,-141.402714932127,4,1,0,100,0,1
75332,-128.865979381443,4,1,0,100,0,1
75418,-123.395853899309,4,1,0,100,0,1
75504,-118.371212121212,4,1,0,100,0,1
75591,-113.68804001819,4,1,0,100,0,1
75677,-109.409190371991,4,1,0,100,0,1
75849,-101.750101750102,4,1,0,100,0,1
76022,-95.0570342205323,4,1,0,100,0,1
76108,-92.0471281296024,4,1,0,100,0,1
76194,-89.2219842969308,4,1,0,100,0,1
76280,-86.5650969529086,4,1,0,100,0,1
76366,-84.0618695359785,4,1,0,100,0,1
76453,-81.6726559947729,4,1,0,100,0,1
76539,-79.4407372100413,4,1,0,100,0,1
76625,-77.3275595422208,4,1,0,100,0,1
76711,-75.3238927387767,4,1,0,100,0,1
76797,-73.4214390602056,4,1,0,100,0,1
76884,-71.5922107674685,4,1,0,100,0,1
77056,-68.2314410480349,4,1,0,100,0,1
77142,-66.6666666666667,4,1,0,100,0,1
77401,-58.8235294117647,4,1,0,100,0,1
77660,-62.6409421197695,4,1,0,100,0,1
77746,-64.0204865556978,4,1,0,100,0,1
77918,-66.9702652022502,4,1,0,100,0,1
78091,-70.2247191011236,4,1,0,100,0,1
78177,-71.9631548647093,4,1,0,100,0,1
78263,-73.7898465171192,4,1,0,100,0,1
78349,-75.7116898849182,4,1,0,100,0,1
78435,-77.7363184079602,4,1,0,100,0,1
78608,-82.1557673348669,4,1,0,100,0,1
78694,-84.545147108556,4,1,0,100,0,1
78780,-87.0776732845698,4,1,0,100,0,1
78866,-89.7666068222621,4,1,0,100,0,1
78953,-92.6612305411416,4,1,0,100,0,1
79039,-95.7120980091884,4,1,0,100,0,1
79125,-98.9707046714173,4,1,0,100,0,1
79211,-102.459016393443,4,1,0,100,0,1
79297,-106.202209005947,4,1,0,100,0,1
79384,-110.277900308778,4,1,0,100,0,1
79470,-114.626318202659,4,1,0,100,0,1
79556,-119.331742243437,4,1,0,100,0,1
79642,-124.440019910403,4,1,0,100,0,1
79815,-136.165577342048,4,1,0,100,0,1
79901,-142.857142857143,4,1,0,100,0,1
80160,-200,4,1,0,100,0,1
80418,-165.7824933687,4,1,0,100,0,1
80504,-156.838143036386,4,1,0,100,0,1
80677,-141.482739105829,4,1,0,100,0,1
80849,-128.932439401753,4,1,0,100,0,1
80935,-123.456790123457,4,1,0,100,0,1
81022,-118.371212121212,4,1,0,100,0,1
81108,-113.739763421292,4,1,0,100,0,1
81194,-109.457092819615,4,1,0,100,0,1
81366,-101.791530944625,4,1,0,100,0,1
81539,-95.0931913275009,4,1,0,100,0,1
81625,-92.0810313075507,4,1,0,100,0,1
81711,-89.2538379150303,4,1,0,100,0,1
81797,-86.5950813993765,4,1,0,100,0,1
81884,-84.0618695359785,4,1,0,100,0,1
81970,-81.6993464052288,4,1,0,100,0,1
82056,-79.4659885568977,4,1,0,100,0,1
82142,-77.3514851485149,4,1,0,100,0,1
82228,-75.3465943339361,4,1,0,100,0,1
82315,-73.4214390602056,4,1,0,100,0,1
82401,-71.6127184187912,4,1,0,100,0,1
82573,-68.2500682500683,4,1,0,100,0,1
82660,-66.6666666666667,4,1,0,100,0,1
82918,-58.8235294117647,4,1,0,100,0,1
83177,-62.6409421197695,4,1,0,100,0,1
83263,-64.0204865556978,4,1,0,100,0,1
83435,-66.9702652022502,4,1,0,100,0,1
83608,-70.2247191011236,4,1,0,100,0,1
83694,-71.9631548647093,4,1,0,100,0,1
83780,-73.7898465171192,4,1,0,100,0,1
83866,-75.7116898849182,4,1,0,100,0,1
83953,-77.7604976671851,4,1,0,100,0,1
84125,-82.1557673348669,4,1,0,100,0,1
84211,-84.545147108556,4,1,0,100,0,1
84297,-87.0776732845698,4,1,0,100,0,1
84384,-89.7988505747126,4,1,0,100,0,1
84470,-92.6612305411416,4,1,0,100,0,1
84556,-95.7120980091884,4,1,0,100,0,1
84642,-98.9707046714173,4,1,0,100,0,1
84728,-102.459016393443,4,1,0,100,0,1
84815,-106.247343816405,4,1,0,100,0,1
84901,-110.277900308778,4,1,0,100,0,1
84987,-114.626318202659,4,1,0,100,0,1
85073,-119.331742243437,4,1,0,100,0,1
85160,-124.501992031873,4,1,0,100,0,1
85332,-136.165577342048,4,1,0,100,0,1
85418,-142.857142857143,4,1,0,100,0,1
85677,-200,4,1,0,100,0,1
85940,-125,4,1,0,100,0,0
86194,-118.637405830331,4,1,0,100,0,0
86453,-112.891160703154,4,1,0,100,0,0
86711,-107.695052331113,4,1,0,100,0,0
86970,-102.938668788723,4,1,0,100,0,0
87056,-102.040816326531,4,1,0,100,0,0
87228,-98.6007513475254,4,1,0,100,0,0
87487,-94.5988299206018,4,1,0,100,0,0
87746,-76.9230769230769,4,1,0,100,0,0
87832,-79.9938109237196,4,1,0,100,0,0
87918,-83.3199033037873,4,1,0,100,0,0
88004,-86.934588868337,4,1,0,100,0,0
88091,-90.9250791417517,4,1,0,100,0,0
88177,-95.246868091378,4,1,0,100,0,0
88263,-100,4,1,0,100,0,0
88354,-100,4,1,0,95,0,0
88435,-83.3333333333333,4,1,0,95,0,0
98004,-69.9300699300699,4,1,0,95,0,0
98091,-71.4285714285714,4,1,0,95,0,0
98177,-72.8122536321658,4,1,0,95,0,0
98263,-74.2506029631331,4,1,0,95,0,0
98349,-75.7469244288225,4,1,0,95,0,0
98435,-77.304794930049,4,1,0,95,0,0
98522,-78.9473684210526,4,1,0,95,0,0
98608,-80.6411375826369,4,1,0,95,0,0
98694,-82.4091778202677,4,1,0,95,0,0
98780,-84.2564837742734,4,1,0,95,0,0
98866,-86.1885081989068,4,1,0,95,0,0
98953,-88.2352941176471,4,1,0,95,0,0
99039,-90.3563941299791,4,1,0,95,0,0
99125,-92.5819848202778,4,1,0,95,0,0
99211,-94.9199823814418,4,1,0,95,0,0
99297,-97.3791233619521,4,1,0,95,0,0
99384,-100,4,1,0,95,0,0
99470,-83.3333333333333,4,1,0,95,0,0
108009,-66.6666666666667,4,1,0,75,0,0
109130,-100,4,1,0,55,0,0
110509,-100,4,1,0,35,0,0

[HitObjects]
468,272,165,5,4,0:0:0:0:
421,296,337,1,0,0:0:0:0:
256,194,509,1,8,0:0:0:0:
256,194,682,1,0,0:0:0:0:
256,194,1027,1,0,0:0:0:0:
256,194,1199,1,8,0:0:0:0:
320,230,1544,1,0,0:0:0:0:
320,230,1716,1,0,0:0:0:0:
320,230,1802,1,0,0:0:0:0:
208,105,1889,1,8,0:0:0:0:
208,105,2233,1,0,0:0:0:0:
208,105,2406,1,0,0:0:0:0:
208,105,2578,1,8,0:0:0:0:
468,272,2923,1,0,0:0:0:0:
421,296,3096,1,0,0:0:0:0:
256,194,3268,1,8,0:0:0:0:
256,194,3440,1,8,0:0:0:0:
256,194,3785,1,0,0:0:0:0:
256,194,3958,1,8,0:0:0:0:
320,230,4302,1,0,0:0:0:0:
320,230,4475,1,8,0:0:0:0:
320,230,4561,1,0,0:0:0:0:
208,105,4647,1,8,0:0:0:0:
208,105,4992,1,0,0:0:0:0:
208,105,5165,1,0,0:0:0:0:
208,105,5337,1,8,0:0:0:0:
252,134,5423,1,0,0:0:0:0:
468,272,5682,1,0,0:0:0:0:
421,296,5854,1,0,0:0:0:0:
256,194,6027,1,8,0:0:0:0:
256,194,6199,1,0,0:0:0:0:
256,194,6544,1,0,0:0:0:0:
256,194,6716,1,8,0:0:0:0:
320,230,7061,1,0,0:0:0:0:
320,230,7233,1,0,0:0:0:0:
320,230,7320,1,0,0:0:0:0:
208,105,7406,1,8,0:0:0:0:
208,105,7751,1,0,0:0:0:0:
208,105,7923,1,0,0:0:0:0:
208,105,8096,1,8,0:0:0:0:
468,272,8440,1,0,0:0:0:0:
421,296,8613,1,0,0:0:0:0:
256,194,8785,1,8,0:0:0:0:
256,194,8958,1,8,0:0:0:0:
256,194,9302,1,0,0:0:0:0:
256,194,9475,1,8,0:0:0:0:
320,230,9820,1,0,0:0:0:0:
320,230,9992,1,8,0:0:0:0:
320,230,10078,1,0,0:0:0:0:
208,105,10165,1,8,0:0:0:0:
208,105,10509,1,0,0:0:0:0:
208,105,10682,1,0,0:0:0:0:
208,105,10854,1,8,0:0:0:0:
252,134,10940,1,0,0:0:0:0:
468,272,11199,1,4,0:0:0:0:
421,296,11371,1,0,0:0:0:0:
256,194,11544,1,8,0:0:0:0:
256,194,11716,1,0,0:0:0:0:
256,194,11889,1,0,0:0:0:0:
256,194,12061,1,0,0:0:0:0:
256,194,12233,1,8,0:0:0:0:
320,230,12578,1,0,0:0:0:0:
320,230,12751,1,0,0:0:0:0:
320,230,12837,1,0,0:0:0:0:
208,105,12923,1,8,0:0:0:0:
208,105,13096,1,0,0:0:0:0:
208,105,13268,1,0,0:0:0:0:
208,105,13440,1,0,0:0:0:0:
208,105,13613,1,8,0:0:0:0:
468,272,13958,1,0,0:0:0:0:
421,296,14130,1,0,0:0:0:0:
256,194,14302,1,8,0:0:0:0:
256,194,14475,1,8,0:0:0:0:
256,194,14647,1,0,0:0:0:0:
256,194,14820,1,0,0:0:0:0:
256,194,14992,1,8,0:0:0:0:
320,230,15337,1,0,0:0:0:0:
320,230,15509,1,8,0:0:0:0:
320,230,15596,1,0,0:0:0:0:
208,105,15682,1,8,0:0:0:0:
208,105,15854,1,0,0:0:0:0:
208,105,16027,1,0,0:0:0:0:
208,105,16199,1,0,0:0:0:0:
208,105,16371,1,8,0:0:0:0:
252,134,16458,1,0,0:0:0:0:
468,272,16716,1,0,0:0:0:0:
421,296,16889,1,0,0:0:0:0:
256,194,17061,1,8,0:0:0:0:
256,194,17233,1,0,0:0:0:0:
256,194,17406,1,0,0:0:0:0:
256,194,17578,1,0,0:0:0:0:
256,194,17751,1,8,0:0:0:0:
320,230,18096,1,0,0:0:0:0:
320,230,18268,1,0,0:0:0:0:
320,230,18354,1,0,0:0:0:0:
208,105,18440,1,8,0:0:0:0:
208,105,18613,1,0,0:0:0:0:
208,105,18785,1,0,0:0:0:0:
208,105,18958,1,0,0:0:0:0:
208,105,19130,1,8,0:0:0:0:
468,272,19475,1,0,0:0:0:0:
421,296,19647,1,0,0:0:0:0:
256,194,19820,1,8,0:0:0:0:
256,194,19992,1,8,0:0:0:0:
256,194,20165,1,0,0:0:0:0:
256,194,20337,1,0,0:0:0:0:
256,194,20509,1,8,0:0:0:0:
320,230,20854,1,0,0:0:0:0:
320,230,21027,1,8,0:0:0:0:
320,230,21113,1,0,0:0:0:0:
208,105,21199,1,8,0:0:0:0:
208,105,21371,1,0,0:0:0:0:
208,105,21544,1,0,0:0:0:0:
208,105,21716,1,0,0:0:0:0:
208,105,21889,1,8,0:0:0:0:
252,134,21975,1,0,0:0:0:0:
193,54,22233,1,4,0:0:0:0:
147,124,22578,2,0,L|185:125,10,38.5000011749268
192,53,23613,1,0,0:0:0:0:
147,124,23958,2,0,L|205:131,10,41.9999987182618
192,53,24992,1,0,0:0:0:0:
147,124,25337,2,0,L|204:129,10,45.4999979171754
192,53,26371,1,0,0:0:0:0:
147,124,26716,2,0,L|198:130,10,48.9999985046387
192,53,27751,1,0,0:0:0:0:
147,124,28096,2,0,L|200:129,10,52.5000020027161
192,53,29130,1,0,0:0:0:0:
147,124,29475,2,0,L|210:132,10,56
192,53,30509,1,0,0:0:0:0:
147,124,30854,2,0,L|215:132,10,59.5000011348725
192,53,31889,1,0,0:0:0:0:
147,124,32233,2,0,L|214:128,10,62.9999980773926
192,53,33268,1,0,0:0:0:0:
192,53,33613,1,8,0:0:0:0:
192,53,33958,1,0,0:0:0:0:
192,53,34302,1,0,0:0:0:0:
192,53,34647,1,0,0:0:0:0:
192,53,34992,1,8,0:0:0:0:
192,53,35337,1,0,0:0:0:0:
192,53,35682,1,0,0:0:0:0:
192,53,36027,1,0,0:0:0:0:
192,53,36371,1,8,0:0:0:0:
192,53,36716,1,0,0:0:0:0:
192,53,37061,1,0,0:0:0:0:
192,53,37406,1,0,0:0:0:0:
192,53,37751,1,8,0:0:0:0:
192,53,38096,1,0,0:0:0:0:
192,53,38440,1,0,0:0:0:0:
192,53,38785,1,0,0:0:0:0:
192,53,38958,1,0,0:0:0:0:
192,53,39130,1,8,0:0:0:0:
192,53,39302,1,8,0:0:0:0:
192,53,39475,1,0,0:0:0:0:
192,53,39647,1,8,0:0:0:0:
192,53,39820,1,0,0:0:0:0:
192,53,39992,1,0,0:0:0:0:
192,53,40165,1,8,0:0:0:0:
192,53,40337,1,0,0:0:0:0:
192,53,40509,1,8,0:0:0:0:
192,53,40682,1,8,0:0:0:0:
192,53,40854,1,0,0:0:0:0:
192,53,41027,1,0,0:0:0:0:
192,53,41199,1,8,0:0:0:0:
192,53,41371,1,8,0:0:0:0:
192,53,41544,1,0,0:0:0:0:
198,53,41630,1,0,0:0:0:0:
198,53,41716,1,8,0:0:0:0:
198,53,41802,1,0,0:0:0:0:
198,53,41889,1,8,0:0:0:0:
198,53,41975,1,8,0:0:0:0:
198,53,42061,1,0,0:0:0:0:
198,53,42147,1,0,0:0:0:0:
198,53,42233,1,8,0:0:0:0:
198,53,42320,1,8,0:0:0:0:
198,53,42406,1,8,0:0:0:0:
198,53,42492,1,0,0:0:0:0:
198,53,42578,1,8,0:0:0:0:
198,53,42665,1,8,0:0:0:0:
198,53,42751,1,8,0:0:0:0:
198,53,42837,1,8,0:0:0:0:
198,53,42923,1,0,0:0:0:0:
281,94,44302,1,4,0:0:0:0:
196,151,44475,1,0,0:0:0:0:
343,250,44647,1,8,0:0:0:0:
343,250,44733,1,8,0:0:0:0:
343,250,44820,1,8,0:0:0:0:
343,250,44906,1,0,0:0:0:0:
261,100,44992,1,8,0:0:0:0:
343,250,45078,1,0,0:0:0:0:
343,250,45165,1,0,0:0:0:0:
343,250,45337,1,8,0:0:0:0:
416,281,45682,1,0,0:0:0:0:
189,46,45768,1,8,0:0:0:0:
416,281,45854,1,8,0:0:0:0:
416,281,45940,1,0,0:0:0:0:
416,281,46027,1,8,0:0:0:0:
416,281,46199,1,8,0:0:0:0:
346,258,46285,1,0,0:0:0:0:
336,253,46371,1,8,0:0:0:0:
346,258,46458,1,0,0:0:0:0:
346,258,46544,1,0,0:0:0:0:
346,258,46716,1,8,0:0:0:0:
336,253,46802,1,0,0:0:0:0:
281,94,47061,1,4,0:0:0:0:
343,250,47233,1,0,0:0:0:0:
343,250,47406,1,8,0:0:0:0:
343,250,47492,1,8,0:0:0:0:
343,250,47578,1,0,0:0:0:0:
343,250,47665,1,0,0:0:0:0:
261,100,47751,1,8,0:0:0:0:
343,250,47837,1,0,0:0:0:0:
343,250,47923,1,0,0:0:0:0:
343,250,48096,1,8,0:0:0:0:
416,281,48440,1,0,0:0:0:0:
282,170,48527,1,8,0:0:0:0:
416,281,48613,1,8,0:0:0:0:
416,281,48699,1,0,0:0:0:0:
416,281,48785,1,8,0:0:0:0:
416,281,48958,1,0,0:0:0:0:
346,258,49044,1,0,0:0:0:0:
336,253,49130,1,8,0:0:0:0:
346,258,49216,1,0,0:0:0:0:
346,258,49302,1,8,0:0:0:0:
358,186,49389,1,8,0:0:0:0:
346,258,49475,1,8,0:0:0:0:
336,253,49561,1,0,0:0:0:0:
358,186,49647,1,8,0:0:0:0:
358,186,49733,1,8,0:0:0:0:
281,94,49820,1,4,0:0:0:0:
343,250,49992,1,0,0:0:0:0:
343,250,50165,1,8,0:0:0:0:
343,250,50251,1,8,0:0:0:0:
343,250,50337,1,8,0:0:0:0:
343,250,50423,1,0,0:0:0:0:
261,100,50509,1,8,0:0:0:0:
343,250,50596,1,0,0:0:0:0:
343,250,50682,1,0,0:0:0:0:
343,250,50854,1,8,0:0:0:0:
416,281,51199,1,0,0:0:0:0:
189,46,51285,1,8,0:0:0:0:
416,281,51371,1,8,0:0:0:0:
416,281,51458,1,0,0:0:0:0:
416,281,51544,1,8,0:0:0:0:
416,281,51716,1,8,0:0:0:0:
346,258,51802,1,0,0:0:0:0:
336,253,51889,1,8,0:0:0:0:
346,258,51975,1,0,0:0:0:0:
346,258,52061,1,0,0:0:0:0:
346,258,52233,1,8,0:0:0:0:
336,253,52320,1,0,0:0:0:0:
281,94,52578,1,4,0:0:0:0:
343,250,52751,1,0,0:0:0:0:
343,250,52923,1,8,0:0:0:0:
343,250,53009,1,8,0:0:0:0:
343,250,53096,1,0,0:0:0:0:
343,250,53182,1,0,0:0:0:0:
261,100,53268,1,8,0:0:0:0:
343,250,53354,1,0,0:0:0:0:
343,250,53440,1,0,0:0:0:0:
343,250,53613,1,8,0:0:0:0:
416,281,53958,1,0,0:0:0:0:
282,170,54044,1,8,0:0:0:0:
416,281,54130,1,8,0:0:0:0:
416,281,54216,1,0,0:0:0:0:
416,281,54302,1,8,0:0:0:0:
276,161,54389,1,8,0:0:0:0:
416,281,54475,1,0,0:0:0:0:
346,258,54561,1,0,0:0:0:0:
336,253,54647,1,8,0:0:0:0:
346,258,54733,1,0,0:0:0:0:
346,258,54820,1,0,0:0:0:0:
358,186,54906,1,0,0:0:0:0:
346,258,54992,1,8,0:0:0:0:
336,253,55078,1,8,0:0:0:0:
358,186,55165,1,8,0:0:0:0:
358,186,55251,1,8,0:0:0:0:
281,94,55337,1,4,0:0:0:0:
343,250,55509,1,0,0:0:0:0:
343,250,55682,1,8,0:0:0:0:
343,250,55768,1,8,0:0:0:0:
343,250,55854,1,8,0:0:0:0:
343,250,55940,1,0,0:0:0:0:
261,100,56027,1,8,0:0:0:0:
343,250,56113,1,0,0:0:0:0:
343,250,56199,1,0,0:0:0:0:
224,182,56285,1,0,0:0:0:0:
343,250,56371,1,8,0:0:0:0:
416,281,56716,1,0,0:0:0:0:
189,46,56802,1,8,0:0:0:0:
416,281,56889,1,8,0:0:0:0:
416,281,56975,1,0,0:0:0:0:
416,281,57061,1,8,0:0:0:0:
416,281,57233,1,8,0:0:0:0:
346,258,57320,1,0,0:0:0:0:
336,253,57406,1,8,0:0:0:0:
346,258,57492,1,0,0:0:0:0:
346,258,57578,1,0,0:0:0:0:
228,184,57665,1,0,0:0:0:0:
346,258,57751,1,8,0:0:0:0:
336,253,57837,1,0,0:0:0:0:
281,94,58096,1,4,0:0:0:0:
343,250,58268,1,0,0:0:0:0:
343,250,58440,1,8,0:0:0:0:
343,250,58527,1,8,0:0:0:0:
343,250,58613,1,0,0:0:0:0:
343,250,58699,1,0,0:0:0:0:
261,100,58785,1,8,0:0:0:0:
343,250,58871,1,0,0:0:0:0:
343,250,58958,1,0,0:0:0:0:
228,184,59044,1,0,0:0:0:0:
343,250,59130,1,8,0:0:0:0:
416,281,59475,1,0,0:0:0:0:
282,170,59561,1,8,0:0:0:0:
416,281,59647,1,8,0:0:0:0:
416,281,59733,1,0,0:0:0:0:
416,281,59820,1,8,0:0:0:0:
416,281,59992,1,8,0:0:0:0:
346,258,60078,1,0,0:0:0:0:
336,253,60165,1,8,0:0:0:0:
346,258,60251,1,0,0:0:0:0:
346,258,60337,1,8,0:0:0:0:
358,186,60423,1,8,0:0:0:0:
346,258,60509,1,8,0:0:0:0:
336,253,60596,1,0,0:0:0:0:
358,186,60682,1,8,0:0:0:0:
358,186,60768,1,8,0:0:0:0:
281,94,60854,1,4,0:0:0:0:
343,250,61027,1,0,0:0:0:0:
343,250,61199,1,8,0:0:0:0:
343,250,61285,1,8,0:0:0:0:
343,250,61371,1,8,0:0:0:0:
343,250,61458,1,0,0:0:0:0:
261,100,61544,1,8,0:0:0:0:
343,250,61630,1,0,0:0:0:0:
343,250,61716,1,0,0:0:0:0:
233,209,61802,1,0,0:0:0:0:
343,250,61889,1,8,0:0:0:0:
416,281,62233,1,0,0:0:0:0:
189,46,62320,1,8,0:0:0:0:
416,281,62406,1,8,0:0:0:0:
416,281,62492,1,0,0:0:0:0:
416,281,62578,1,8,0:0:0:0:
416,281,62751,1,8,0:0:0:0:
346,258,62837,1,0,0:0:0:0:
336,253,62923,1,8,0:0:0:0:
346,258,63009,1,0,0:0:0:0:
346,258,63096,1,0,0:0:0:0:
233,209,63182,1,0,0:0:0:0:
346,258,63268,1,8,0:0:0:0:
336,253,63354,1,0,0:0:0:0:
281,94,63613,1,4,0:0:0:0:
256,192,63699,12,0,65337,0:0:0:0:
366,294,65682,5,8,0:0:0:0:
358,215,65854,1,0,0:0:0:0:
358,215,65940,1,0,0:0:0:0:
358,215,66027,1,8,0:0:0:0:
358,215,66113,1,0,0:0:0:0:
358,215,66199,1,8,0:0:0:0:
221,102,66371,1,4,0:0:0:0:
274,100,66630,1,0,0:0:0:0:
274,100,66716,1,8,0:0:0:0:
274,100,66889,1,0,0:0:0:0:
314,143,67061,1,8,0:0:0:0:
314,143,67147,1,8,0:0:0:0:
314,143,67233,1,0,0:0:0:0:
314,143,67320,1,0,0:0:0:0:
314,143,67406,1,8,0:0:0:0:
314,143,67578,1,0,0:0:0:0:
177,61,67665,1,8,0:0:0:0:
314,143,67751,1,0,0:0:0:0:
314,143,67837,1,0,0:0:0:0:
314,143,67923,1,8,0:0:0:0:
314,143,68009,1,0,0:0:0:0:
314,143,68096,1,8,0:0:0:0:
314,143,68182,1,8,0:0:0:0:
314,143,68268,1,8,0:0:0:0:
314,143,68354,1,0,0:0:0:0:
314,143,68440,1,8,0:0:0:0:
314,143,68527,1,8,0:0:0:0:
314,143,68613,1,0,0:0:0:0:
268,184,68785,1,8,0:0:0:0:
277,188,68871,1,0,0:0:0:0:
277,188,69130,1,0,0:0:0:0:
259,177,69389,1,0,0:0:0:0:
259,177,69475,1,8,0:0:0:0:
259,177,69647,1,0,0:0:0:0:
259,177,69820,1,8,0:0:0:0:
259,177,69906,1,0,0:0:0:0:
259,177,69992,1,0,0:0:0:0:
259,177,70078,1,0,0:0:0:0:
259,177,70165,1,8,0:0:0:0:
259,177,70337,1,8,0:0:0:0:
204,22,70509,1,0,0:0:0:0:
259,177,70596,1,0,0:0:0:0:
204,22,70682,1,8,0:0:0:0:
296,166,70768,1,0,0:0:0:0:
204,22,70854,1,8,0:0:0:0:
204,22,70940,1,8,0:0:0:0:
204,22,71027,1,0,0:0:0:0:
204,22,71113,1,8,0:0:0:0:
204,22,71199,1,0,0:0:0:0:
204,22,71285,1,0,0:0:0:0:
204,22,71371,1,0,0:0:0:0:
147,75,71544,1,8,0:0:0:0:
147,75,71630,1,0,0:0:0:0:
184,89,71889,1,4,0:0:0:0:
274,100,72147,1,0,0:0:0:0:
274,100,72233,1,8,0:0:0:0:
274,100,72406,1,0,0:0:0:0:
314,143,72578,1,8,0:0:0:0:
314,143,72665,1,0,0:0:0:0:
314,143,72751,1,0,0:0:0:0:
314,143,72837,1,8,0:0:0:0:
314,143,72923,1,8,0:0:0:0:
314,143,73096,1,0,0:0:0:0:
177,61,73182,1,8,0:0:0:0:
314,143,73268,1,0,0:0:0:0:
314,143,73354,1,8,0:0:0:0:
314,143,73440,1,8,0:0:0:0:
314,143,73527,1,0,0:0:0:0:
314,143,73613,1,8,0:0:0:0:
314,143,73699,1,8,0:0:0:0:
314,143,73785,1,0,0:0:0:0:
314,143,73871,1,0,0:0:0:0:
314,143,73958,1,8,0:0:0:0:
314,143,74044,1,0,0:0:0:0:
314,143,74130,1,0,0:0:0:0:
268,184,74302,1,8,0:0:0:0:
277,188,74389,1,0,0:0:0:0:
277,188,74647,1,0,0:0:0:0:
259,177,74906,1,0,0:0:0:0:
259,177,74992,1,8,0:0:0:0:
259,177,75165,1,0,0:0:0:0:
259,177,75337,1,8,0:0:0:0:
259,177,75423,1,0,0:0:0:0:
259,177,75509,1,0,0:0:0:0:
259,177,75596,1,0,0:0:0:0:
259,177,75682,1,8,0:0:0:0:
259,177,75854,1,8,0:0:0:0:
204,22,76027,1,0,0:0:0:0:
259,177,76113,1,8,0:0:0:0:
204,22,76199,1,0,0:0:0:0:
296,166,76285,1,0,0:0:0:0:
204,22,76371,1,8,0:0:0:0:
204,22,76458,1,0,0:0:0:0:
204,22,76544,1,8,0:0:0:0:
204,22,76630,1,8,0:0:0:0:
204,22,76716,1,0,0:0:0:0:
204,22,76802,1,0,0:0:0:0:
204,22,76889,1,0,0:0:0:0:
147,75,77061,1,8,0:0:0:0:
147,75,77147,1,0,0:0:0:0:
123,64,77406,1,4,0:0:0:0:
274,100,77665,1,0,0:0:0:0:
274,100,77751,1,8,0:0:0:0:
274,100,77923,1,0,0:0:0:0:
314,143,78096,1,8,0:0:0:0:
314,143,78182,1,8,0:0:0:0:
314,143,78268,1,0,0:0:0:0:
314,143,78354,1,0,0:0:0:0:
314,143,78440,1,8,0:0:0:0:
314,143,78613,1,0,0:0:0:0:
177,61,78699,1,8,0:0:0:0:
314,143,78785,1,0,0:0:0:0:
314,143,78871,1,0,0:0:0:0:
314,143,78958,1,8,0:0:0:0:
314,143,79044,1,0,0:0:0:0:
314,143,79130,1,8,0:0:0:0:
314,143,79216,1,8,0:0:0:0:
314,143,79302,1,8,0:0:0:0:
314,143,79389,1,0,0:0:0:0:
314,143,79475,1,8,0:0:0:0:
314,143,79561,1,8,0:0:0:0:
314,143,79647,1,0,0:0:0:0:
268,184,79820,1,8,0:0:0:0:
277,188,79906,1,0,0:0:0:0:
277,188,80165,1,0,0:0:0:0:
259,177,80423,1,0,0:0:0:0:
259,177,80509,1,8,0:0:0:0:
259,177,80682,1,0,0:0:0:0:
259,177,80854,1,8,0:0:0:0:
259,177,80940,1,0,0:0:0:0:
259,177,81027,1,0,0:0:0:0:
259,177,81113,1,0,0:0:0:0:
259,177,81199,1,8,0:0:0:0:
259,177,81371,1,8,0:0:0:0:
204,22,81544,1,0,0:0:0:0:
259,177,81630,1,0,0:0:0:0:
204,22,81716,1,8,0:0:0:0:
296,166,81802,1,0,0:0:0:0:
204,22,81889,1,8,0:0:0:0:
204,22,81975,1,8,0:0:0:0:
204,22,82061,1,0,0:0:0:0:
204,22,82147,1,8,0:0:0:0:
204,22,82233,1,0,0:0:0:0:
204,22,82320,1,0,0:0:0:0:
204,22,82406,1,0,0:0:0:0:
147,75,82578,1,8,0:0:0:0:
147,75,82665,1,0,0:0:0:0:
184,89,82923,1,0,0:0:0:0:
274,100,83182,1,0,0:0:0:0:
274,100,83268,1,8,0:0:0:0:
274,100,83440,1,0,0:0:0:0:
314,143,83613,1,8,0:0:0:0:
314,143,83699,1,0,0:0:0:0:
314,143,83785,1,0,0:0:0:0:
314,143,83871,1,8,0:0:0:0:
314,143,83958,1,8,0:0:0:0:
314,143,84130,1,0,0:0:0:0:
177,61,84216,1,8,0:0:0:0:
314,143,84302,1,0,0:0:0:0:
314,143,84389,1,8,0:0:0:0:
314,143,84475,1,8,0:0:0:0:
314,143,84561,1,0,0:0:0:0:
314,143,84647,1,8,0:0:0:0:
314,143,84733,1,8,0:0:0:0:
314,143,84820,1,0,0:0:0:0:
314,143,84906,1,0,0:0:0:0:
314,143,84992,1,8,0:0:0:0:
314,143,85078,1,0,0:0:0:0:
314,143,85165,1,0,0:0:0:0:
268,184,85337,1,8,0:0:0:0:
277,188,85423,1,0,0:0:0:0:
277,188,85682,1,0,0:0:0:0:
259,177,85940,1,8,0:0:0:0:
259,177,86199,1,8,0:0:0:0:
259,177,86458,1,8,0:0:0:0:
259,177,86716,1,8,0:0:0:0:
204,22,86975,1,8,0:0:0:0:
258,119,87233,1,8,0:0:0:0:
258,119,87492,1,8,0:0:0:0:
258,119,87751,1,8,0:0:0:0:
311,110,87837,1,8,0:0:0:0:
250,116,87923,1,0,0:0:0:0:
234,110,88009,1,0,0:0:0:0:
234,110,88096,1,8,0:0:0:0:
250,116,88182,1,0,0:0:0:0:
234,110,88268,1,8,0:0:0:0:
281,94,88440,1,4,0:0:0:0:
343,250,88613,1,0,0:0:0:0:
343,250,88785,1,8,0:0:0:0:
343,250,88871,1,0,0:0:0:0:
343,250,88958,1,8,0:0:0:0:
343,250,89044,1,8,0:0:0:0:
261,100,89130,1,0,0:0:0:0:
343,250,89216,1,8,0:0:0:0:
343,250,89302,1,0,0:0:0:0:
124,44,89389,1,0,0:0:0:0:
343,250,89475,1,8,0:0:0:0:
351,109,89733,1,0,0:0:0:0:
416,281,89820,1,8,0:0:0:0:
416,281,89935,1,8,0:0:0:0:
416,281,90050,1,0,0:0:0:0:
416,281,90165,1,8,0:0:0:0:
189,46,90279,1,8,0:0:0:0:
346,258,90394,1,0,0:0:0:0:
336,253,90509,1,8,0:0:0:0:
346,258,90596,1,8,0:0:0:0:
346,258,90682,1,8,0:0:0:0:
281,94,90768,1,0,0:0:0:0:
346,258,90854,1,8,0:0:0:0:
336,253,90940,1,0,0:0:0:0:
281,94,91199,1,4,0:0:0:0:
343,250,91371,1,0,0:0:0:0:
343,250,91544,1,8,0:0:0:0:
343,250,91630,1,8,0:0:0:0:
343,250,91716,1,8,0:0:0:0:
343,250,91802,1,0,0:0:0:0:
261,100,91889,1,8,0:0:0:0:
343,250,91975,1,0,0:0:0:0:
343,250,92061,1,0,0:0:0:0:
270,221,92147,1,0,0:0:0:0:
343,250,92233,1,8,0:0:0:0:
256,125,92492,1,0,0:0:0:0:
416,281,92578,1,8,0:0:0:0:
282,170,92693,1,8,0:0:0:0:
416,281,92808,1,0,0:0:0:0:
416,281,92923,1,8,0:0:0:0:
416,281,93038,1,0,0:0:0:0:
346,258,93153,1,0,0:0:0:0:
336,253,93268,1,8,0:0:0:0:
346,258,93354,1,8,0:0:0:0:
346,258,93440,1,0,0:0:0:0:
358,186,93527,1,8,0:0:0:0:
346,258,93613,1,8,0:0:0:0:
336,253,93699,1,0,0:0:0:0:
358,186,93785,1,8,0:0:0:0:
358,186,93871,1,8,0:0:0:0:
281,94,93958,1,4,0:0:0:0:
343,250,94130,1,0,0:0:0:0:
343,250,94302,1,8,0:0:0:0:
343,250,94389,1,0,0:0:0:0:
343,250,94475,1,0,0:0:0:0:
343,250,94561,1,0,0:0:0:0:
261,100,94647,1,8,0:0:0:0:
343,250,94733,1,8,0:0:0:0:
343,250,94820,1,0,0:0:0:0:
269,221,94906,1,0,0:0:0:0:
343,250,94992,1,8,0:0:0:0:
188,43,95251,1,0,0:0:0:0:
416,281,95337,1,8,0:0:0:0:
416,281,95452,1,8,0:0:0:0:
416,281,95567,1,0,0:0:0:0:
416,281,95682,1,8,0:0:0:0:
416,281,95797,1,8,0:0:0:0:
346,258,95912,1,0,0:0:0:0:
336,253,96027,1,8,0:0:0:0:
346,258,96113,1,0,0:0:0:0:
346,258,96199,1,0,0:0:0:0:
208,120,96285,1,0,0:0:0:0:
346,258,96371,1,8,0:0:0:0:
336,253,96458,1,0,0:0:0:0:
281,94,96716,1,4,0:0:0:0:
343,250,96889,1,0,0:0:0:0:
343,250,97061,1,8,0:0:0:0:
343,250,97147,1,8,0:0:0:0:
343,250,97233,1,0,0:0:0:0:
343,250,97320,1,0,0:0:0:0:
261,100,97406,1,8,0:0:0:0:
343,250,97492,1,0,0:0:0:0:
343,250,97578,1,0,0:0:0:0:
269,221,97665,1,0,0:0:0:0:
343,250,97751,1,8,0:0:0:0:
206,40,98009,1,0,0:0:0:0:
416,281,98096,1,8,0:0:0:0:
282,170,98182,1,8,0:0:0:0:
416,281,98268,1,8,0:0:0:0:
416,281,98354,1,0,0:0:0:0:
416,281,98440,1,8,0:0:0:0:
276,161,98527,1,8,0:0:0:0:
416,281,98613,1,0,0:0:0:0:
346,258,98699,1,0,0:0:0:0:
336,253,98785,1,8,0:0:0:0:
346,258,98871,1,0,0:0:0:0:
346,258,98958,1,0,0:0:0:0:
358,186,99044,1,0,0:0:0:0:
346,258,99130,1,8,0:0:0:0:
336,253,99216,1,8,0:0:0:0:
358,186,99302,1,8,0:0:0:0:
358,186,99389,1,8,0:0:0:0:
281,94,99475,1,4,0:0:0:0:
343,250,99647,1,0,0:0:0:0:
343,250,99820,1,8,0:0:0:0:
343,250,99906,1,0,0:0:0:0:
343,250,99992,1,8,0:0:0:0:
343,250,100078,1,8,0:0:0:0:
261,100,100165,1,0,0:0:0:0:
343,250,100251,1,8,0:0:0:0:
343,250,100337,1,0,0:0:0:0:
124,44,100423,1,0,0:0:0:0:
343,250,100509,1,8,0:0:0:0:
284,201,100768,1,0,0:0:0:0:
416,281,100854,1,8,0:0:0:0:
416,281,100969,1,8,0:0:0:0:
416,281,101084,1,0,0:0:0:0:
416,281,101199,1,8,0:0:0:0:
189,46,101314,1,0,0:0:0:0:
346,258,101429,1,0,0:0:0:0:
336,253,101544,1,8,0:0:0:0:
346,258,101630,1,8,0:0:0:0:
346,258,101716,1,0,0:0:0:0:
281,94,101802,1,0,0:0:0:0:
346,258,101889,1,8,0:0:0:0:
336,253,101975,1,0,0:0:0:0:
281,94,102233,1,4,0:0:0:0:
343,250,102406,1,0,0:0:0:0:
343,250,102578,1,8,0:0:0:0:
343,250,102665,1,8,0:0:0:0:
343,250,102751,1,8,0:0:0:0:
343,250,102837,1,0,0:0:0:0:
261,100,102923,1,8,0:0:0:0:
343,250,103009,1,8,0:0:0:0:
343,250,103096,1,0,0:0:0:0:
273,258,103182,1,0,0:0:0:0:
343,250,103268,1,8,0:0:0:0:
212,39,103527,1,0,0:0:0:0:
416,281,103613,1,8,0:0:0:0:
282,170,103728,1,8,0:0:0:0:
416,281,103843,1,0,0:0:0:0:
416,281,103958,1,8,0:0:0:0:
416,281,104073,1,8,0:0:0:0:
346,258,104187,1,0,0:0:0:0:
336,253,104302,1,8,0:0:0:0:
346,258,104389,1,0,0:0:0:0:
346,258,104475,1,0,0:0:0:0:
358,186,104561,1,8,0:0:0:0:
346,258,104647,1,8,0:0:0:0:
336,253,104733,1,0,0:0:0:0:
358,186,104820,1,8,0:0:0:0:
358,186,104906,1,8,0:0:0:0:
281,94,104992,1,4,0:0:0:0:
343,250,105165,1,0,0:0:0:0:
343,250,105337,1,8,0:0:0:0:
343,250,105423,1,8,0:0:0:0:
343,250,105509,1,8,0:0:0:0:
343,250,105596,1,0,0:0:0:0:
261,100,105682,1,8,0:0:0:0:
343,250,105768,1,0,0:0:0:0:
343,250,105854,1,0,0:0:0:0:
273,258,105940,1,0,0:0:0:0:
343,250,106027,1,8,0:0:0:0:
151,88,106285,1,0,0:0:0:0:
416,281,106371,1,8,0:0:0:0:
416,281,106486,1,8,0:0:0:0:
416,281,106601,1,0,0:0:0:0:
416,281,106716,1,8,0:0:0:0:
416,281,106831,1,0,0:0:0:0:
346,258,106946,1,0,0:0:0:0:
336,253,107061,1,8,0:0:0:0:
346,258,107147,1,0,0:0:0:0:
346,258,107233,1,0,0:0:0:0:
208,120,107320,1,0,0:0:0:0:
346,258,107406,1,8,0:0:0:0:
336,253,107492,1,0,0:0:0:0:
143,181,107751,5,4,0:0:0:0:
256,192,108096,12,0,110509,0:0:0:0:
