osu file format v14

[General]
AudioFilename: audio.mp3
AudioLeadIn: 0
PreviewTime: 88091
Countdown: 0
SampleSet: Soft
StackLeniency: 0.7
Mode: 0
LetterboxInBreaks: 0
EpilepsyWarning: 1
WidescreenStoryboard: 0

[Editor]
Bookmarks: 60048
DistanceSpacing: 1
BeatDivisor: 4
GridSize: 4
TimelineZoom: 2.899999

[Metadata]
Title:Double Lariat
TitleUnicode:ダブルラリアット
Artist:Agoaniki feat. Megurine Luka
ArtistUnicode:アゴアニキ feat. 巡音ルカ
Creator:moonlightleaf
Version:Insane
Source:初音ミク -Project DIVA- 2nd
Tags:Arcade Flick Hatsune Miku Vocaloid Japanese Novelty Sadism-Bread
BeatmapID:1849657
BeatmapSetID:884949

[Difficulty]
HPDrainRate:6
CircleSize:4
OverallDifficulty:7
ApproachRate:8.5
SliderMultiplier:1.6
SliderTickRate:1

[Events]
//Background and Video events
0,0,"bg.jpg",0,0
//Break Periods
2,161115,167197
2,168072,173719
//Storyboard Layer 0 (Background)
//Storyboard Layer 1 (Fail)
//Storyboard Layer 2 (Pass)
//Storyboard Layer 3 (Foreground)
//Storyboard Sound Samples

[TimingPoints]
916,434.782608695652,4,2,2,40,1,0
14394,-100,4,2,2,60,0,0
28524,-100,4,2,2,40,0,0
41731,-100,4,2,2,5,0,0
41839,-100,4,2,2,40,0,0
43089,-100,4,2,2,55,0,0
60046,-100,4,2,2,70,0,1
73959,-100,4,2,2,60,0,0
88089,-100,4,2,2,45,0,0
102220,-100,4,2,2,60,0,0
119176,-100,4,2,2,70,0,1
133089,-100,4,2,2,50,0,0
147002,-100,4,2,2,58,0,0
160915,-100,4,2,2,40,0,0
174829,-100,4,2,2,70,0,1
188742,-100,4,2,2,55,0,0
202220,-138.888888888889,4,2,2,55,0,0
202329,-138.888888888889,4,2,2,5,0,0

[Colours]
Combo1 : 123,148,234
Combo2 : 252,173,238
Combo3 : 249,152,87

[HitObjects]
410,101,916,5,0,0:0:0:0:
388,288,1133,1,0,0:0:0:0:
294,179,1350,2,0,L|372:194,1,80,2|0,0:0|0:0,0:0:0:0:
241,93,1785,1,0,0:0:0:0:
277,280,2002,1,0,0:0:0:0:
126,216,2220,2,0,L|204:196,1,80,0|0,0:0|0:0,0:0:0:0:
97,314,2655,5,0,0:0:0:0:
53,160,2872,2,0,L|33:82,1,80,0|0,0:0|0:0,0:0:0:0:
176,277,3307,1,0,0:0:0:0:
37,257,3524,1,0,0:0:0:0:
176,151,3742,2,0,L|169:72,1,80,0|0,0:0|0:0,0:0:0:0:
272,218,4176,1,0,0:0:0:0:
323,30,4394,5,2,0:0:0:0:
323,30,4502,1,2,0:0:0:0:
323,30,4611,2,0,P|340:66|351:105,1,80,2|0,0:0|0:0,0:0:0:0:
356,262,5046,1,0,0:0:0:0:
468,199,5263,1,0,0:0:0:0:
297,181,5481,1,0,0:0:0:0:
268,158,5915,1,0,0:0:0:0:
243,137,6350,1,0,0:0:0:0:
220,106,6785,5,0,0:0:0:0:
159,204,7002,1,0,0:0:0:0:
104,107,7220,1,0,0:0:0:0:
161,233,7437,2,0,L|163:312,1,80,0|0,0:0|0:0,0:0:0:0:
73,200,7872,5,0,0:0:0:0:
249,254,8089,1,0,0:0:0:0:
203,107,8307,2,0,L|196:27,1,80,0|0,0:0|0:0,0:0:0:0:
161,233,8742,1,0,0:0:0:0:
104,107,8959,1,0,0:0:0:0:
280,158,9176,2,0,P|318:166|358:162,1,80,0|0,0:0|0:0,0:0:0:0:
290,281,9611,5,0,0:0:0:0:
323,89,9829,2,0,P|340:53|371:28,1,80,0|0,0:0|0:0,0:0:0:0:
397,230,10263,1,0,0:0:0:0:
280,158,10481,1,0,0:0:0:0:
415,98,10698,2,0,P|454:128|468:161,1,80,0|0,0:0|0:0,0:0:0:0:
481,324,11133,1,0,0:0:0:0:
298,246,11350,5,2,0:0:0:0:
279,266,11459,1,2,0:0:0:0:
266,288,11568,2,0,P|250:324|244:363,1,80,2|0,0:0|0:0,0:0:0:0:
203,200,12002,1,0,0:0:0:0:
337,313,12220,1,0,0:0:0:0:
331,175,12437,2,0,L|330:95,1,80,0|0,0:0|0:0,0:0:0:0:
276,249,12872,1,0,0:0:0:0:
203,63,13089,5,0,0:0:0:0:
203,63,13198,1,0,0:0:0:0:
203,63,13307,1,0,0:0:0:0:
116,163,13742,1,0,0:0:0:0:
152,328,13959,1,0,0:0:0:0:
207,233,14176,1,0,0:0:0:0:
37,256,14394,1,8,0:0:0:0:
255,310,14611,1,2,0:0:0:0:
182,113,14829,6,0,L|172:33,1,80,8|0,0:0|0:0,0:0:0:0:
266,178,15263,1,2,0:0:0:0:
195,267,15481,1,0,0:0:0:0:
321,323,15698,1,8,0:0:0:0:
179,184,15915,1,2,0:0:0:0:
179,184,16024,1,2,0:0:0:0:
179,184,16133,1,2,0:0:0:0:
217,347,16350,1,0,0:0:0:0:
343,218,16568,6,0,L|439:190,1,80,8|0,0:0|0:0,0:0:0:0:
280,131,17002,1,0,0:0:0:0:
201,250,17220,1,0,0:0:0:0:
133,120,17437,1,8,0:0:0:0:
279,216,17655,1,0,0:0:0:0:
210,73,17872,1,2,0:0:0:0:
60,179,18089,1,0,0:0:0:0:
190,293,18307,6,0,L|171:215,1,80,8|0,0:0|0:0,0:0:0:0:
210,73,18742,1,0,0:0:0:0:
329,118,18959,1,0,0:0:0:0:
236,165,19176,1,8,0:0:0:0:
356,16,19394,1,2,0:0:0:0:
356,16,19502,1,2,0:0:0:0:
356,16,19611,1,2,0:0:0:0:
411,198,19829,1,0,0:0:0:0:
452,93,20046,5,8,0:0:0:0:
314,224,20263,1,0,0:0:0:0:
411,198,20481,1,0,0:0:0:0:
208,195,20698,1,0,0:0:0:0:
314,224,20915,1,8,0:0:0:0:
257,103,21133,1,0,0:0:0:0:
266,304,21350,2,0,P|210:290|159:320,1,120,0|0,0:0|0:0,0:0:0:0:
137,353,21785,6,0,L|66:283,1,80,8|0,0:0|3:0,0:0:0:0:
38,255,22111,1,0,3:0:0:0:
38,255,22220,1,0,3:0:0:0:
181,213,22437,1,0,0:0:0:0:
137,353,22655,1,8,0:0:0:0:
95,186,22872,2,0,L|76:108,1,80,0|0,0:0|0:0,0:0:0:0:
208,213,23307,1,0,0:0:0:0:
308,105,23524,6,0,L|324:184,1,80,8|0,0:0|0:0,0:0:0:0:
386,349,23959,1,0,0:0:0:0:
485,226,24176,1,0,0:0:0:0:
324,184,24394,1,8,0:0:0:0:
403,258,24611,1,0,0:0:0:0:
341,84,24829,1,0,0:0:0:0:
413,159,25046,1,0,0:0:0:0:
487,27,25263,6,0,L|423:76,1,80,8|0,0:0|0:0,0:0:0:0:
260,175,25698,1,0,0:0:0:0:
209,86,25915,1,0,0:0:0:0:
185,249,26133,1,8,0:0:0:0:
285,99,26350,1,0,0:0:0:0:
184,168,26568,1,0,0:0:0:0:
86,106,26785,1,0,0:0:0:0:
174,328,27002,5,8,0:0:0:0:
345,225,27220,1,0,0:0:0:0:
185,249,27437,1,0,0:0:0:0:
380,308,27655,1,0,0:0:0:0:
252,357,27872,1,8,0:0:0:0:
238,182,28089,1,0,0:0:0:0:
300,292,28307,1,8,0:0:0:0:
156,198,28524,5,2,0:0:0:0:
156,198,28633,1,2,0:0:0:0:
156,198,28742,1,2,0:0:0:0:
156,198,28850,1,2,0:0:0:0:
156,198,28959,5,2,0:0:0:0:
212,277,29176,1,0,0:0:0:0:
186,109,29394,1,8,0:0:0:0:
244,195,29611,1,8,0:0:0:0:
290,108,29829,1,2,0:0:0:0:
290,108,29937,1,2,0:0:0:0:
290,108,30046,1,2,0:0:0:0:
127,35,30263,1,0,0:0:0:0:
130,204,30480,5,0,0:0:0:0:
230,37,30698,1,2,0:0:0:0:
230,37,30807,1,2,0:0:0:0:
230,37,30915,1,2,0:0:0:0:
302,212,31133,1,0,0:0:0:0:
423,77,31350,2,0,L|337:106,1,80,0|2,0:0|0:0,0:0:0:0:
318,112,31676,1,2,0:0:0:0:
318,112,31785,1,2,0:0:0:0:
445,231,32002,1,0,0:0:0:0:
499,44,32220,5,0,0:0:0:0:
374,187,32437,1,2,0:0:0:0:
374,187,32546,1,2,0:0:0:0:
374,187,32655,1,2,0:0:0:0:
394,103,32872,1,0,0:0:0:0:
421,329,33089,1,0,0:0:0:0:
346,269,33307,1,2,0:0:0:0:
346,269,33415,1,2,0:0:0:0:
346,269,33524,1,2,0:0:0:0:
489,212,33742,1,0,0:0:0:0:
261,155,33959,5,0,0:0:0:0:
430,264,34176,1,2,0:0:0:0:
430,264,34285,1,2,0:0:0:0:
430,264,34394,1,6,0:0:0:0:
273,332,34611,1,4,0:0:0:0:
216,174,34829,1,2,0:0:0:0:
380,182,35046,1,2,0:0:0:0:
380,182,35155,1,2,0:0:0:0:
380,182,35263,1,2,0:0:0:0:
119,208,35481,1,4,0:0:0:0:
397,337,35698,5,4,0:0:0:0:
278,203,35915,1,2,0:0:0:0:
278,203,36024,1,2,0:0:0:0:
278,203,36133,1,2,0:0:0:0:
404,73,36350,1,0,0:0:0:0:
456,190,36568,2,0,P|417:184|380:169,1,80,0|2,0:0|0:0,0:0:0:0:
348,146,36894,1,2,0:0:0:0:
348,146,37002,1,2,0:0:0:0:
273,300,37220,1,0,0:0:0:0:
245,152,37437,5,0,0:0:0:0:
95,209,37655,1,2,0:0:0:0:
95,209,37763,1,2,0:0:0:0:
95,209,37872,2,0,P|87:248|90:287,1,80,2|0,0:0|0:0,0:0:0:0:
46,131,38307,1,0,0:0:0:0:
195,251,38524,1,2,0:0:0:0:
195,251,38633,1,2,0:0:0:0:
195,251,38742,1,2,0:0:0:0:
258,81,38959,1,0,0:0:0:0:
375,241,39176,6,0,L|349:318,1,80,0|2,0:0|0:0,0:0:0:0:
338,356,39502,1,2,0:0:0:0:
338,356,39611,1,2,0:0:0:0:
277,164,39829,1,0,0:0:0:0:
474,140,40046,2,0,L|386:153,1,80,0|2,0:0|0:0,0:0:0:0:
358,156,40372,1,2,0:0:0:0:
358,156,40481,1,2,0:0:0:0:
257,64,40698,1,4,0:0:0:0:
115,199,40915,6,0,L|230:166,1,120,0|2,0:0|0:0,0:0:0:0:
231,138,41350,2,0,P|179:216|235:291,1,200,4|0,0:0|0:0,0:0:0:0:
270,300,42002,1,0,0:0:0:0:
388,225,42220,2,0,L|269:215,1,120,4|4,0:0|0:0,0:0:0:0:
180,211,42655,6,0,L|133:118,1,80,4|0,0:0|0:0,0:0:0:0:
61,73,42981,1,0,0:0:0:0:
61,73,43089,2,0,L|72:164,1,80,8|0,0:0|0:0,0:0:0:0:
78,301,43524,1,8,0:0:0:0:
139,224,43742,1,0,0:0:0:0:
195,343,43959,2,0,L|277:336,1,80,2|0,0:0|0:0,0:0:0:0:
326,332,44285,1,0,0:0:0:0:
326,332,44394,5,8,0:0:0:0:
464,253,44611,2,2,L|497:231,2,40,0|0|0,0:0|0:0|0:0,0:0:0:0:
314,218,45046,2,2,L|275:206,2,40,0|0|8,0:0|0:0|0:0,0:0:0:0:
403,130,45481,1,2,0:0:0:0:
403,130,45589,1,2,0:0:0:0:
403,130,45698,1,2,0:0:0:0:
259,78,45915,2,2,L|270:117,1,40,0|0,0:0|0:0,0:0:0:0:
193,148,46133,6,0,P|137:131|81:149,1,120,8|2,0:0|0:0,0:0:0:0:
52,173,46568,2,0,L|58:270,1,80,2|0,0:0|0:0,0:0:0:0:
157,360,46894,1,2,0:0:0:0:
157,360,47002,2,0,L|165:255,1,80,8|0,0:0|0:0,0:0:0:0:
170,231,47329,1,2,0:0:0:0:
170,231,47437,1,2,0:0:0:0:
290,313,47655,1,0,0:0:0:0:
301,111,47872,5,8,0:0:0:0:
270,222,48089,1,2,0:0:0:0:
468,197,48307,1,2,0:0:0:0:
205,141,48524,1,2,0:0:0:0:
394,38,48742,1,10,0:0:0:0:
357,262,48959,1,2,0:0:0:0:
327,144,49176,2,0,P|298:85|266:111,1,120,0|0,0:0|0:0,0:0:0:0:
205,141,49611,6,0,L|83:142,1,120,8|2,0:0|0:0,0:0:0:0:
41,142,50046,1,2,0:0:0:0:
131,34,50263,1,2,0:0:0:0:
131,34,50372,1,2,0:0:0:0:
131,34,50481,1,10,0:0:0:0:
105,250,50698,1,2,0:0:0:0:
205,162,50915,2,0,L|285:175,1,80,2|0,0:0|0:0,0:0:0:0:
101,142,51350,5,8,0:0:0:0:
212,268,51568,1,2,0:0:0:0:
288,88,51785,1,2,0:0:0:0:
319,204,52002,1,2,0:0:0:0:
205,162,52220,1,8,0:0:0:0:
402,130,52437,1,2,0:0:0:0:
209,65,52655,2,0,P|152:79|118:127,1,120,2|0,0:0|0:0,0:0:0:0:
108,168,53089,5,8,0:0:0:0:
57,308,53307,1,2,0:0:0:0:
57,308,53415,1,2,0:0:0:0:
57,308,53524,1,2,0:0:0:0:
224,209,53742,1,2,0:0:0:0:
53,95,53959,1,2,0:0:0:0:
212,295,54176,1,2,0:0:0:0:
199,58,54394,1,2,0:0:0:0:
89,233,54611,1,2,0:0:0:0:
397,148,54829,5,2,0:0:0:0:
143,143,55046,1,2,0:0:0:0:
212,295,55263,2,0,P|253:327|320:312,1,120,4|0,0:0|0:0,0:0:0:0:
272,256,55698,2,0,L|262:133,1,120,2|0,0:0|0:0,0:0:0:0:
247,67,56133,2,0,P|304:76|336:138,1,120,2|0,0:0|0:0,0:0:0:0:
264,196,56568,6,0,L|179:227,1,80,2|0,0:0|0:0,0:0:0:0:
118,253,56894,1,0,0:0:0:0:
118,253,57002,1,8,0:0:0:0:
56,197,57437,1,8,0:0:0:0:
56,119,57872,1,4,0:0:0:0:
132,91,58089,1,2,0:0:0:0:
220,160,58307,5,8,0:0:0:0:
305,321,58524,1,8,0:0:0:0:
417,183,58742,1,2,0:0:0:0:
153,299,58959,1,8,0:0:0:0:
150,33,59176,1,8,0:0:0:0:
409,326,59394,1,2,0:0:0:0:
488,13,59611,1,8,0:0:0:0:
345,234,60046,5,0,0:0:0:0:
218,248,60263,1,0,0:0:0:0:
258,59,60481,2,0,L|273:157,1,80,4|0,0:0|0:0,0:0:0:0:
155,57,60915,1,8,0:0:0:0:
41,128,61133,1,0,0:0:0:0:
186,224,61350,2,0,L|128:137,1,80,0|0,0:0|0:0,0:0:0:0:
166,318,61785,5,0,0:0:0:0:
349,304,62002,2,0,L|261:273,1,80
411,244,62437,1,0,0:0:0:0:
258,355,62655,1,8,0:0:0:0:
246,165,62872,2,0,L|235:68,1,80,0|0,0:0|0:0,0:0:0:0:
166,198,63307,1,0,0:0:0:0:
299,232,63524,5,2,0:0:0:0:
299,232,63633,1,2,0:0:0:0:
299,232,63742,2,0,L|317:331,1,80,2|0,0:0|0:0,0:0:0:0:
388,173,64176,1,0,0:0:0:0:
224,325,64394,1,8,0:0:0:0:
246,165,64611,1,2,0:0:0:0:
238,138,65046,1,0,0:0:0:0:
223,106,65481,1,0,0:0:0:0:
208,75,65915,5,0,0:0:0:0:
160,192,66133,1,8,0:0:0:0:
319,95,66350,1,0,0:0:0:0:
125,120,66568,2,0,L|39:107,1,80,0|0,0:0|0:0,0:0:0:0:
144,251,67002,5,0,0:0:0:0:
226,100,67220,1,2,0:0:0:0:
226,100,67329,1,2,0:0:0:0:
226,100,67437,2,0,L|246:206,1,80,2|0,0:0|0:0,0:0:0:0:
144,58,67872,1,8,0:0:0:0:
320,126,68089,2,0,P|366:114|433:199,1,160,0|0,0:0|0:0,0:0:0:0:
351,26,68742,5,8,0:0:0:0:
282,190,68959,2,0,P|321:200|359:189,1,80,0|0,0:0|0:0,0:0:0:0:
229,97,69394,1,0,0:0:0:0:
206,260,69611,1,8,0:0:0:0:
69,160,69829,2,0,L|174:171,1,80,0|0,0:0|0:0,0:0:0:0:
47,73,70263,1,0,0:0:0:0:
50,260,70481,5,2,0:0:0:0:
50,260,70589,1,2,0:0:0:0:
50,260,70698,2,0,P|99:261|138:324,1,120,2|0,0:0|0:0,0:0:0:0:
145,350,71133,1,0,0:0:0:0:
183,197,71350,1,8,0:0:0:0:
67,328,71568,6,0,L|44:204,1,120,0|0,0:0|0:0,0:0:0:0:
8,202,72002,2,0,P|66:205|109:166,1,120,2|0,0:0|0:0,0:0:0:0:
118,96,72437,2,0,P|168:124|179:181,1,120,2|0,0:0|0:0,0:0:0:0:
172,217,72872,1,2,0:0:0:0:
264,109,73089,1,8,0:0:0:0:
118,96,73307,1,0,0:0:0:0:
270,208,73524,2,0,P|313:211|362:202,1,80,8|0,0:0|0:0,0:0:0:0:
207,160,73959,5,8,0:0:0:0:
191,196,74067,1,8,0:0:0:0:
195,235,74176,1,8,0:0:0:0:
218,267,74285,1,8,0:0:0:0:
254,284,74393,1,8,0:0:0:0:
116,225,74611,1,0,0:0:0:0:
144,356,74829,1,8,0:0:0:0:
254,284,75046,2,0,L|332:270,1,80,2|2,0:0|0:0,0:0:0:0:
414,140,75480,1,0,0:0:0:0:
459,259,75698,6,0,L|489:334,1,80,8|0,0:0|0:0,0:0:0:0:
414,140,76133,1,0,0:0:0:0:
332,270,76350,1,0,0:0:0:0:
244,133,76568,1,8,0:0:0:0:
326,178,76785,1,0,0:0:0:0:
326,178,76894,1,2,0:0:0:0:
326,178,77002,1,2,0:0:0:0:
259,36,77220,1,0,0:0:0:0:
175,198,77437,6,0,P|166:236|162:276,1,80,8|0,0:0|0:0,0:0:0:0:
70,159,77872,2,0,P|66:119|56:80,1,80,0|0,0:0|0:0,0:0:0:0:
154,120,78307,1,8,0:0:0:0:
12,211,78524,1,2,0:0:0:0:
56,80,78742,1,2,0:0:0:0:
140,218,78959,1,0,0:0:0:0:
243,82,79176,5,8,0:0:0:0:
154,120,79394,1,0,0:0:0:0:
313,161,79611,1,0,0:0:0:0:
140,218,79829,1,0,0:0:0:0:
298,255,80046,1,8,0:0:0:0:
230,182,80263,1,0,0:0:0:0:
210,277,80481,1,0,0:0:0:0:
382,228,80698,1,0,0:0:0:0:
265,344,80915,5,8,0:0:0:0:
229,360,81023,1,8,0:0:0:0:
189,359,81132,1,8,0:0:0:0:
154,340,81241,1,8,0:0:0:0:
132,307,81350,2,0,L|56:330,1,80,8|0,0:0|0:0,0:0:0:0:
7,191,81785,2,0,L|83:214,1,80,8|0,0:0|0:0,0:0:0:0:
235,144,82220,1,0,0:0:0:0:
225,288,82437,1,0,0:0:0:0:
414,241,82655,6,0,L|334:234,1,80,8|0,0:0|0:0,0:0:0:0:
166,213,83089,1,0,0:0:0:0:
273,189,83307,1,0,0:0:0:0:
225,288,83524,1,8,0:0:0:0:
113,147,83742,2,0,B|151:131|151:131|221:129|221:129|266:111,1,160,0|0,0:0|0:0,0:0:0:0:
177,44,84394,6,0,P|138:48|100:62,1,80,8|0,0:0|0:0,0:0:0:0:
108,269,84829,1,0,0:0:0:0:
26,160,85046,1,0,0:0:0:0:
174,146,85263,1,8,0:0:0:0:
61,329,85481,2,0,P|38:297|31:258,1,80,0|0,0:0|0:0,0:0:0:0:
93,100,85915,1,0,0:0:0:0:
178,233,86133,5,8,0:0:0:0:
261,103,86350,1,0,0:0:0:0:
174,146,86568,1,0,0:0:0:0:
276,208,86785,1,0,0:0:0:0:
388,93,87002,2,0,L|406:170,1,80,8|0,0:0|0:0,0:0:0:0:
446,351,87437,2,0,L|464:273,1,80,8|2,0:0|0:0,0:0:0:0:
496,144,87872,5,2,0:0:0:0:
368,264,88089,2,0,L|368:304,1,40,2|0,0:0|0:0,0:0:0:0:
368,264,88307,2,0,P|318:260|288:241,1,80
150,234,88742,2,0,P|156:278|151:318,1,80,0|2,0:0|0:0,0:0:0:0:
73,185,89176,1,2,0:0:0:0:
152,313,89394,1,0,0:0:0:0:
223,175,89611,5,0,0:0:0:0:
150,234,89829,1,2,0:0:0:0:
0,244,90046,1,2,0:0:0:0:
73,185,90264,1,0,0:0:0:0:
235,259,90481,2,0,B|266:253|297:237|305:189|305:189|314:198,1,120,0|2,0:0|0:0,0:0:0:0:
361,259,90915,2,0,P|391:189|347:126,1,160,2|0,0:0|0:0,0:0:0:0:
251,122,91568,5,2,0:0:0:0:
117,66,91785,2,0,L|106:151,1,80,2|0,0:0|0:0,0:0:0:0:
199,252,92220,2,0,L|185:173,1,80,0|2,0:0|0:0,0:0:0:0:
35,110,92655,1,2,0:0:0:0:
201,101,92872,1,0,0:0:0:0:
93,218,93089,6,0,P|87:257|89:297,1,80,0|2,0:0|0:0,0:0:0:0:
152,165,93524,1,6,0:0:0:0:
198,189,93959,1,2,0:0:0:0:
251,184,94394,1,2,0:0:0:0:
300,149,94829,5,2,0:0:0:0:
381,257,95046,1,2,0:0:0:0:
381,257,95155,1,2,0:0:0:0:
381,256,95263,2,0,P|419:249|457:261,1,80,2|0,0:0|0:0,0:0:0:0:
487,126,95698,2,0,P|448:126|412:109,1,80,0|2,0:0|0:0,0:0:0:0:
250,57,96133,1,10,0:0:0:0:
315,205,96350,1,0,0:0:0:0:
169,180,96568,5,0,0:0:0:0:
334,108,96785,1,2,0:0:0:0:
164,87,97002,1,8,0:0:0:0:
236,237,97220,1,0,0:0:0:0:
250,57,97437,1,8,0:0:0:0:
315,205,97655,1,8,0:0:0:0:
102,130,97872,2,0,L|86:249,1,120,10|0,0:0|0:0,0:0:0:0:
69,344,98307,5,8,0:0:0:0:
168,213,98524,1,2,0:0:0:0:
10,202,98742,1,8,0:0:0:0:
86,249,98959,1,0,0:0:0:0:
192,119,99176,1,8,0:0:0:0:
34,84,99394,1,2,0:0:0:0:
34,84,99502,1,2,0:0:0:0:
34,84,99611,1,10,0:0:0:0:
101,151,99829,1,0,0:0:0:0:
203,22,100047,5,8,0:0:0:0:
254,213,100263,1,2,0:0:0:0:
254,213,100372,1,2,0:0:0:0:
254,213,100481,2,0,L|302:182,1,40,8|0,0:0|0:0,0:0:0:0:
404,222,100698,2,0,L|369:242,1,40,8|0,0:0|0:0,0:0:0:0:
479,279,100915,5,8,0:0:0:0:
496,244,101023,1,8,0:0:0:0:
498,204,101132,1,8,0:0:0:0:
483,167,101241,1,8,0:0:0:0:
454,140,101350,2,0,P|395:127|338:144,1,120,4|4,0:0|0:0,0:0:0:0:
268,172,101785,2,0,B|236:177|236:177|194:139|156:150,1,120,8|0,0:0|0:0,0:0:0:0:
129,230,102220,6,0,P|77:174|92:99,1,160,8|8,0:0|0:0,0:0:0:0:
248,61,102872,1,0,0:0:0:0:
429,135,103089,2,0,B|377:132|377:132|343:158|343:158|268:149,1,160,2|8,0:0|0:0,0:0:0:0:
165,106,103742,1,0,0:0:0:0:
129,230,103959,1,0,0:0:0:0:
278,150,104176,1,0,0:0:0:0:
89,150,104394,1,8,0:0:0:0:
207,263,104611,1,2,0:0:0:0:
203,97,104829,6,0,P|268:56|340:83,1,160,2|8,0:0|0:0,0:0:0:0:
425,258,105481,1,0,0:0:0:0:
425,258,105589,1,0,0:0:0:0:
425,258,105698,1,0,0:0:0:0:
505,118,105915,1,0,0:0:0:0:
341,228,106133,1,8,0:0:0:0:
498,208,106350,1,0,0:0:0:0:
297,147,106568,1,2,0:0:0:0:
305,306,106785,1,0,0:0:0:0:
417,181,107002,5,8,0:0:0:0:
234,226,107220,1,2,0:0:0:0:
281,43,107437,2,0,P|346:66|374:97,1,80,8|0,0:0|0:0,0:0:0:0:
140,155,107872,2,0,P|114:123|98:66,1,80,8|0,0:0|0:0,0:0:0:0:
158,233,108307,2,0,P|111:242|35:184,1,120,8|0,0:0|0:0,0:0:0:0:
18,150,108742,2,0,L|31:269,1,120,8|2,0:0|0:0,0:0:0:0:
38,352,109176,6,0,B|72:332|72:332|125:368|187:352,1,160,2|10,0:0|0:0,0:0:0:0:
282,240,109829,1,2,0:0:0:0:
194,131,110046,2,0,P|145:192|143:270,1,160,2|8,0:0|0:0,0:0:0:0:
88,105,110698,1,2,0:0:0:0:
243,220,110915,1,2,0:0:0:0:
52,211,111133,1,2,0:0:0:0:
222,114,111350,1,8,0:0:0:0:
143,270,111568,1,2,0:0:0:0:
290,285,111785,6,0,B|336:290|336:290|410:273|410:273|447:279,1,160,2|8,0:0|0:0,0:0:0:0:
494,149,112437,1,2,0:0:0:0:
494,149,112546,1,2,0:0:0:0:
494,149,112655,2,0,P|455:142|421:121,1,80,2|0,0:0|0:0,0:0:0:0:
235,185,113089,2,0,P|274:177|308:156,1,80
309,55,113524,5,0,0:0:0:0:
402,202,113742,1,0,0:0:0:0:
482,61,113959,1,0,0:0:0:0:
397,114,114176,1,0,0:0:0:0:
447,277,114394,1,4,0:0:0:0:
159,151,114829,6,0,P|214:133|268:157,1,120,2|0,0:0|0:0,0:0:0:0:
209,223,115263,2,0,P|148:238|93:203,1,120,2|0,0:0|0:0,0:0:0:0:
77,131,115698,2,0,P|29:164|16:231,1,120,2|0,0:0|0:0,0:0:0:0:
59,286,116133,5,8,0:0:0:0:
186,289,116350,1,0,0:0:0:0:
119,340,116568,1,8,0:0:0:0:
245,237,116785,1,0,0:0:0:0:
123,231,117002,1,4,0:0:0:0:
241,347,117220,1,2,0:0:0:0:
325,151,117437,5,8,0:0:0:0:
478,358,117655,1,8,0:0:0:0:
490,77,117872,1,2,0:0:0:0:
410,264,118089,1,8,0:0:0:0:
175,98,118307,1,8,0:0:0:0:
492,194,118524,1,2,0:0:0:0:
156,336,118742,1,8,0:0:0:0:
114,345,119176,6,0,P|93:290|93:230,1,120,0|0,0:0|0:0,0:0:0:0:
127,200,119611,2,0,L|9:217,1,120,4|0,0:0|0:0,0:0:0:0:
22,249,120046,2,0,P|23:210|20:170,1,80,8|0,0:0|0:0,0:0:0:0:
131,79,120481,2,0,L|52:63,1,80,0|0,0:0|0:0,0:0:0:0:
138,192,120915,5,0,0:0:0:0:
255,37,121133,2,0,L|276:146,1,80,0|0,0:0|0:0,0:0:0:0:
243,265,121568,1,0,0:0:0:0:
400,196,121785,1,8,0:0:0:0:
371,360,122002,2,0,P|355:324|348:285,1,80,0|0,0:0|0:0,0:0:0:0:
416,79,122437,1,0,0:0:0:0:
476,257,122655,5,2,0:0:0:0:
476,257,122763,1,2,0:0:0:0:
475,256,122872,2,0,P|434:214|377:202,1,120,2|0,0:0|0:0,0:0:0:0:
308,223,123307,1,0,0:0:0:0:
247,347,123524,1,8,0:0:0:0:
143,193,123742,1,2,0:0:0:0:
225,150,124176,1,0,0:0:0:0:
217,237,124611,5,0,0:0:0:0:
145,97,125046,1,0,0:0:0:0:
314,112,125263,1,8,0:0:0:0:
217,237,125481,1,0,0:0:0:0:
217,237,125589,1,0,0:0:0:0:
217,237,125698,2,0,B|144:228|144:228|79:242,1,120
37,280,126133,5,0,0:0:0:0:
26,134,126350,1,2,0:0:0:0:
22,113,126459,1,2,0:0:0:0:
17,91,126568,2,0,B|52:89|52:89|77:73|119:71|119:71|110:97,1,120,2|0,0:0|0:0,0:0:0:0:
99,157,127002,1,8,0:0:0:0:
133,341,127220,2,0,P|204:312|216:237,1,160,0|0,0:0|0:0,0:0:0:0:
140,262,127872,5,8,0:0:0:0:
294,351,128089,2,0,P|341:348|397:317,1,80,0|0,0:0|0:0,0:0:0:0:
424,185,128524,1,0,0:0:0:0:
511,317,128742,1,8,0:0:0:0:
432,94,128959,2,0,P|359:121|333:194,1,160
371,335,129611,5,2,0:0:0:0:
332,344,129720,1,0,0:0:0:0:
292,340,129829,2,0,L|151:325,1,120,2|0,0:0|0:0,0:0:0:0:
97,317,130263,1,0,0:0:0:0:
52,180,130481,1,8,0:0:0:0:
192,205,130698,2,0,L|312:208,1,120
393,206,131133,5,2,0:0:0:0:
299,311,131350,1,0,0:0:0:0:
279,140,131568,2,0,P|222:155|192:205,1,120,2|0,0:0|0:0,0:0:0:0:
149,270,132002,1,2,0:0:0:0:
50,372,132220,1,8,0:0:0:0:
1,242,132437,1,0,0:0:0:0:
69,287,132655,1,8,0:0:0:0:
205,338,132872,5,0,0:0:0:0:
207,197,133089,1,8,0:0:0:0:
207,197,133198,1,8,0:0:0:0:
207,197,133307,1,8,0:0:0:0:
335,270,133524,1,2,0:0:0:0:
205,338,133742,1,0,0:0:0:0:
207,197,133959,1,8,0:0:0:0:
335,270,134176,2,0,L|412:289,1,80,2|2,0:0|0:0,0:0:0:0:
336,118,134611,1,0,0:0:0:0:
466,218,134829,6,0,L|475:120,1,80,8|0,0:0|0:0,0:0:0:0:
354,205,135263,1,0,0:0:0:0:
249,89,135481,1,0,0:0:0:0:
408,62,135698,1,8,0:0:0:0:
264,173,135915,2,0,P|225:169|191:149,1,80,0|2,0:0|0:0,0:0:0:0:
31,37,136350,1,0,0:0:0:0:
83,237,136568,6,0,L|93:152,1,80,8|0,0:0|0:0,0:0:0:0:
178,307,137002,2,0,L|188:222,1,80
197,140,137329,1,0,0:0:0:0:
197,140,137437,2,0,L|202:100,1,40,8|0,0:0|0:0,0:0:0:0:
304,60,137655,2,0,L|299:100,1,40,2|0,0:0|0:0,0:0:0:0:
285,180,137872,1,0,0:0:0:0:
341,321,138089,1,0,0:0:0:0:
444,205,138307,5,8,0:0:0:0:
316,251,138524,1,0,0:0:0:0:
424,334,138742,1,0,0:0:0:0:
366,193,138959,1,0,0:0:0:0:
507,247,139176,1,8,0:0:0:0:
394,263,139394,1,0,0:0:0:0:
403,115,139611,2,0,L|423:81,1,40
482,146,139829,2,0,L|461:180,1,40
366,193,140046,6,0,P|336:166|320:131,1,80,8|2,0:0|0:0,0:0:0:0:
296,76,140372,1,2,0:0:0:0:
296,76,140481,1,2,0:0:0:0:
206,209,140698,1,0,0:0:0:0:
117,77,140915,1,8,0:0:0:0:
206,120,141133,1,0,0:0:0:0:
279,251,141350,1,0,0:0:0:0:
252,279,141458,1,0,0:0:0:0:
215,292,141567,1,0,0:0:0:0:
175,287,141676,1,0,0:0:0:0:
143,265,141785,6,0,L|129:318,1,40,8|0,0:0|0:0,0:0:0:0:
195,170,142002,2,0,L|206:209,1,40,0|0,0:0|0:0,0:0:0:0:
280,163,142220,1,0,0:0:0:0:
318,171,142329,1,0,0:0:0:0:
349,196,142438,1,0,0:0:0:0:
366,231,142547,1,0,0:0:0:0:
365,271,142655,6,0,L|353:309,1,40,8|0,0:0|0:0,0:0:0:0:
431,372,142872,2,0,L|443:333,1,40,0|0,0:0|0:0,0:0:0:0:
457,227,143089,1,0,0:0:0:0:
446,189,143197,1,0,0:0:0:0:
427,154,143306,1,0,0:0:0:0:
401,123,143415,1,0,0:0:0:0:
369,99,143524,6,0,L|312:78,1,40,8|0,0:0|0:0,0:0:0:0:
237,172,143742,2,0,L|274:158,1,40,0|0,0:0|0:0,0:0:0:0:
215,81,143958,1,0,0:0:0:0:
179,97,144068,1,0,0:0:0:0:
140,104,144177,1,0,0:0:0:0:
100,103,144286,1,0,0:0:0:0:
61,93,144394,6,0,L|10:77,1,40,8|0,0:0|0:0,0:0:0:0:
0,174,144611,2,0,L|38:185,1,40,0|0,0:0|0:0,0:0:0:0:
132,228,144829,1,0,0:0:0:0:
142,266,144937,1,0,0:0:0:0:
135,305,145046,1,0,0:0:0:0:
112,337,145155,1,0,0:0:0:0:
77,355,145263,6,0,L|31:367,1,40,8|0,0:0|0:0,0:0:0:0:
15,261,145481,2,0,L|54:271,1,40,0|0,0:0|0:0,0:0:0:0:
221,324,145698,1,0,0:0:0:0:
260,321,145806,1,0,0:0:0:0:
293,299,145915,1,0,0:0:0:0:
312,265,146024,1,0,0:0:0:0:
312,225,146133,5,8,0:0:0:0:
313,185,146241,1,0,0:0:0:0:
329,149,146350,1,0,0:0:0:0:
357,122,146459,1,0,0:0:0:0:
395,108,146567,1,8,0:0:0:0:
421,216,146785,2,0,L|389:192,1,40
329,149,147002,5,2,0:0:0:0:
291,133,147111,1,2,0:0:0:0:
251,129,147220,1,2,0:0:0:0:
212,140,147329,1,8,0:0:0:0:
183,167,147437,1,8,0:0:0:0:
133,296,147655,1,0,0:0:0:0:
31,179,147872,1,8,0:0:0:0:
221,254,148089,2,0,L|255:336,1,80,0|8,0:0|0:0,0:0:0:0:
225,126,148524,1,0,0:0:0:0:
374,65,148742,5,8,0:0:0:0:
354,235,148959,2,0,L|322:161,1,80,0|8,0:0|0:0,0:0:0:0:
500,131,149394,1,0,0:0:0:0:
454,257,149611,1,8,0:0:0:0:
374,65,149829,2,0,L|403:139,1,80,0|8,0:0|0:0,0:0:0:0:
371,344,150263,1,0,0:0:0:0:
248,253,150481,5,8,0:0:0:0:
454,257,150698,2,0,L|374:254,1,80,0|8,0:0|0:0,0:0:0:0:
182,338,151133,2,0,L|261:335,1,80,0|8,0:0|0:0,0:0:0:0:
313,180,151568,1,0,0:0:0:0:
173,138,151785,1,8,0:0:0:0:
210,267,152002,1,0,0:0:0:0:
264,90,152220,5,8,0:0:0:0:
129,228,152437,2,0,P|71:227|31:184,1,120,2|0,0:0|0:0,0:0:0:0:
103,158,152872,2,0,L|50:265,1,120,2|0,0:0|0:0,0:0:0:0:
32,304,153307,1,0,0:0:0:0:
0,162,153524,2,0,P|25:114|77:132,1,120,8|0,0:0|0:0,0:0:0:0:
103,158,153959,6,0,L|110:197,1,40,8|0,0:0|0:0,0:0:0:0:
193,135,154176,1,0,0:0:0:0:
193,135,154285,1,0,0:0:0:0:
193,135,154394,2,0,L|200:95,1,40,8|0,0:0|0:0,0:0:0:0:
283,158,154611,2,0,L|290:197,1,40
373,135,154829,1,8,0:0:0:0:
373,135,154937,1,0,0:0:0:0:
373,135,155046,2,0,L|379:95,1,40
465,120,155263,2,0,L|474:166,1,40,2|0,0:0|0:0,0:0:0:0:
471,288,155481,2,0,L|478:248,1,40,0|0,0:0|0:0,0:0:0:0:
399,214,155698,6,0,L|360:217,1,40,8|0,0:0|0:0,0:0:0:0:
268,269,155915,1,0,0:0:0:0:
268,269,156024,1,0,0:0:0:0:
268,269,156133,2,0,L|305:282,1,40
240,347,156350,2,0,L|188:360,1,40,0|0,0:0|0:0,0:0:0:0:
147,260,156568,2,0,L|184:273,1,40,0|0,0:0|0:0,0:0:0:0:
119,338,156785,2,0,L|67:351,1,40,0|0,0:0|0:0,0:0:0:0:
26,292,157002,2,0,L|19:252,1,40,0|0,0:0|0:0,0:0:0:0:
76,153,157220,2,0,L|82:192,1,40,0|0,0:0|0:0,0:0:0:0:
1,126,157437,5,8,0:0:0:0:
22,92,157545,1,0,0:0:0:0:
57,73,157654,1,0,0:0:0:0:
96,74,157763,1,0,0:0:0:0:
130,93,157871,1,0,0:0:0:0:
151,127,157980,1,0,0:0:0:0:
172,160,158089,1,0,0:0:0:0:
207,179,158198,1,0,0:0:0:0:
246,178,158307,2,0,L|290:168,1,40,8|0,0:0|0:0,0:0:0:0:
405,232,158524,2,0,L|361:221,1,40,0|0,0:0|0:0,0:0:0:0:
235,87,158742,5,8,0:0:0:0:
434,121,158959,1,2,0:0:0:0:
291,268,159176,1,8,0:0:0:0:
345,62,159394,1,8,0:0:0:0:
316,167,159611,1,2,0:0:0:0:
73,226,159829,1,8,0:0:0:0:
387,217,160046,1,8,0:0:0:0:
154,89,160263,1,2,0:0:0:0:
214,225,160481,1,8,0:0:0:0:
214,225,160915,5,2,0:0:0:0:
374,224,167872,5,2,0:0:0:0:
336,110,174394,5,4,0:0:0:0:
410,240,174611,1,2,0:0:0:0:
410,240,174720,1,2,0:0:0:0:
410,240,174829,5,2,0:0:0:0:
219,346,175046,1,0,0:0:0:0:
220,146,175263,2,0,L|282:233,1,80
166,274,175698,1,8,0:0:0:0:
145,79,175915,2,0,P|215:46|286:77,1,160,0|0,0:0|0:0,0:0:0:0:
101,167,176568,5,8,0:0:0:0:
72,352,176785,2,0,L|53:274,1,80,0|2,0:0|0:0,0:0:0:0:
30,202,177111,1,2,0:0:0:0:
30,202,177220,1,2,0:0:0:0:
180,203,177437,1,8,0:0:0:0:
166,354,177655,2,0,L|184:276,1,80,0|0,0:0|0:0,0:0:0:0:
88,137,178089,1,8,0:0:0:0:
275,228,178307,5,2,0:0:0:0:
275,228,178415,1,2,0:0:0:0:
275,228,178524,2,0,B|290:211|290:211|268:269|290:337,1,120,2|0,0:0|0:0,0:0:0:0:
296,344,178959,1,0,0:0:0:0:
421,274,179176,1,8,0:0:0:0:
374,250,179394,6,0,L|500:246,1,120,2|0,0:0|0:0,0:0:0:0:
387,164,179829,2,0,L|262:169,1,120,2|0,0:0|0:0,0:0:0:0:
352,78,180263,2,0,L|484:72,1,120,2|0,0:0|0:0,0:0:0:0:
489,151,180698,1,2,0:0:0:0:
400,299,180915,1,8,0:0:0:0:
299,153,181133,1,0,0:0:0:0:
395,201,181350,1,8,0:0:0:0:
281,310,181568,1,0,0:0:0:0:
487,248,181785,5,8,0:0:0:0:
299,153,182003,1,2,0:0:0:0:
299,153,182112,1,2,0:0:0:0:
299,153,182220,2,0,L|378:141,1,80,8|0,0:0|0:0,0:0:0:0:
148,81,182655,1,8,0:0:0:0:
308,235,182872,1,0,0:0:0:0:
131,166,183089,1,8,0:0:0:0:
288,65,183307,1,2,0:0:0:0:
173,246,183524,5,8,0:0:0:0:
331,133,183742,2,0,L|409:111,1,80,0|8,0:0|0:0,0:0:0:0:
329,283,184177,1,0,0:0:0:0:
194,214,184394,1,8,0:0:0:0:
388,211,184611,1,0,0:0:0:0:
235,295,184829,1,8,0:0:0:0:
236,131,185046,1,0,0:0:0:0:
377,351,185264,5,10,0:0:0:0:
286,209,185481,1,0,0:0:0:0:
286,209,185589,1,2,0:0:0:0:
286,209,185698,1,8,0:0:0:0:
150,341,185916,1,0,0:0:0:0:
151,173,186133,1,8,0:0:0:0:
283,291,186350,2,0,L|211:257,1,80,0|8,0:0|0:0,0:0:0:0:
54,172,186785,1,0,0:0:0:0:
278,166,187002,5,10,0:0:0:0:
82,263,187220,1,0,0:0:0:0:
368,231,187437,1,8,0:0:0:0:
151,173,187655,1,2,0:0:0:0:
236,298,187872,1,8,0:0:0:0:
193,88,188090,1,0,0:0:0:0:
288,233,188307,2,0,P|328:236|368:231,1,80,8|0,0:0|0:0,0:0:0:0:
489,169,188742,5,8,0:0:0:0:
477,351,188959,1,8,0:0:0:0:
386,158,189611,1,0,0:0:0:0:
452,331,189829,1,0,0:0:0:0:
356,192,190481,5,0,0:0:0:0:
256,341,190698,1,0,0:0:0:0:
63,177,191133,1,0,0:0:0:0:
168,262,191350,1,0,0:0:0:0:
283,103,191568,1,0,0:0:0:0:
308,330,192002,1,0,0:0:0:0:
216,186,192220,5,2,0:0:0:0:
216,186,192329,1,2,0:0:0:0:
216,186,192437,1,2,0:0:0:0:
65,89,192872,1,0,0:0:0:0:
182,78,193089,1,0,0:0:0:0:
78,231,193307,1,0,0:0:0:0:
92,263,193742,1,0,0:0:0:0:
122,293,194176,5,0,0:0:0:0:
161,316,194611,1,0,0:0:0:0:
243,238,194829,1,0,0:0:0:0:
269,346,195046,1,0,0:0:0:0:
157,228,195263,1,0,0:0:0:0:
425,74,195698,5,0,0:0:0:0:
452,246,195915,1,0,0:0:0:0:
292,182,196350,1,0,0:0:0:0:
392,169,196568,1,0,0:0:0:0:
281,280,196785,1,0,0:0:0:0:
211,126,197437,5,0,0:0:0:0:
363,251,197655,1,0,0:0:0:0:
181,220,198089,1,0,0:0:0:0:
81,125,198306,1,0,0:0:0:0:
214,78,198524,1,0,0:0:0:0:
88,225,198959,1,0,0:0:0:0:
271,270,199176,5,2,0:0:0:0:
271,270,199285,1,2,0:0:0:0:
271,270,199394,1,2,0:0:0:0:
299,304,199829,1,0,0:0:0:0:
420,226,200046,1,0,0:0:0:0:
277,155,200263,1,0,0:0:0:0:
388,320,200698,1,0,0:0:0:0:
472,115,201133,21,0,0:0:0:0:
256,144,201568,1,0,0:0:0:0:
180,270,201785,1,0,0:0:0:0:
332,270,202002,1,0,0:0:0:0:
236,144,202220,22,0,B|204:124|128:132|116:224|168:288|256:312|256:312|344:288|396:224|384:132|308:124|276:144,1,576.0000140625,2|0,0:0|0:0,0:0:0:0:
