osu file format v14

[General]
AudioFilename: Get Jinxed.mp3
AudioLeadIn: 0
PreviewTime: 40266
Countdown: 0
SampleSet: Soft
StackLeniency: 0.7
Mode: 0
LetterboxInBreaks: 0
WidescreenStoryboard: 0

[Editor]
DistanceSpacing: 1
BeatDivisor: 4
GridSize: 4
TimelineZoom: 1.5

[Metadata]
Title:Get Jinxed
TitleUnicode:Get Jinxed
Artist:Agnete Kjolsrud
ArtistUnicode:Agnete Kjølsrud
Creator:Tarrasky
Version:SrTarra's Silver
Source:League of Legends
Tags:Mismagius Blue Dragon talnatch seto kousuke evilelvis irreversible srskyplayer riot games intro jinx djerv champion
BeatmapID:804268
BeatmapSetID:361740

[Difficulty]
HPDrainRate:4
CircleSize:3.5
OverallDifficulty:4
ApproachRate:5
SliderMultiplier:1.2
SliderTickRate:1

[Events]
//Background and Video events
0,0,"lagoakilagoai.jpg",0,0
Video,-294,"CrazyJinx.avi"
//Break Periods
2,61862,71128
2,83195,86795
//Storyboard Layer 0 (Background)
//Storyboard Layer 1 (Fail)
//Storyboard Layer 2 (Pass)
//Storyboard Layer 3 (Foreground)
//Storyboard Sound Samples

[TimingPoints]
329,333.333333333333,4,2,0,40,1,0
329,-133.333333333333,4,2,0,40,0,0
16328,-133.333333333333,4,2,0,50,0,0
26995,-100,4,2,0,60,0,0
37662,-133.333333333333,4,2,0,40,0,0
40328,-100,4,2,0,80,0,1
61662,-100,4,2,0,60,0,0
72328,-133.333333333333,4,2,0,60,0,0
81662,-200,4,2,0,60,0,0
87995,-100,4,2,0,60,0,0
98995,-100,4,2,0,80,0,1
120328,-83.3333333333333,4,2,0,80,0,1
130995,-83.3333333333333,4,2,0,80,0,0

[Colours]
Combo1 : 0,210,210
Combo2 : 0,0,255
Combo3 : 18,124,255
Combo4 : 255,0,255

[HitObjects]
224,280,329,5,2,0:0:0:0:
192,196,662,1,2,0:0:0:0:
248,124,995,2,0,P|313:108|378:121,1,135.000005149841,2|2,0:0|0:0,0:0:0:0:
444,184,1828,2,0,P|460:249|447:314,1,135.000005149841,2|2,0:0|0:0,0:0:0:0:
368,356,2662,1,2,0:0:0:0:
280,352,2995,5,0,3:0:0:0:
208,300,3328,2,0,P|199:256|206:212,1,90.0000034332277,2|2,0:0|0:0,0:0:0:0:
240,128,3995,1,2,0:0:0:0:
240,128,4162,2,0,P|284:120|328:127,1,90.0000034332277,2|2,0:0|0:0,0:0:0:0:
412,160,4828,1,2,0:0:0:0:
412,160,4995,2,0,L|416:60,1,90.0000034332277,4|0,0:3|0:0,0:0:0:0:
336,32,5662,37,4,0:0:0:0:
248,36,5995,2,0,L|96:40,1,135.000005149841,2|2,0:0|0:0,0:0:0:0:
48,156,6995,2,0,P|26:243|52:328,1,180.000006866455,2|2,0:0|0:0,0:0:0:0:
140,328,7995,2,0,L|144:380,2,45.0000017166138,0|0|4,0:0|0:0|0:0,0:0:0:0:
208,268,8662,6,0,P|260:248|340:260,1,135.000005149841,2|2,0:0|0:0,0:0:0:0:
460,312,9662,2,0,L|452:120,1,180.000006866455,2|0,0:0|0:0,0:0:0:0:
377,82,10662,2,0,L|381:34,2,45.0000017166138,0|0|4,0:0|0:0|0:0,0:0:0:0:
308,140,11328,38,0,P|244:152|168:120,1,135.000005149841,2|2,0:0|0:0,0:0:0:0:
68,52,12328,2,0,P|92:116|80:232,1,180.000006866455,2|2,0:0|0:0,0:0:0:0:
32,300,13328,2,0,L|80:304,2,45.0000017166138,0|0|4,0:0|0:0|0:0,0:0:0:0:
82,225,13995,6,0,L|226:221,1,135.000005149841,2|2,0:0|0:0,0:0:0:0:
260,348,14995,2,0,L|448:356,1,180.000006866455,2|2,0:0|0:0,0:0:0:0:
476,272,15995,1,0,0:0:0:0:
492,184,16328,38,0,P|495:139|483:96,1,90.0000034332277,8|0,0:0|0:0,0:0:0:0:
400,60,16995,2,0,P|355:51|311:60,1,90.0000034332277,8|0,0:0|0:0,0:0:0:0:
228,92,17662,2,0,P|183:100|139:92,1,90.0000034332277,8|0,0:0|0:0,0:0:0:0:
56,60,18328,1,8,0:0:0:0:
12,140,18662,1,8,0:0:0:0:
40,228,18995,6,0,P|83:236|128:229,1,90.0000034332277,8|0,0:0|0:0,0:0:0:0:
216,204,19662,2,0,P|260:196|304:205,1,90.0000034332277,8|0,0:0|0:0,0:0:0:0:
357,277,20328,2,0,P|383:241|388:197,1,90.0000034332277,8|0,0:0|0:0,0:0:0:0:
342,119,20995,1,8,0:0:0:0:
256,90,21328,1,8,0:0:0:0:
176,132,21662,38,0,L|168:221,1,90.0000034332277,8|0,0:0|0:0,0:0:0:0:
80,216,22328,2,0,L|87:126,1,90.0000034332277,8|0,0:0|0:0,0:0:0:0:
148,60,22995,2,0,P|192:55|231:75,1,90.0000034332277,8|0,0:0|0:0,0:0:0:0:
284,152,23662,1,8,0:0:0:0:
276,240,23995,1,8,0:0:0:0:
204,292,24328,6,0,P|160:299|116:288,1,90.0000034332277,8|0,0:0|0:0,0:0:0:0:
72,208,24995,2,0,P|61:165|70:121,1,90.0000034332277,8|0,0:0|0:0,0:0:0:0:
140,64,25662,2,0,L|236:72,1,90.0000034332277,8|0,0:0|0:0,0:0:0:0:
312,108,26328,1,8,0:0:0:0:
268,188,26662,2,0,L|272:252,1,45.0000017166138,8|8,0:0|0:0,0:0:0:0:
312,276,26995,38,0,P|369:291|427:280,1,120,4|8,0:0|0:0,0:0:0:0:
464,164,27662,2,0,P|448:107|409:62,1,120,0|8,0:0|0:0,0:0:0:0:
288,68,28328,2,0,P|246:109|227:165,1,120,0|8,0:0|0:0,0:0:0:0:
136,248,28995,1,0,0:0:0:0:
248,296,29328,2,0,L|244:360,2,60,8|8|0,0:0|0:0|0:0,0:0:0:0:
304,192,29995,5,8,0:0:0:0:
344,312,30328,2,0,P|392:328|464:308,1,120,0|8,0:0|0:0,0:0:0:0:
456,192,30995,2,0,L|436:64,1,120,0|8,0:0|0:0,0:0:0:0:
316,76,31662,2,0,P|286:79|256:75,1,60
196,64,31995,2,0,P|166:59|136:63,1,60,8|0,0:0|0:0,0:0:0:0:
84,92,32328,37,0,0:0:0:0:
100,212,32662,1,8,0:0:0:0:
203,271,32995,2,0,P|260:283|315:262,1,120,0|8,0:0|0:0,0:0:0:0:
392,172,33662,2,0,L|376:40,1,120,0|8,0:0|0:0,0:0:0:0:
272,108,34328,2,0,L|257:227,1,120,0|8,0:0|0:0,0:0:0:0:
196,332,34995,6,0,P|251:351|309:338,1,120,0|8,0:0|0:0,0:0:0:0:
392,252,35662,2,0,L|396:176,2,60,0|0|8,0:0|0:0|0:0,0:0:0:0:
496,312,36328,1,0,0:0:0:0:
476,192,36662,1,8,0:0:0:0:
500,76,36995,2,0,L|416:68,1,60,8|8,0:0|0:0,0:0:0:0:
380,84,37328,2,0,L|296:76,1,60,8|8,0:0|0:0,0:0:0:0:
264,104,37662,38,0,B|248:196|248:196|284:280,1,180.000006866455
220,340,38662,2,0,B|180:352|180:352|128:348|128:348|72:260|88:160,1,270.000010299683
176,152,39995,1,8,0:0:0:0:
176,152,40328,22,0,P|164:208|188:284,1,120,4|8,0:0|0:0,0:0:0:0:
288,324,40995,2,0,P|300:268|276:192,1,120,0|8,0:0|0:0,0:0:0:0:
252,92,41662,2,0,P|281:97|311:97,1,60
372,92,41995,2,0,P|401:92|431:97,1,60,8|0,0:0|0:0,0:0:0:0:
460,152,42328,2,0,L|456:216,2,60,2|2|2,0:0|0:0|0:0,0:0:0:0:
380,240,42995,6,0,P|322:256|265:241,1,120,4|8,3:0|0:0,0:0:0:0:
228,128,43662,1,0,0:0:0:0:
128,192,43995,1,8,0:0:0:0:
112,308,44328,2,0,P|166:331|223:319,1,120,0|8,0:0|0:0,0:0:0:0:
300,228,44995,2,0,L|308:160,1,60
360,140,45328,2,0,L|367:80,1,60,8|0,0:0|0:0,0:0:0:0:
420,52,45662,37,4,0:0:0:0:
472,160,45995,1,8,0:0:0:0:
387,244,46328,2,0,P|329:256|272:239,1,120,0|8,0:0|0:0,0:0:0:0:
236,192,46828,1,0,0:0:0:0:
220,136,46995,2,0,L|236:16,1,120,0|8,0:0|0:0,0:0:0:0:
344,72,47662,2,0,B|372:80|372:80|408:80,2,60,2|2|2,0:0|0:0|0:0,0:0:0:0:
436,148,48328,6,0,P|452:188|436:276,1,120,4|8,3:0|0:0,0:0:0:0:
336,312,48995,2,0,L|272:308,1,60
236,264,49328,2,0,P|231:234|232:204,1,60,8|0,0:0|0:0,0:0:0:0:
264,152,49662,2,0,P|276:94|263:36,1,120,0|8,0:0|0:0,0:0:0:0:
144,44,50328,1,8,0:0:0:0:
152,164,50662,2,0,L|156:240,1,60,8|8,0:0|0:0,0:0:0:0:
192,272,50995,38,0,P|250:284|307:269,1,120,4|8,0:0|0:0,0:0:0:0:
356,156,51662,2,0,L|339:37,1,120,0|8,0:0|0:0,0:0:0:0:
224,64,52328,1,0,0:0:0:0:
104,64,52662,1,8,0:0:0:0:
164,168,52995,2,0,L|168:236,2,60,2|2|2,0:0|0:0|0:0,0:0:0:0:
240,260,53662,6,0,P|296:276|353:260,1,120,4|8,3:0|0:0,0:0:0:0:
416,156,54328,2,0,L|412:36,1,120,0|8,0:0|0:0,0:0:0:0:
291,43,54995,2,0,P|262:44|232:51,1,60
180,80,55328,2,0,P|180:109|187:139,1,60,8|0,0:0|0:0,0:0:0:0:
212,192,55662,2,0,P|243:242|288:281,1,120,0|8,0:0|0:0,0:0:0:0:
392,220,56328,37,4,0:0:0:0:
416,100,56662,1,8,0:0:0:0:
312,40,56995,2,0,P|253:29|196:43,1,120,0|8,0:0|0:0,0:0:0:0:
84,88,57662,2,0,P|52:138|50:197,1,120,0|8,0:0|0:0,0:0:0:0:
160,248,58328,2,0,P|189:252|219:249,2,60,2|2|2,0:0|0:0|0:0,0:0:0:0:
252,168,58995,6,0,P|310:155|368:168,1,120,4|8,3:0|0:0,0:0:0:0:
464,240,59662,2,0,L|476:108,1,120,0|8,0:0|0:0,0:0:0:0:
368,64,60328,2,0,P|309:50|251:63,1,120,0|8,3:0|0:0,0:0:0:0:
172,156,60995,2,0,L|168:224,1,60
220,252,61328,2,0,L|216:311,1,60,8|0,0:0|0:0,0:0:0:0:
248,360,61662,21,4,0:0:0:0:
216,88,72328,37,4,0:0:0:0:
216,88,72662,2,0,P|193:151|200:217,1,135.000005149841
128,104,73662,2,0,P|120:208|156:292,1,180.000006866455,4|8,0:3|0:0,0:0:0:0:
236,268,74662,2,0,L|248:320,2,45.0000017166138,4|8|4,0:3|0:0|0:0,0:0:0:0:
312,216,75328,6,0,B|336:144|336:144|308:152|277:142,1,135.000005149841
412,152,76328,2,0,B|376:260|376:260|351:291|312:296,1,180.000006866455,4|8,0:3|0:0,0:0:0:0:
236,268,77328,2,0,L|228:208,2,45.0000017166138,4|8|4,0:3|0:0|0:0,0:0:0:0:
148,284,77995,37,0,0:0:0:0:
64,248,78328,1,8,0:0:0:0:
44,160,78662,1,0,0:0:0:0:
96,88,78995,2,0,B|131:65|131:65|176:84|220:88|220:88|268:64,1,180.000006866455,4|8,0:3|0:0,0:0:0:0:
352,80,79995,2,0,L|360:32,2,45.0000017166138,4|8|4,0:3|0:0|0:0,0:0:0:0:
380,168,80662,6,0,B|390:198|380:228|380:228|396:260,2,90.0000034332277,0|8|0,0:0|0:0|0:0,0:0:0:0:
308,200,81662,2,0,B|281:222|260:220|260:220|237:197|208:184|208:184|152:224|80:192,1,240,4|4,0:3|0:0,0:0:0:0:
268,202,87995,37,8,0:0:0:0:
268,202,88162,1,8,0:0:0:0:
268,202,88328,6,0,P|325:217|382:202,1,120,4|8,0:0|0:0,0:0:0:0:
448,102,88995,2,0,P|387:83|324:98,1,120,0|8,0:0|0:0,0:0:0:0:
221,48,89662,2,0,B|161:59|161:59|100:39,1,120,0|8,0:0|0:0,0:0:0:0:
21,126,90328,2,0,B|81:115|81:115|142:135,1,120,0|8,0:0|0:0,0:0:0:0:
181,174,90828,2,0,P|186:202|180:234,1,60,8|0,0:0|0:0,0:0:0:0:
288,284,91328,38,0,B|340:272|340:272|371:275|406:287,2,120,8|0|8,0:0|0:0|0:0,0:0:0:0:
363,191,92328,2,0,P|376:133|356:72,1,120,0|8,0:0|0:0,0:0:0:0:
264,1,92995,2,0,P|238:69|251:127,1,120,0|8,0:0|0:0,0:0:0:0:
158,196,93662,6,0,B|96:202|96:202|67:196|43:181,1,120,0|8,0:0|0:0,0:0:0:0:
103,284,94328,2,0,B|164:277|164:277|193:283|217:298,1,120,0|8,0:0|0:0,0:0:0:0:
323,357,94995,2,0,L|452:357,1,120,0|8,0:0|0:0,0:0:0:0:
494,248,95662,2,0,L|365:248,1,120,0|8,0:0|0:0,0:0:0:0:
296,156,96328,37,0,0:0:0:0:
192,224,96662,2,0,P|144:236|60:216,2,120,8|0|8,0:0|0:0|0:0,0:0:0:0:
132,120,97662,2,0,P|73:107|15:120,1,120,0|8,0:0|0:0,0:0:0:0:
75,223,98328,2,0,P|76:256|68:288,2,60,8|8|8,0:0|0:0|0:0,0:0:0:0:
132,328,98995,22,0,B|168:347|168:347|263:347,1,120,4|8,0:0|0:0,0:0:0:0:
328,260,99662,2,0,B|292:241|292:241|197:241,1,120,0|8,0:0|0:0,0:0:0:0:
299,158,100328,2,0,L|357:188,1,60
408,209,100662,2,0,P|433:207|467:190,1,60,8|0,0:0|0:0,0:0:0:0:
485,136,100995,2,0,P|483:101|485:67,2,60,2|2|2,0:0|0:0|0:0,0:0:0:0:
416,36,101662,6,0,P|373:43|289:33,1,120,4|8,3:0|0:0,0:0:0:0:
188,84,102328,2,0,P|184:114|187:144,2,60,0|0|8,0:0|0:0|0:0,0:0:0:0:
260,180,102995,2,0,P|304:223|361:231,1,120,0|8,0:0|0:0,0:0:0:0:
280,324,103662,2,0,L|151:324,1,120,0|8,0:0|0:0,0:0:0:0:
104,344,104162,1,0,0:0:0:0:
48,360,104328,38,0,P|50:300|40:218,1,120,4|8,0:0|0:0,0:0:0:0:
136,160,104995,2,0,P|196:162|261:161,1,120,0|8,0:0|0:0,0:0:0:0:
336,72,105662,2,0,P|276:70|211:71,1,120,0|8,0:0|0:0,0:0:0:0:
105,34,106328,2,0,P|61:37|28:29,2,60,2|2|2,0:0|0:0|0:0,0:0:0:0:
8,108,106995,6,0,B|-2:166|-2:166|5:235,1,120,4|8,3:0|0:0,0:0:0:0:
110,285,107662,2,0,B|120:227|120:227|113:158,1,120,0|8,0:0|0:0,0:0:0:0:
228,199,108328,2,0,P|286:214|352:195,1,120,0|8,0:0|0:0,0:0:0:0:
444,132,108995,2,0,P|464:192|452:252,1,120,8|8,0:0|0:0,0:0:0:0:
343,200,109662,37,4,0:0:0:0:
376,84,109995,2,0,B|331:69|331:69|295:66|254:80,2,120,8|0|8,0:0|0:0|0:0,0:0:0:0:
304,180,110995,2,0,P|289:231|305:309,1,120,0|8,0:0|0:0,0:0:0:0:
180,272,111662,2,0,P|184:305|178:337,2,60,2|2|2,0:0|0:0|0:0,0:0:0:0:
112,368,112328,6,0,B|53:366|53:366|-5:324,1,120,4|8,3:0|0:0,0:0:0:0:
63,221,112995,2,0,P|73:173|59:98,1,120,0|8,0:0|0:0,0:0:0:0:
174,63,113662,1,0,0:0:0:0:
266,138,113995,1,8,0:0:0:0:
367,74,114328,2,0,B|405:55|405:55|493:55,1,120,0|8,0:0|0:0,0:0:0:0:
490,174,114995,38,0,B|452:193|452:193|364:193,1,120,4|8,0:0|0:0,0:0:0:0:
303,290,115662,1,0,0:0:0:0:
195,236,115995,2,0,P|178:175|198:115,2,120,8|0|8,0:0|0:0|0:0,0:0:0:0:
273,144,116995,2,0,P|273:98|264:75,2,60,2|2|2,0:0|0:0|0:0,0:0:0:0:
208,44,117662,6,0,P|164:48|116:108,1,120,4|8,3:0|0:0,0:0:0:0:
68,212,118328,2,0,P|54:270|72:336,1,120,0|8,0:0|0:0,0:0:0:0:
188,336,118995,2,0,B|226:361|226:361|321:361,1,120,0|8,0:0|0:0,0:0:0:0:
388,280,119662,1,8,0:0:0:0:
272,240,119995,1,8,0:0:0:0:
272,240,120162,1,0,0:0:0:0:
272,240,120328,38,0,B|263:170|263:170|277:97,1,143.999995605469,4|8,0:0|0:0,0:0:0:0:
148,32,120995,2,0,B|157:102|157:102|143:175,1,143.999995605469,0|8,0:0|0:0,0:0:0:0:
272,240,121662,2,0,P|339:266|408:237,1,143.999995605469,0|8,0:0|0:0,0:0:0:0:
460,112,122328,2,0,P|393:86|324:115,1,143.999995605469,0|8,0:0|0:0,0:0:0:0:
272,240,122995,5,4,3:0:0:0:
192,112,123328,1,8,0:0:0:0:
152,252,123662,2,0,L|156:331,1,71.9999978027344
220,360,123995,2,0,B|255:339|255:339|302:330|361:339,1,143.999995605469,8|0,0:0|0:0,0:0:0:0:
449,226,124662,1,8,0:0:0:0:
305,237,124995,2,0,L|301:165,1,71.9999978027344,4|0,3:0|3:0,0:0:0:0:
342,105,125328,2,0,P|340:58|321:30,1,71.9999978027344,4|0,3:0|0:0,0:0:0:0:
272,84,125662,38,0,L|115:84,1,143.999995605469,4|8,0:0|0:0,0:0:0:0:
99,223,126328,2,0,L|256:223,1,143.999995605469,0|8,0:0|0:0,0:0:0:0:
123,304,126995,2,0,P|53:292|14:233,1,143.999995605469,0|8,0:0|0:0,0:0:0:0:
88,111,127662,2,0,B|121:91|153:82|153:82|179:98|225:105,1,143.999995605469,0|8,0:0|0:0,0:0:0:0:
291,104,128162,1,0,0:0:0:0:
291,104,128328,6,0,B|333:97|359:81|359:81|391:90|424:110,1,143.999995605469,4|8,3:0|0:0,0:0:0:0:
420,256,128995,2,0,B|381:285|381:285|284:285,1,143.999995605469,0|8,0:0|0:0,0:0:0:0:
173,193,129662,1,0,0:0:0:0:
43,255,129995,2,0,L|56:325,1,71.9999978027344,8|0,0:0|0:0,0:0:0:0:
123,351,130328,2,0,L|207:334,1,71.9999978027344,4|0,3:0|0:0,0:0:0:0:
186,263,130662,2,0,L|172:192,1,71.9999978027344,8|0,0:0|0:0,0:0:0:0:
108,159,130995,5,4,0:0:0:0:
