osu file format v14

[General]
AudioFilename: Get Jinxed.mp3
AudioLeadIn: 0
PreviewTime: 40266
Countdown: 0
SampleSet: Soft
StackLeniency: 0.3
Mode: 0
LetterboxInBreaks: 0
WidescreenStoryboard: 1

[Editor]
Bookmarks: 5662,16328,26995,40328,50995,61662,71995,72078,72162,72245,72328,72412,72495,72578,72662,98995,120328,125662,130995
DistanceSpacing: 1.2
BeatDivisor: 1
GridSize: 4
TimelineZoom: 2.6

[Metadata]
Title:Get Jinxed
TitleUnicode:Get Jinxed
Artist:Agnete Kjolsrud
ArtistUnicode:Agnete Kjølsrud
Creator:Tarrasky
Version:Setorrasky's Bronze
Source:League of Legends
Tags:Mismagius Blue Dragon talnatch seto kousuke evilelvis irreversible srskyplayer riot games intro jinx djerv champion
BeatmapID:1066257
BeatmapSetID:361740

[Difficulty]
HPDrainRate:3
CircleSize:3
OverallDifficulty:3
ApproachRate:3
SliderMultiplier:0.8
SliderTickRate:1

[Events]
//Background and Video events
0,0,"lagoakilagoai.jpg",0,0
Video,-294,"CrazyJinx.avi"
//Break Periods
2,61862,70888
2,83195,86555
//Storyboard Layer 0 (Background)
//Storyboard Layer 1 (Fail)
//Storyboard Layer 2 (Pass)
//Storyboard Layer 3 (Foreground)
//Storyboard Sound Samples

[TimingPoints]
329,333.333333333333,4,2,0,40,1,0
5995,-100,4,2,0,60,0,0
16328,-100,4,2,0,60,0,0
37662,-100,4,2,0,60,0,0
40328,-100,4,2,0,80,0,1
61662,-100,4,2,0,60,0,0
81662,-100,4,2,0,60,0,0
87995,-100,4,2,0,60,0,0
98995,-100,4,2,0,80,0,1
130995,-100,4,2,0,60,0,0

[Colours]
Combo1 : 0,210,210
Combo2 : 0,0,255
Combo3 : 18,124,255
Combo4 : 255,0,255

[HitObjects]
60,114,329,6,0,P|131:81|204:108,1,160,2|2,0:0|0:0,0:0:0:0:
307,275,1662,2,0,P|380:302|451:269,1,160,2|2,0:0|0:0,0:0:0:0:
452,76,2995,5,2,0:0:0:0:
260,52,3662,2,0,B|208:48|154:93|154:93|104:84,2,160,2|2|4,0:0|0:0|0:3,0:0:0:0:
416,164,5662,37,4,0:0:0:0:
468,244,5995,2,0,L|309:259,1,160,2|0,0:0|0:0,0:0:0:0:
328,352,6995,2,0,L|168:338,1,160,2|0,0:0|0:0,0:0:0:0:
136,248,7995,2,0,P|152:204|176:176,1,80,0|4,0:0|0:0,0:0:0:0:
248,120,8662,6,0,P|328:100|408:112,1,160,2|0,0:0|0:0,0:0:0:0:
480,172,9662,2,0,P|436:276|247:291,1,320,2|4,0:0|0:0,0:0:0:0:
168,240,11328,38,0,L|181:80,1,160,2|0,0:0|0:0,0:0:0:0:
92,44,12328,2,0,L|78:203,1,160,2|0,0:0|0:0,0:0:0:0:
16,276,13328,2,0,P|56:296|96:296,1,80,0|4,0:0|0:0,0:0:0:0:
168,240,13995,6,0,P|243:220|328:245,1,160,2|0,0:0|0:0,0:0:0:0:
328,336,14995,2,0,P|251:356|175:336,1,160,2|0,0:0|0:0,0:0:0:0:
96,160,16328,38,0,P|168:130|247:140,1,160,8|8,0:0|0:0,0:0:0:0:
416,229,17662,2,0,L|428:41,1,160,8|8,0:0|0:0,0:0:0:0:
336,33,18662,1,8,0:0:0:0:
244,65,18995,6,0,B|198:129|198:129|188:209,1,160,8|8,0:0|0:0,0:0:0:0:
308,361,20328,2,0,B|353:296|353:296|363:216,1,160,8|8,0:0|0:0,0:0:0:0:
372,121,21328,1,8,0:0:0:0:
303,52,21662,38,0,P|226:36|151:61,1,160,8|8,0:0|0:0,0:0:0:0:
40,217,22995,2,0,P|64:292|123:344,1,160,8|8,0:0|0:0,0:0:0:0:
220,353,23995,1,8,0:0:0:0:
312,329,24328,6,0,P|364:269|380:192,1,160,8|8,0:0|0:0,0:0:0:0:
272,33,25662,2,0,L|192:39,1,80,8|0,0:0|0:0,0:0:0:0:
108,85,26328,2,0,L|28:78,1,80,8|8,0:0|0:0,0:0:0:0:
48,173,26995,38,0,P|68:253|232:305,1,240,4|8,0:0|0:0,0:0:0:0:
296,297,28328,2,0,L|299:217,1,80,0|8,0:0|0:0,0:0:0:0:
396,205,28995,2,0,L|392:284,1,80,0|8,0:0|0:0,0:0:0:0:
488,265,29662,6,0,P|500:177|364:97,1,240,0|8,0:0|0:0,0:0:0:0:
295,121,30995,2,0,P|257:131|217:131,1,80,0|8,0:0|0:0,0:0:0:0:
124,105,31662,2,0,P|85:94|45:94,1,80,0|8,0:0|0:0,0:0:0:0:
72,188,32328,38,0,B|88:308|88:308|200:352,1,240,0|8,0:0|0:0,0:0:0:0:
292,320,33662,2,0,L|295:240,1,80,0|8,0:0|0:0,0:0:0:0:
388,212,34328,2,0,L|384:132,1,80,0|8,0:0|0:0,0:0:0:0:
456,68,34995,6,0,L|216:88,1,240,0|8,0:0|0:0,0:0:0:0:
128,52,36328,2,0,L|118:131,1,80,0|8,0:0|0:0,0:0:0:0:
108,228,36995,1,8,0:0:0:0:
152,312,37328,1,8,0:0:0:0:
152,312,37662,38,0,P|262:331|311:231,1,240,2|0,0:0|0:0,0:0:0:0:
268,148,38995,2,0,P|157:128|108:228,1,240,2|8,0:0|0:0,0:0:0:0:
160,308,40328,22,0,L|239:304,1,80,4|8,0:0|0:0,0:0:0:0:
324,260,40995,2,0,L|403:263,1,80,0|8,0:0|0:0,0:0:0:0:
460,184,41662,2,0,L|472:92,1,80,0|8,0:0|0:0,0:0:0:0:
396,44,42328,1,2,0:0:0:0:
300,36,42662,1,2,0:0:0:0:
203,40,42995,6,0,P|184:116|196:195,1,160,4|0,0:3|0:0,0:0:0:0:
248,276,43995,1,8,0:0:0:0:
332,320,44328,2,0,P|370:328|410:322,1,80,0|8,0:0|0:0,0:0:0:0:
400,228,44995,2,0,P|435:209|461:179,1,80,0|8,0:0|0:0,0:0:0:0:
424,92,45662,38,0,L|345:78,1,80,4|8,0:0|0:0,0:0:0:0:
312,168,46328,2,0,L|233:181,1,80,0|8,0:0|0:0,0:0:0:0:
160,120,46995,2,0,L|152:28,1,80,0|8,0:0|0:0,0:0:0:0:
60,24,47662,1,2,0:0:0:0:
24,112,47995,1,2,0:0:0:0:
60,200,48328,6,0,P|132:244|220:232,1,160,4|0,0:0|0:0,0:0:0:0:
296,204,49328,1,8,0:0:0:0:
360,132,49662,2,0,L|366:52,1,80,0|8,0:0|0:0,0:0:0:0:
460,48,50328,2,0,L|453:127,1,80,8|8,0:0|0:0,0:0:0:0:
472,220,50995,38,0,B|376:284|324:172|228:236,1,240,4|8,0:0|0:0,0:0:0:0:
156,272,52328,2,0,L|86:312,1,80,0|8,0:0|0:0,0:0:0:0:
80,216,52995,2,0,L|1:229,1,80,0|8,0:0|0:0,0:0:0:0:
27,135,53662,6,0,P|72:31|186:24,1,240,4|8,0:0|0:0,0:0:0:0:
244,100,54995,2,0,P|251:139|250:179,1,80,0|8,0:0|0:0,0:0:0:0:
228,272,55662,2,0,P|227:311|234:351,1,80,0|8,0:0|0:0,0:0:0:0:
324,316,56328,38,0,B|464:272|464:272|364:220,1,240,4|8,0:0|0:0,0:0:0:0:
296,184,57662,2,0,L|223:149,1,80,0|8,0:0|0:0,0:0:0:0:
244,56,58328,2,0,L|316:90,1,80,0|8,0:0|0:0,0:0:0:0:
388,152,58995,6,0,P|355:263|240:268,1,240,4|8,0:0|0:0,0:0:0:0:
196,188,60328,2,0,L|192:108,1,80,0|8,0:0|0:0,0:0:0:0:
96,100,60995,2,0,L|99:179,1,80,0|8,0:0|0:0,0:0:0:0:
40,256,61662,1,4,0:0:0:0:
104,35,72328,6,0,P|87:134|140:193,1,160,4|8,0:0|0:0,0:0:0:0:
277,286,73662,2,0,P|303:212|272:140,1,160,2|8,0:0|0:0,0:0:0:0:
210,214,74662,1,0,0:0:0:0:
173,302,74995,6,0,L|336:372,1,160,4|8,0:0|0:0,0:0:0:0:
475,252,76328,2,0,B|365:283|365:283|285:248,1,160,2|8,0:0|0:0,0:0:0:0:
372,182,77328,1,0,0:0:0:0:
417,97,77662,38,0,B|372:86|372:86|269:136,1,160,4|8,0:0|0:0,0:0:0:0:
161,294,78995,2,0,L|162:98,1,160,2|8,0:0|0:0,0:0:0:0:
185,40,79995,1,0,0:0:0:0:
266,89,80328,6,0,L|431:115,1,160,4|8,0:0|0:0,0:0:0:0:
256,192,81662,12,4,82995,0:0:0:0:
30,22,87995,37,8,0:0:0:0:
87,98,88328,6,0,L|234:99,1,80,4|8,0:0|0:0,0:0:0:0:
142,191,88995,2,0,L|289:192,1,80,0|8,0:0|0:0,0:0:0:0:
194,283,89662,2,0,L|311:284,1,80,0|8,0:0|0:0,0:0:0:0:
246,375,90328,1,0,0:0:0:0:
341,364,90662,1,8,0:0:0:0:
424,315,90995,38,0,B|436:258|436:258|398:212,1,80,0|8,0:0|0:0,0:0:0:0:
511,205,91662,2,0,B|479:156|479:156|419:150,1,80,0|8,0:0|0:0,0:0:0:0:
479,60,92328,2,0,B|420:58|420:58|382:103,1,80,0|8,0:0|0:0,0:0:0:0:
328,17,92995,2,0,B|301:68|301:68|326:123,1,80,0|8,0:0|0:0,0:0:0:0:
365,167,93662,6,0,L|169:181,1,160,4|8,0:0|0:0,0:0:0:0:
88,330,94995,2,0,L|284:316,1,160,0|8,0:0|0:0,0:0:0:0:
439,327,96328,38,0,L|352:285,1,80,0|8,0:0|0:0,0:0:0:0:
441,231,96995,2,0,L|354:189,1,80,0|8,0:0|0:0,0:0:0:0:
442,134,97662,2,0,L|355:92,1,80,0|8,0:0|0:0,0:0:0:0:
444,38,98328,1,8,0:0:0:0:
354,1,98662,1,8,0:0:0:0:
284,68,98995,22,0,L|279:147,1,80,4|8,0:0|0:0,0:0:0:0:
183,148,99662,2,0,L|177:48,1,80,0|8,0:0|0:0,0:0:0:0:
84,84,100328,2,0,L|79:163,1,80,0|8,0:0|0:0,0:0:0:0:
136,240,100995,1,2,0:0:0:0:
215,294,101328,1,2,0:0:0:0:
308,324,101662,6,0,B|337:318|337:318|374:266,1,80,4|8,0:0|0:0,0:0:0:0:
282,231,102328,2,0,B|312:190|312:190|341:184,1,80,0|8,0:0|0:0,0:0:0:0:
432,212,102995,2,0,P|435:171|417:131,1,80,0|8,0:0|0:0,0:0:0:0:
485,65,103662,2,0,P|449:44|406:43,1,80,0|8,0:0|0:0,0:0:0:0:
334,104,104328,38,0,L|341:190,1,80,4|8,0:0|0:0,0:0:0:0:
249,215,104995,2,0,L|266:307,1,80,0|8,0:0|0:0,0:0:0:0:
356,317,105662,2,0,P|402:316|446:288,1,80,0|8,0:0|0:0,0:0:0:0:
474,215,106328,1,2,0:0:0:0:
474,118,106662,1,2,0:0:0:0:
406,50,106995,6,0,P|341:79|240:59,1,160,4|0,0:0|0:0,0:0:0:0:
165,85,107995,1,8,0:0:0:0:
138,177,108328,2,0,L|152:271,1,80,0|8,0:0|0:0,0:0:0:0:
244,232,108995,2,0,L|232:152,1,80,8|8,0:0|0:0,0:0:0:0:
165,85,109662,38,0,P|95:90|42:181,1,160,4|0,0:0|0:0,0:0:0:0:
64,251,110662,1,8,0:0:0:0:
139,310,110995,2,0,L|241:349,1,80,0|8,0:0|0:0,0:0:0:0:
309,333,111662,1,2,0:0:0:0:
393,287,111995,1,2,0:0:0:0:
473,233,112328,6,0,B|449:115|449:115|382:82,1,160,4|0,0:0|0:0,0:0:0:0:
317,87,113328,1,8,0:0:0:0:
236,139,113662,2,0,L|271:222,1,80,0|8,0:0|0:0,0:0:0:0:
175,241,114328,2,0,L|210:324,1,80,0|8,0:0|0:0,0:0:0:0:
295,351,114995,38,0,P|373:340|440:266,1,160,4|0,0:0|0:0,0:0:0:0:
455,193,115995,1,8,0:0:0:0:
420,103,116328,2,0,L|314:61,1,80,0|8,0:0|0:0,0:0:0:0:
274,138,116995,2,0,L|380:180,1,80,2|2,0:0|0:0,0:0:0:0:
356,263,117662,6,0,L|140:178,1,160,4|0,0:0|0:0,0:0:0:0:
147,279,118662,1,8,0:0:0:0:
232,322,118995,2,0,L|321:357,1,80,0|8,0:0|0:0,0:0:0:0:
402,345,119662,2,0,P|432:317|449:263,1,80,0|8,0:0|0:0,0:0:0:0:
433,186,120328,38,0,B|407:137|407:137|361:129,1,80,4|8,0:0|0:0,0:0:0:0:
411,40,120995,2,0,B|356:32|356:32|322:64,1,80,0|8,0:0|0:0,0:0:0:0:
245,74,121662,2,0,B|265:125|265:125|310:138,1,80,0|8,0:0|0:0,0:0:0:0:
272,226,122328,2,0,B|217:213|217:213|181:242,1,80,0|8,0:0|0:0,0:0:0:0:
239,316,122995,6,0,L|429:319,1,160,4|4,0:0|0:0,0:0:0:0:
449,134,124328,2,0,L|259:131,1,160,4|4,0:0|0:0,0:0:0:0:
222,62,125328,1,8,0:0:0:0:
148,124,125662,38,0,P|137:162|146:201,1,80,4|8,0:0|0:0,0:0:0:0:
203,280,126328,2,0,P|232:307|269:320,1,80,0|8,0:0|0:0,0:0:0:0:
364,312,126995,2,0,P|402:301|431:275,1,80,0|8,0:0|0:0,0:0:0:0:
468,188,127662,2,0,P|478:149|469:110,1,80,0|8,0:0|0:0,0:0:0:0:
392,56,128328,6,0,L|199:56,1,160,4|4,0:0|0:0,0:0:0:0:
172,240,129662,2,0,L|366:239,1,160,4|4,0:0|0:0,0:0:0:0:
416,288,130662,1,8,0:0:0:0:
416,192,130995,5,4,0:0:0:0:
