osu file format v14

[General]
AudioFilename: Get Jinxed.mp3
AudioLeadIn: 0
PreviewTime: 40266
Countdown: 0
SampleSet: Soft
StackLeniency: 0.7
Mode: 0
LetterboxInBreaks: 0
WidescreenStoryboard: 0

[Editor]
DistanceSpacing: 1.2
BeatDivisor: 4
GridSize: 4
TimelineZoom: 1.5

[Metadata]
Title:Get Jinxed
TitleUnicode:Get Jinxed
Artist:Agnete Kjolsrud
ArtistUnicode:Agnete Kjølsrud
Creator:Tarrasky
Version:Platinum
Source:League of Legends
Tags:Mismagius Blue Dragon talnatch seto kousuke evilelvis irreversible srskyplayer riot games intro jinx djerv champion
BeatmapID:803704
BeatmapSetID:361740

[Difficulty]
HPDrainRate:6
CircleSize:4
OverallDifficulty:7
ApproachRate:9
SliderMultiplier:1.8
SliderTickRate:1

[Events]
//Background and Video events
0,0,"lagoakilagoai.jpg",0,0
Video,-294,"CrazyJinx.avi"
//Break Periods
2,61862,71728
2,83195,87395
//Storyboard Layer 0 (Background)
//Storyboard Layer 1 (Fail)
//Storyboard Layer 2 (Pass)
//Storyboard Layer 3 (Foreground)
//Storyboard Sound Samples

[TimingPoints]
329,333.333333333333,4,2,0,40,1,0
329,-133.333333333333,4,2,0,40,0,0
16328,-100,4,2,0,60,0,0
37662,-200,4,2,0,30,0,0
39995,-100,4,2,0,70,0,0
40328,-100,4,2,0,80,0,1
61662,-133.333333333333,4,2,0,60,0,0
87995,-100,4,2,0,60,0,0
98995,-100,4,2,0,80,0,1
120328,-83.3333333333333,4,2,0,80,0,1
130995,-100,4,2,0,80,0,0

[Colours]
Combo1 : 0,210,210
Combo2 : 0,0,255
Combo3 : 18,124,255
Combo4 : 255,0,255

[HitObjects]
112,48,329,5,0,0:0:0:0:
88,124,495,1,0,0:0:0:0:
124,196,662,2,0,P|187:216|250:195,1,135.000005149842,2|0,0:0|0:0,0:0:0:0:
308,140,1162,2,0,L|304:72,1,67.5000025749208,2|0,0:0|0:0,0:0:0:0:
384,52,1495,2,0,L|387:119,1,67.5000025749208,2|0,0:0|0:0,0:0:0:0:
436,184,1828,2,0,P|448:248|432:332,1,135.000005149842,2|0,0:0|0:0,0:0:0:0:
360,332,2328,2,0,L|292:328,1,67.5000025749208,2|0,0:0|0:0,0:0:0:0:
272,248,2662,2,0,L|204:251,1,67.5000025749208,2|0,0:0|0:0,0:0:0:0:
124,256,2995,5,2,0:3:0:0:
124,256,3328,1,2,0:0:0:0:
152,177,3495,1,2,0:0:0:0:
216,123,3662,1,2,0:0:0:0:
298,110,3828,1,2,0:0:0:0:
376,139,3995,1,0,0:0:0:0:
376,139,4162,2,0,L|372:206,1,67.5000025749208,2|0,0:0|0:0,0:0:0:0:
452,244,4495,2,0,L|455:176,1,67.5000025749208,2|0,0:0|0:0,0:0:0:0:
476,96,4828,1,0,0:0:0:0:
476,96,4995,2,0,P|416:56|336:68,1,135.000005149842,4|0,0:3|0:2,0:0:0:0:
480,344,5662,37,4,0:0:0:0:
480,344,5995,2,0,L|340:340,1,135.000005149842,2|0,0:0|0:0,0:0:0:0:
276,300,6495,2,0,L|136:304,1,135.000005149842,2|0,0:0|0:0,0:0:0:0:
64,276,6995,2,0,P|47:211|64:146,1,135.000005149842,2|0,0:0|0:0,0:0:0:0:
116,84,7495,1,0,0:0:0:0:
192,60,7662,2,0,L|276:64,1,67.5000025749208,4|0,0:3|0:0,0:0:0:0:
364,136,7995,2,0,L|296:139,1,67.5000025749208,4|0,0:3|0:0,0:0:0:0:
368,220,8328,1,4,0:0:0:0:
252,335,8662,6,0,P|188:356|124:337,1,135.000005149842,2|0,0:0|0:0,0:0:0:0:
124,240,9162,2,0,P|187:219|251:238,1,135.000005149842,2|0,0:0|0:0,0:0:0:0:
324,276,9662,2,0,P|356:282|389:276,1,67.5000025749208,2|0,0:0|0:0,0:0:0:0:
356,204,9995,2,0,P|389:199|418:182,1,67.5000025749208,2|0,0:0|0:0,0:0:0:0:
364,124,10328,1,2,0:0:0:0:
304,72,10495,2,0,P|242:47|176:72,1,135.000005149842,2|2,0:0|0:0,0:0:0:0:
120,124,10995,1,4,0:0:0:0:
92,296,11328,38,0,P|152:324|219:320,1,135.000005149842,2|0,0:0|0:0,0:0:0:0:
284,268,11828,2,0,P|278:201|242:145,1,135.000005149842,2|0,0:0|0:0,0:0:0:0:
200,52,12328,2,0,P|270:29|344:44,1,135.000005149842,2|0,0:0|0:0,0:0:0:0:
400,72,12828,1,0,0:0:0:0:
455,127,12995,2,0,P|457:161|452:194,1,67.5000025749208,4|0,0:3|0:0,0:0:0:0:
408,304,13328,2,0,P|382:282|361:256,1,67.5000025749208,4|0,0:3|0:0,0:0:0:0:
300,356,13662,1,4,0:0:0:0:
140,348,13995,6,0,L|136:213,1,135.000005149842,2|0,0:0|0:0,0:0:0:0:
68,172,14495,2,0,L|71:37,1,135.000005149842,2|0,0:0|0:0,0:0:0:0:
152,44,14995,2,2,P|240:36|288:72,1,135.000005149842,2|0,0:0|0:0,0:0:0:0:
320,132,15495,1,2,0:0:0:0:
364,208,15662,2,0,P|397:208|429:197,1,67.5000025749208,0|2,0:0|0:0,0:0:0:0:
308,292,15995,2,0,P|339:303|373:304,1,67.5000025749208
228,235,16328,38,0,P|144:206|62:237,1,180,4|0,0:0|0:0,0:0:0:0:
16,336,16828,1,0,0:0:0:0:
76,136,16995,2,0,L|72:46,1,90,8|0,0:0|0:0,0:0:0:0:
232,20,17328,2,0,L|228:109,1,90
292,232,17662,2,0,P|388:268|468:240,1,180,8|0,0:0|0:0,0:0:0:0:
504,120,18162,1,0,0:0:0:0:
396,40,18328,2,0,L|306:43,1,90,8|0,0:0|0:0,0:0:0:0:
228,160,18662,2,0,L|317:163,1,90,8|0,0:0|0:0,0:0:0:0:
156,72,18995,6,0,P|118:126|164:252,1,180,8|0,0:0|0:0,0:0:0:0:
256,304,19495,1,0,0:0:0:0:
370,232,19662,2,0,P|397:149|356:72,1,180,8|0,0:0|0:0,0:0:0:0:
220,60,20162,1,0,0:0:0:0:
108,136,20328,2,0,L|111:225,1,90,8|0,0:0|0:0,0:0:0:0:
253,269,20662,2,0,L|256:179,1,90
260,60,20995,1,8,0:0:0:0:
392,80,21162,1,0,0:0:0:0:
256,180,21328,1,8,0:0:0:0:
388,160,21495,1,0,0:0:0:0:
240,196,21662,38,0,P|155:223|72:184,1,180,8|0,0:0|0:0,0:0:0:0:
20,52,22162,1,0,0:0:0:0:
164,96,22328,2,0,L|156:284,1,180,8|0,0:0|0:0,0:0:0:0:
256,348,22828,1,0,0:0:0:0:
367,271,22995,2,0,L|360:92,1,180,8|0,0:0|0:0,0:0:0:0:
492,120,23495,1,0,0:0:0:0:
504,256,23662,2,0,L|497:345,1,90,8|0,0:0|0:0,0:0:0:0:
367,271,23995,2,0,L|364:176,1,90,8|0,0:0|0:0,0:0:0:0:
284,72,24328,6,0,P|199:48|124:93,1,180,8|0,0:0|0:0,0:0:0:0:
76,220,24828,1,0,0:0:0:0:
192,324,24995,2,0,L|281:321,1,90,8|0,0:0|0:0,0:0:0:0:
300,188,25328,2,0,L|210:190,1,90
112,108,25662,2,0,L|115:18,1,90,8|0,0:0|0:0,0:0:0:0:
76,220,25995,2,0,L|79:309,1,90
191,88,26328,2,0,P|235:79|279:88,1,90,8|0,0:0|0:0,0:0:0:0:
300,224,26662,1,8,0:0:0:0:
372,108,26828,1,8,0:0:0:0:
400,300,26995,38,0,L|240:316,1,135,4|0,0:0|0:0,0:0:0:0:
232,316,27328,2,0,P|192:240|200:200,1,90,8|0,0:0|0:0,0:0:0:0:
161,81,27662,1,0,0:0:0:0:
278,191,27828,1,0,0:0:0:0:
119,171,27995,1,8,0:0:0:0:
259,93,28162,1,0,0:0:0:0:
191,239,28328,2,0,L|196:344,1,90
368,264,28662,2,0,L|371:174,1,90,8|0,0:0|0:0,0:0:0:0:
432,59,28995,2,0,P|474:46|519:46,1,90
508,180,29328,1,8,0:0:0:0:
440,296,29495,1,8,0:0:0:0:
304,284,29662,6,0,L|300:168,1,90
200,48,29995,1,8,0:0:0:0:
344,112,30162,1,0,0:0:0:0:
199,208,30328,2,0,P|155:216|111:209,1,90
40,96,30662,1,8,0:0:0:0:
200,48,30828,2,0,B|312:28|312:28|408:60,1,180
444,164,31328,2,0,L|440:253,1,90,8|0,0:0|0:0,0:0:0:0:
312,300,31662,2,0,L|308:210,1,90
248,88,31995,1,8,0:0:0:0:
120,136,32162,1,0,0:0:0:0:
218,215,32328,38,0,L|327:208,1,90
348,80,32662,2,0,L|457:87,1,90,8|0,0:0|0:0,0:0:0:0:
460,220,32995,2,0,P|471:263|467:307,1,90
336,332,33328,2,0,P|324:288|328:244,1,90,8|0,0:0|0:0,0:0:0:0:
376,116,33662,2,0,P|304:160|224:156,1,135
216,152,33995,2,0,L|220:32,1,90,8|0,0:0|0:0,0:0:0:0:
104,184,34328,2,0,L|106:273,1,90
232,328,34662,2,0,P|275:339|319:334,1,90,8|0,0:0|0:0,0:0:0:0:
400,228,34995,5,0,0:0:0:0:
360,100,35162,1,0,0:0:0:0:
492,128,35328,2,0,L|495:217,1,90,8|0,0:0|0:0,0:0:0:0:
396,328,35662,2,0,L|392:238,1,90
352,108,35995,1,8,0:0:0:0:
308,236,36162,1,0,0:0:0:0:
280,256,36245,1,0,0:0:0:0:
251,276,36328,2,0,P|207:279|163:270,1,90
56,188,36662,2,0,L|60:76,1,90,8|0,0:0|0:0,0:0:0:0:
228,64,36995,1,8,0:0:0:0:
96,28,37162,1,8,0:0:0:0:
316,28,37328,1,8,0:0:0:0:
192,176,37495,1,8,0:0:0:0:
188,212,37578,1,8,0:0:0:0:
196,240,37662,38,0,B|245:258|245:258|272:249|272:249|301:264|301:264|334:254|334:254|381:270,1,180
500,128,38662,2,0,B|464:128|448:136|448:136|424:104|424:104|401:135|364:152|364:152|320:124|308:160|256:136,1,270
240,132,39995,5,8,0:0:0:0:
124,28,40162,1,8,0:0:0:0:
40,164,40328,6,0,L|44:268,1,90,4|0,0:0|0:0,0:0:0:0:
200,332,40662,2,0,L|203:242,1,90,8|0,0:0|0:0,0:0:0:0:
276,116,40995,2,0,P|352:88|448:128,1,180,0|8,0:0|0:0,0:0:0:0:
496,256,41495,1,0,0:0:0:0:
376,336,41662,2,0,L|286:329,1,90
324,192,41995,2,0,L|234:198,1,90,8|0,0:0|0:0,0:0:0:0:
116,280,42328,1,2,0:0:0:0:
104,136,42495,1,2,0:0:0:0:
12,248,42662,1,2,0:0:0:0:
24,104,42829,1,2,0:0:0:0:
116,280,42995,6,0,P|192:304|284:280,1,135,4|0,0:3|0:0,0:0:0:0:
284,276,43328,2,0,P|286:221|280:168,1,90,8|0,0:0|0:0,0:0:0:0:
252,44,43662,1,0,0:0:0:0:
372,124,43828,1,0,0:0:0:0:
200,112,43995,2,0,L|104:120,1,90,8|0,0:0|0:0,0:0:0:0:
32,239,44328,2,0,P|22:283|24:328,1,90
168,324,44662,2,0,P|169:279|160:235,1,90,8|0,0:0|0:0,0:0:0:0:
112,100,44995,2,0,L|22:103,1,90
216,44,45328,2,0,L|305:47,1,90,8|0,0:0|0:0,0:0:0:0:
256,184,45662,37,4,0:0:0:0:
380,252,45828,1,0,0:0:0:0:
476,143,45995,2,0,P|484:96|472:48,1,90,8|0,0:0|0:0,0:0:0:0:
332,32,46328,2,0,B|272:76|200:0|136:56,1,180,0|8,0:0|0:0,0:0:0:0:
56,148,46828,1,0,0:0:0:0:
112,280,46995,2,0,L|201:273,1,90
332,196,47328,2,0,L|242:189,1,90,8|0,0:0|0:0,0:0:0:0:
212,36,47662,1,2,0:0:0:0:
356,24,47828,1,2,0:0:0:0:
240,112,47995,1,2,0:0:0:0:
384,124,48161,1,2,0:0:0:0:
212,36,48328,6,0,L|116:40,1,90,4|0,0:3|0:0,0:0:0:0:
56,168,48662,2,0,P|45:211|44:256,1,90,8|0,0:0|0:0,0:0:0:0:
176,312,48995,1,0,0:0:0:0:
284,216,49162,1,0,0:0:0:0:
144,180,49328,1,8,0:0:0:0:
248,352,49495,1,0,0:0:0:0:
360,184,49662,2,0,L|356:94,1,90
180,20,49995,2,0,L|176:109,1,90,8|0,0:0|0:0,0:0:0:0:
32,192,50328,2,0,L|29:103,1,90,8|0,0:0|0:0,0:0:0:0:
116,304,50662,1,8,0:0:0:0:
256,328,50828,1,8,0:0:0:0:
376,248,50995,38,0,L|373:158,1,90,4|0,0:0|0:0,0:0:0:0:
476,60,51328,2,0,L|473:149,1,90,8|0,0:0|0:0,0:0:0:0:
440,308,51662,2,0,P|368:336|292:272,1,180,0|8,0:0|0:0,0:0:0:0:
256,136,52162,1,0,0:0:0:0:
364,40,52328,2,0,L|453:43,1,90
256,136,52662,2,0,L|166:139,1,90,8|0,0:0|0:0,0:0:0:0:
32,88,52995,1,2,0:0:0:0:
24,232,53162,1,2,0:0:0:0:
116,120,53328,1,2,0:0:0:0:
124,264,53495,1,2,0:0:0:0:
192,76,53662,6,0,P|241:67|304:80,1,90,4|0,0:3|0:0,0:0:0:0:
260,216,53995,2,0,P|309:225|372:212,1,90,8|0,0:0|0:0,0:0:0:0:
448,116,54328,2,0,L|456:272,1,135
439,296,54662,2,0,P|399:314|354:312,1,90,8|0,0:0|0:0,0:0:0:0:
260,216,54995,2,0,L|257:305,1,90
124,324,55328,2,0,L|121:234,1,90,8|0,0:0|0:0,0:0:0:0:
24,140,55662,2,0,P|100:104|216:136,1,180,0|8,0:0|0:0,0:0:0:0:
308,188,56162,1,0,0:0:0:0:
420,260,56328,38,0,P|418:215|428:156,1,90,4|0,0:0|0:0,0:0:0:0:
480,48,56662,2,0,L|364:52,1,90,8|0,0:0|0:0,0:0:0:0:
344,176,56995,2,0,L|228:172,1,90
128,216,57328,2,0,P|119:260|116:305,1,90,8|0,0:0|0:0,0:0:0:0:
184,116,57662,2,0,P|180:71|172:26,1,90
208,240,57995,2,0,P|215:284|227:327,1,90,8|0,0:0|0:0,0:0:0:0:
356,284,58328,1,2,0:0:0:0:
372,148,58495,1,2,0:0:0:0:
464,248,58662,1,2,0:0:0:0:
448,112,58829,1,2,0:0:0:0:
356,284,58995,6,0,L|256:280,1,90,4|0,0:3|0:0,0:0:0:0:
260,144,59328,2,0,L|160:148,1,90,8|0,0:0|0:0,0:0:0:0:
36,176,59662,2,0,P|27:131|28:87,1,90
112,272,59995,2,0,P|113:316|104:360,1,90,8|0,0:0|0:0,0:0:0:0:
152,168,60328,2,0,P|192:198|216:244,1,90
264,68,60662,2,0,P|217:87|166:85,1,90,8|0,0:0|0:0,0:0:0:0:
292,220,60995,2,0,P|298:169|325:126,1,90
444,180,61328,2,0,P|437:230|410:273,1,90,8|0,0:0|0:0,0:0:0:0:
256,304,61662,5,4,0:0:0:0:
88,312,72328,6,0,P|154:323|219:310,1,135.000005149842,4|0,0:0|0:0,0:0:0:0:
284,260,72828,1,4,0:3:0:0:
336,196,72995,2,0,P|348:130|337:64,1,135.000005149842,8|0,0:0|0:0,0:0:0:0:
264,28,73495,1,0,0:0:0:0:
184,48,73662,1,4,0:3:0:0:
132,112,73828,2,0,L|140:260,1,135.000005149842,4|4,0:3|0:3,0:0:0:0:
204,308,74328,2,0,P|266:331|332:321,1,135.000005149842,8|4,0:0|0:3,0:0:0:0:
412,284,74828,1,8,0:0:0:0:
464,212,74995,38,0,L|460:144,1,67.5000025749208,4|0,0:0|0:0,0:0:0:0:
372,136,75328,2,0,L|375:68,1,67.5000025749208,0|4,0:0|0:3,0:0:0:0:
292,40,75662,2,0,P|248:64|148:48,1,135.000005149842,8|0,0:0|0:0,0:0:0:0:
84,24,76162,1,0,0:0:0:0:
48,104,76328,1,4,0:3:0:0:
68,188,76495,2,0,L|64:328,1,135.000005149842,4|4,0:3|0:3,0:0:0:0:
148,348,76995,2,0,L|151:213,1,135.000005149842,8|4,0:0|0:3,0:0:0:0:
216,152,77495,1,8,0:0:0:0:
300,172,77662,6,0,L|296:239,1,67.5000025749208,4|0,0:0|0:0,0:0:0:0:
376,124,77995,2,0,L|372:56,1,67.5000025749208,0|4,0:0|0:3,0:0:0:0:
428,196,78328,2,0,P|459:208|492:212,1,67.5000025749208,8|0,0:0|0:0,0:0:0:0:
360,260,78662,2,0,P|326:264|295:276,1,67.5000025749208,0|0,0:3|0:0,0:0:0:0:
224,328,78995,1,4,0:3:0:0:
140,296,79162,2,0,L|136:152,1,135.000005149842,4|4,0:3|0:3,0:0:0:0:
164,80,79662,2,0,P|228:52|308:76,1,135.000005149842,8|4,0:0|0:3,0:0:0:0:
368,104,80162,1,8,0:0:0:0:
424,167,80328,38,0,P|446:142|472:121,1,67.5000025749208,4|0,0:0|0:0,0:0:0:0:
376,260,80662,2,0,P|342:261|309:256,1,67.5000025749208,0|4,0:0|0:3,0:0:0:0:
208,208,80995,2,0,L|211:140,1,67.5000025749208,8|0,0:0|0:0,0:0:0:0:
140,288,81328,2,0,L|143:355,1,67.5000025749208
32,240,81662,1,4,0:3:0:0:
32,240,81828,2,0,P|20:180|40:104,1,135.000005149842,4|4,0:3|0:3,0:0:0:0:
288,76,82328,2,0,P|228:92|176:84,1,101.250003862381,8|0,0:0|0:0,0:0:0:0:
148,72,82662,2,0,L|152:160,1,67.5000025749208,8|8,0:0|0:0,0:0:0:0:
160,280,82995,5,4,0:0:0:0:
76,188,87995,37,8,0:0:0:0:
76,62,88162,1,8,0:0:0:0:
185,125,88328,6,0,P|271:143|353:109,1,180,0|8,0:0|0:0,0:0:0:0:
436,28,88828,1,0,0:0:0:0:
436,28,88995,2,0,L|438:117,1,90
500,192,89328,2,0,L|497:281,1,90,8|0,0:0|0:0,0:0:0:0:
404,308,89662,2,0,P|323:342|239:315,1,180,0|8,0:0|0:0,0:0:0:0:
172,72,90328,2,0,L|168:161,1,90
72,176,90662,2,0,L|75:86,1,90,8|8,0:0|0:0,0:0:0:0:
144,288,90995,37,0,0:0:0:0:
412,240,91328,1,8,0:0:0:0:
156,188,91662,1,0,0:0:0:0:
424,234,91995,1,8,0:0:0:0:
200,96,92328,1,0,0:0:0:0:
436,230,92661,1,8,0:0:0:0:
272,16,92995,1,0,0:0:0:0:
447,223,93328,1,8,0:0:0:0:
244,328,93662,6,0,P|158:352|76:319,1,180,0|8,0:0|0:0,0:0:0:0:
24,228,94162,1,0,0:0:0:0:
24,228,94328,2,0,L|27:138,1,90
120,56,94662,2,0,L|123:145,1,90,8|0,0:0|0:0,0:0:0:0:
192,236,94995,2,0,P|264:256|360:200,1,180,0|8,0:0|0:0,0:0:0:0:
463,27,95662,2,0,P|468:72|466:117,1,90
428,200,95995,2,0,P|423:244|425:289,1,90,8|0,0:0|0:0,0:0:0:0:
468,368,96328,37,0,0:0:0:0:
172,320,96662,1,8,0:0:0:0:
420,148,96994,1,0,0:0:0:0:
162,301,97328,1,8,0:0:0:0:
240,24,97662,1,0,0:0:0:0:
141,307,97996,1,8,0:0:0:0:
68,36,98328,1,8,0:0:0:0:
52,204,98495,1,8,0:0:0:0:
196,136,98662,1,8,0:0:0:0:
68,36,98828,1,8,0:0:0:0:
68,36,98912,1,8,0:0:0:0:
68,36,98995,22,0,L|64:132,1,90,4|0,0:0|0:0,0:0:0:0:
156,224,99328,2,0,L|160:320,1,90,8|0,0:0|0:0,0:0:0:0:
296,308,99662,2,0,P|381:328|461:290,1,180,0|8,0:0|0:0,0:0:0:0:
488,156,100162,1,0,0:0:0:0:
399,51,100328,2,0,P|355:47|311:56,1,90
244,176,100662,2,0,P|287:185|332:180,1,90,8|0,0:0|0:0,0:0:0:0:
184,76,100995,1,2,0:0:0:0:
148,216,101162,1,2,0:0:0:0:
40,124,101328,1,2,0:0:0:0:
76,264,101495,1,2,0:0:0:0:
184,76,101662,6,0,P|248:48|336:56,1,135,4|0,0:3|0:0,0:0:0:0:
356,64,101995,2,0,L|352:153,1,90,8|0,0:0|0:0,0:0:0:0:
320,284,102328,1,0,0:0:0:0:
432,184,102495,1,0,0:0:0:0:
271,135,102662,2,0,P|227:134|182:142,1,90,8|0,0:0|0:0,0:0:0:0:
108,256,102995,2,0,L|112:360,1,90
44,172,103328,2,0,L|47:82,1,90,8|0,0:0|0:0,0:0:0:0:
180,67,103662,2,0,P|222:53|267:53,1,90
328,188,103995,2,0,P|283:187|240:173,1,90,8|0,0:0|0:0,0:0:0:0:
356,72,104328,37,4,0:0:0:0:
448,180,104495,1,0,0:0:0:0:
404,308,104662,2,0,L|296:312,1,90,8|0,0:0|0:0,0:0:0:0:
180,312,104995,2,0,P|144:228|176:144,1,180,0|8,0:0|0:0,0:0:0:0:
300,100,105495,1,0,0:0:0:0:
172,60,105662,2,0,P|128:48|83:48,1,90
28,172,105995,2,0,P|72:171|116:160,1,90,8|0,0:0|0:0,0:0:0:0:
248,32,106328,1,2,0:0:0:0:
268,164,106495,1,2,0:0:0:0:
364,68,106662,1,2,0:0:0:0:
344,200,106829,1,2,0:0:0:0:
448,52,106995,6,0,L|451:141,1,90,4|0,0:3|0:0,0:0:0:0:
344,200,107328,2,0,L|340:289,1,90,8|0,0:0|0:0,0:0:0:0:
208,324,107662,1,0,0:0:0:0:
108,232,107828,1,0,0:0:0:0:
240,176,107995,1,8,0:0:0:0:
124,348,108162,1,0,0:0:0:0:
56,160,108329,2,0,L|60:70,1,90
240,48,108662,2,0,P|284:40|329:39,1,90,8|0,0:0|0:0,0:0:0:0:
356,204,108995,2,0,P|311:204|266:197,1,90,8|0,0:0|0:0,0:0:0:0:
428,76,109328,1,8,0:0:0:0:
460,208,109495,1,8,0:0:0:0:
424,340,109662,38,0,L|334:336,1,90,4|0,0:0|0:0,0:0:0:0:
236,244,109995,2,0,L|325:240,1,90,8|0,0:0|0:0,0:0:0:0:
156,187,110328,2,0,P|140:230|143:274,1,90
216,104,110662,2,0,P|218:59|203:17,1,90,8|0,0:0|0:0,0:0:0:0:
300,168,110995,2,0,P|344:175|389:173,1,90
404,40,111328,2,0,P|359:38|314:45,1,90,8|0,0:0|0:0,0:0:0:0:
180,72,111662,1,2,0:0:0:0:
188,208,111828,1,2,0:0:0:0:
100,108,111995,1,2,0:0:0:0:
92,244,112161,1,2,0:0:0:0:
180,72,112328,6,0,L|348:76,1,135,4|0,0:3|0:0,0:0:0:0:
360,80,112662,2,0,P|369:123|365:168,1,90,8|0,0:0|0:0,0:0:0:0:
292,284,112995,2,0,L|381:287,1,90
196,344,113328,2,0,L|106:347,1,90,8|0,0:0|0:0,0:0:0:0:
55,219,113662,2,0,P|47:175|50:131,1,90
184,108,113995,2,0,P|192:152|189:196,1,90,8|0,0:0|0:0,0:0:0:0:
104,84,114328,2,0,P|152:32|256:64,1,180,0|8,0:0|0:0,0:0:0:0:
288,184,114828,1,0,0:0:0:0:
224,304,114995,38,0,L|134:300,1,90,4|0,0:0|0:0,0:0:0:0:
48,196,115328,2,0,L|137:192,1,90,8|0,0:0|0:0,0:0:0:0:
220,84,115662,2,0,L|309:87,1,90
424,196,115995,2,0,P|421:152|401:112,1,90,8|0,0:0|0:0,0:0:0:0:
346,270,116328,2,0,P|385:290|430:292,1,90
321,164,116662,2,0,P|276:165|236:186,1,90,8|0,0:0|0:0,0:0:0:0:
156,288,116995,1,2,0:0:0:0:
136,156,117162,1,2,0:0:0:0:
44,252,117328,1,2,0:0:0:0:
64,120,117495,1,2,0:0:0:0:
155,287,117662,6,0,P|197:306|231:334,1,90,4|0,0:3|0:0,0:0:0:0:
351,292,117995,2,0,P|370:250|398:216,1,90,8|0,0:0|0:0,0:0:0:0:
356,96,118328,2,0,P|314:77|280:49,1,90
160,91,118661,2,0,P|141:133|113:167,1,90,8|0,0:0|0:0,0:0:0:0:
163,295,118995,2,0,P|207:310|243:335,1,90,4|0,0:3|0:0,0:0:0:0:
359,283,119328,2,0,P|374:239|399:203,1,90,8|0,0:0|0:0,0:0:0:0:
267,47,119661,2,0,P|304:72|347:87,1,90,4|4,0:3|0:3,0:0:0:0:
111,180,119995,2,0,P|136:143|151:101,1,90,8|4,0:0|0:3,0:0:0:0:
212,308,120328,37,4,0:0:0:0:
212,308,120495,1,0,0:0:0:0:
212,308,120662,2,0,P|265:310|318:299,1,107.999996704102,8|0,0:0|0:0,0:0:0:0:
300,76,120995,1,0,0:0:0:0:
300,76,121162,1,0,0:0:0:0:
299,75,121329,2,0,P|246:73|193:84,1,107.999996704102,8|0,0:0|0:0,0:0:0:0:
92,212,121662,5,0,0:0:0:0:
92,212,121828,1,0,0:0:0:0:
92,212,121995,2,0,L|88:320,1,107.999996704102,8|0,0:0|0:0,0:0:0:0:
272,144,122328,1,0,0:0:0:0:
272,144,122494,1,0,0:0:0:0:
272,144,122661,2,0,L|276:252,1,107.999996704102,8|0,0:0|0:0,0:0:0:0:
416,336,122995,38,0,L|419:228,1,107.999996704102,4|0,0:3|0:0,0:0:0:0:
272,144,123328,2,0,L|268:36,1,107.999996704102,8|0,0:0|0:0,0:0:0:0:
120,75,123662,2,0,P|106:128|103:182,1,107.999996704102
252,248,123995,2,0,P|265:300|268:354,1,107.999996704102,8|0,0:0|0:0,0:0:0:0:
108,356,124328,6,0,L|-8:352,1,107.999996704102
104,184,124662,2,0,L|220:180,1,107.999996704102,8|0,0:0|0:0,0:0:0:0:
328,44,124995,2,0,L|220:40,1,107.999996704102
104,184,125328,2,0,P|92:252|108:320,1,107.999996704102,8|0,0:0|0:0,0:0:0:0:
364,176,125662,37,4,0:0:0:0:
364,176,125828,1,0,0:0:0:0:
364,176,125995,2,0,L|368:284,1,107.999996704102,8|0,0:0|0:0,0:0:0:0:
496,104,126328,1,0,0:0:0:0:
496,104,126494,1,0,0:0:0:0:
496,104,126661,2,0,L|492:212,1,107.999996704102,8|0,0:0|0:0,0:0:0:0:
296,316,126995,5,0,0:0:0:0:
296,316,127162,1,0,0:0:0:0:
296,316,127328,2,0,P|216:324|184:320,1,107.999996704102,8|0,0:0|0:0,0:0:0:0:
216,68,127662,1,0,0:0:0:0:
216,68,127829,1,0,0:0:0:0:
216,68,127995,2,0,P|296:60|328:64,1,107.999996704102,8|0,0:0|0:0,0:0:0:0:
129,250,128328,38,0,P|125:196|136:144,1,107.999996704102,4|0,0:3|0:0,0:0:0:0:
382,133,128662,2,0,P|386:187|376:239,1,107.999996704102,8|0,0:0|0:0,0:0:0:0:
205,76,128995,2,0,P|160:46|107:41,1,107.999996704102
308,76,129328,2,0,P|353:46|406:41,1,107.999996704102,8|0,0:0|0:0,0:0:0:0:
148,192,129662,6,0,L|141:299,1,107.999996704102
364,192,129995,2,0,L|372:299,1,107.999996704102,8|0,0:0|0:0,0:0:0:0:
164,172,130328,1,8,0:0:0:0:
348,172,130495,1,0,0:0:0:0:
128,92,130662,1,8,0:0:0:0:
384,92,130828,1,8,0:0:0:0:
256,296,130995,5,4,0:0:0:0:
