osu file format v14

[General]
AudioFilename: Get Jinxed.mp3
AudioLeadIn: 0
PreviewTime: 40266
Countdown: 0
SampleSet: Soft
StackLeniency: 0.3
Mode: 0
LetterboxInBreaks: 0
WidescreenStoryboard: 1

[Editor]
Bookmarks: 5662,16328,26995,40328,50995,61662,98995,120328,125662,130995
DistanceSpacing: 2
BeatDivisor: 4
GridSize: 4
TimelineZoom: 1.5

[Metadata]
Title:Get Jinxed
TitleUnicode:Get Jinxed
Artist:Agnete Kjolsrud
ArtistUnicode:Agnete Kjølsrud
Creator:Tarrasky
Version:Mismagius' Challenger
Source:League of Legends
Tags:Mismagius Blue Dragon talnatch seto kousuke evilelvis irreversible srskyplayer riot games intro jinx djerv champion
BeatmapID:820619
BeatmapSetID:361740

[Difficulty]
HPDrainRate:7
CircleSize:4.5
OverallDifficulty:9
ApproachRate:9.3
SliderMultiplier:1.4
SliderTickRate:1

[Events]
//Background and Video events
0,0,"lagoakilagoai.jpg",0,0
Video,-294,"CrazyJinx.avi"
//Break Periods
//Storyboard Layer 0 (Background)
//Storyboard Layer 1 (Fail)
//Storyboard Layer 2 (Pass)
//Storyboard Layer 3 (Foreground)
//Storyboard Sound Samples

[TimingPoints]
329,333.333333333333,4,2,0,40,1,0
5662,-133.333333333333,4,2,0,60,0,0
16328,-100,4,2,0,60,0,0
37662,-200,4,2,0,60,0,0
40328,-83.3333333333333,4,2,0,80,0,1
61662,-133.333333333333,4,2,0,60,0,0
81662,-133.333333333333,4,2,0,60,0,0
87995,-100,4,2,0,60,0,0
98995,-83.3333333333333,4,2,0,80,0,1
130995,-83.3333333333333,4,2,0,60,0,0

[Colours]
Combo1 : 0,210,210
Combo2 : 0,0,255
Combo3 : 18,124,255
Combo4 : 255,0,255

[HitObjects]
60,80,5662,6,0,P|136:56|220:148,1,210.000008010865,4|2,0:0|0:0,0:0:0:0:
256,240,6495,1,0,0:0:0:0:
160,288,6662,2,0,L|104:280,1,52.5000020027161
256,240,6995,6,0,P|304:244|364:208,1,105.000004005432,2|0,0:0|0:0,0:0:0:0:
286,144,7495,1,0,0:0:0:0:
160,288,7662,2,0,P|112:284|52:320,1,105.000004005432,2|0,0:0|0:0,0:0:0:0:
130,384,8162,1,0,0:0:0:0:
232,364,8328,38,0,B|285:343|285:384|339:364,1,105.000004005432
420,304,8828,1,0,0:0:0:0:
448,204,8995,2,0,L|424:152,1,52.5000020027161,2|0,0:0|0:0,0:0:0:0:
336,16,9328,2,0,L|312:68,1,52.5000020027161
188,144,9662,6,0,B|152:160|124:148|104:128|104:128|80:188|124:188|100:244,1,210.000008010865,2|8,0:0|3:0,0:0:0:0:
0,208,10495,1,0,0:0:0:0:
164,76,10662,2,0,P|208:73|226:81,1,52.5000020027161,4|0,3:0|0:0,0:0:0:0:
304,208,10995,38,0,P|348:210|366:202,1,52.5000020027161,4|0,0:0|0:0,0:0:0:0:
444,152,11328,2,0,B|456:96|456:96|432:48,1,105.000004005432,2|0,0:0|0:0,0:0:0:0:
440,248,11828,2,0,B|428:304|428:304|452:352,1,105.000004005432,2|0,0:0|0:0,0:0:0:0:
348,380,12328,5,2,0:0:0:0:
256,332,12495,1,0,0:0:0:0:
164,380,12662,1,0,0:0:0:0:
63,346,12828,1,0,0:0:0:0:
28,248,12995,2,0,L|48:192,1,52.5000020027161,8|0,3:0|0:0,0:0:0:0:
108,48,13328,2,0,L|128:104,1,52.5000020027161,4|0,3:0|0:0,0:0:0:0:
160,200,13662,38,0,P|200:208|256:180,1,105.000004005432,4|2,0:0|0:0,0:0:0:0:
256,76,14162,1,0,0:0:0:0:
160,200,14328,2,0,L|144:260,1,52.5000020027161
256,324,14662,2,0,L|256:264,1,52.5000020027161,2|0,0:0|0:0,0:0:0:0:
352,200,14995,6,0,P|396:226|447:219,1,105.000004005432,2|0,0:0|0:0,0:0:0:0:
352,100,15495,1,0,0:0:0:0:
256,200,15662,2,0,P|260:232|276:264,1,52.5000020027161
352,100,15995,2,0,P|348:68|332:36,1,52.5000020027161
204,20,16328,38,0,L|56:44,1,140,8|0,0:0|0:0,0:0:0:0:
16,172,16828,1,0,0:0:0:0:
92,292,16995,2,0,P|136:292|168:276,1,70,8|0,0:0|0:0,0:0:0:0:
272,124,17328,2,0,P|250:162|247:197,1,70
276,308,17662,6,0,P|312:336|408:332,1,140,8|0,0:0|0:0,0:0:0:0:
364,216,18162,1,0,0:0:0:0:
164,340,18328,2,0,L|88:332,1,70,8|0,0:0|0:0,0:0:0:0:
364,216,18662,2,0,L|440:208,1,70,8|0,0:0|0:0,0:0:0:0:
112,160,18995,38,0,P|96:112|132:24,1,140,8|0,0:0|0:0,0:0:0:0:
256,56,19495,1,0,0:0:0:0:
387,30,19662,2,0,P|415:93|400:160,1,140,8|0,0:0|0:0,0:0:0:0:
320,260,20162,1,0,0:0:0:0:
436,308,20328,6,0,L|512:292,1,70,8|0,0:0|0:0,0:0:0:0:
276,148,20662,2,0,L|200:164,1,70
24,200,20995,1,8,0:0:0:0:
108,364,21162,1,0,0:0:0:0:
108,116,21328,1,8,0:0:0:0:
24,300,21495,1,0,0:0:0:0:
207,162,21662,38,0,P|221:118|173:28,1,140,8|0,0:0|0:0,0:0:0:0:
108,220,22162,1,0,0:0:0:0:
300,272,22328,2,0,L|448:248,1,140,8|0,0:0|0:0,0:0:0:0:
384,136,22828,1,0,0:0:0:0:
207,162,22995,6,0,L|59:138,1,140,8|0,0:0|0:0,0:0:0:0:
123,26,23495,1,0,0:0:0:0:
184,256,23662,2,0,P|188:296|176:328,1,70,8|0,0:0|0:0,0:0:0:0:
336,152,23995,2,0,P|332:192|344:224,1,70,8|0,0:0|0:0,0:0:0:0:
212,72,24328,38,0,P|148:88|116:160,1,140,8|0,0:0|0:0,0:0:0:0:
184,256,24828,1,0,0:0:0:0:
16,208,24995,1,8,0:0:0:0:
200,156,25162,1,0,0:0:0:0:
0,308,25328,2,0,P|0:344|16:376,1,70
184,256,25662,6,0,L|328:272,1,140,8|0,0:0|0:0,0:0:0:0:
240,364,26162,1,0,0:0:0:0:
184,128,26328,2,0,L|253:120,1,70,8|0,0:0|0:0,0:0:0:0:
424,104,26662,1,0,1:0:0:0:
184,36,26828,1,0,1:0:0:0:
104,248,26995,38,0,P|100:288|112:324,1,70,4|0,0:0|0:0,0:0:0:0:
240,364,27328,1,8,0:0:0:0:
220,224,27495,1,0,0:0:0:0:
72,384,27662,2,0,L|4:372,1,70
220,224,27995,2,0,L|288:212,1,70,8|0,0:0|0:0,0:0:0:0:
476,180,28328,6,0,P|496:232|476:280,1,105
424,231,28662,2,0,P|404:179|424:131,1,105,8|0,0:0|0:0,0:0:0:0:
488,104,28995,2,0,L|504:32,1,70
272,56,29328,1,8,0:0:0:0:
512,112,29495,1,8,0:0:0:0:
248,184,29662,38,0,L|169:165,1,70
20,124,29995,1,8,0:0:0:0:
100,352,30162,1,0,0:0:0:0:
256,212,30328,1,0,0:0:0:0:
412,352,30495,1,0,0:0:0:0:
492,124,30662,1,8,0:0:0:0:
256,348,30828,1,0,0:0:0:0:
44,148,30995,6,0,L|64:64,1,70
256,212,31328,2,0,L|256:132,1,70,8|0,0:0|0:0,0:0:0:0:
468,148,31662,2,0,L|448:64,1,70
252,24,31995,1,8,0:0:0:0:
160,192,32162,1,0,0:0:0:0:
352,192,32328,38,0,P|360:232|352:264,1,70
180,296,32662,1,8,0:0:0:0:
392,344,32828,1,0,0:0:0:0:
152,384,32995,2,0,L|76:368,1,70
352,192,33328,2,0,L|428:176,1,70,8|0,0:0|0:0,0:0:0:0:
376,13,33662,5,0,0:0:0:0:
212,57,33828,1,0,0:0:0:0:
256,221,33995,1,8,0:0:0:0:
420,177,34162,1,0,0:0:0:0:
200,148,34328,37,0,0:0:0:0:
347,232,34495,1,0,0:0:0:0:
284,1,34662,1,8,0:0:0:0:
431,85,34828,1,0,0:0:0:0:
256,221,34995,6,0,P|224:236|188:236,1,70
92,136,35328,1,8,0:0:0:0:
256,68,35495,1,0,0:0:0:0:
420,136,35662,2,0,L|448:204,1,70
316,372,35995,2,0,L|288:304,1,70,8|0,0:0|0:0,0:0:0:0:
196,108,36328,37,0,0:0:0:0:
128,304,36495,1,0,0:0:0:0:
344,208,36662,1,8,0:0:0:0:
44,176,36828,1,0,0:0:0:0:
176,372,36995,5,0,1:0:0:0:
300,104,37162,1,0,1:0:0:0:
336,372,37328,1,0,1:0:0:0:
212,104,37495,1,0,1:0:0:0:
212,104,37578,1,0,1:0:0:0:
256,192,37662,12,0,38328,0:0:0:0:
140,232,38662,37,0,0:0:0:0:
196,136,38828,1,0,0:0:0:0:
84,128,38995,2,0,L|60:128,7,17.5,2|0|0|0|0|0|0|0,0:0|0:0|0:0|0:0|0:0|0:0|0:0|0:0,0:0:0:0:
32,116,39662,5,2,0:0:0:0:
172,52,39828,1,0,0:0:0:0:
288,236,39995,37,0,1:0:0:0:
80,202,40162,1,0,1:0:0:0:
316,44,40328,22,0,P|384:40|452:76,1,125.999996154785,4|0,0:0|0:0,0:0:0:0:
484,132,40662,1,8,0:0:0:0:
328,264,40828,1,0,0:0:0:0:
168,132,40995,2,0,P|152:216|168:296,1,167.999994873047,0|8,0:0|0:0,0:0:0:0:
328,384,41495,1,0,0:0:0:0:
484,295,41662,6,0,P|492:254|484:213,1,83.9999974365235
308,100,41995,1,8,0:0:0:0:
364,308,42162,1,0,0:0:0:0:
409,12,42328,37,2,0:0:0:0:
102,12,42495,1,2,0:0:0:0:
452,152,42662,1,2,0:0:0:0:
58,152,42828,1,2,0:0:0:0:
364,276,42995,6,0,P|416:288|448:280,1,83.9999974365235,4|0,3:0|0:0,0:0:0:0:
316,116,43328,1,8,0:0:0:0:
260,344,43495,1,0,0:0:0:0:
196,48,43662,1,0,0:0:0:0:
412,168,43828,1,0,0:0:0:0:
196,293,43995,2,0,L|112:280,1,83.9999974365235,8|0,0:0|0:0,0:0:0:0:
196,48,44328,38,0,P|204:100|192:180,1,125.999996154785
316,172,44662,2,0,P|306:110|315:48,1,125.999996154785,8|0,0:0|0:0,0:0:0:0:
396,24,44995,1,0,0:0:0:0:
128,116,45162,1,0,0:0:0:0:
404,256,45328,1,8,0:0:0:0:
136,348,45495,1,0,0:0:0:0:
332,136,45662,6,0,P|340:92|324:52,1,83.9999974365235,4|0,0:0|0:0,0:0:0:0:
180,184,45995,1,8,0:0:0:0:
364,252,46162,1,0,0:0:0:0:
124,336,46328,2,0,L|88:204,1,125.999996154785
72,144,46662,1,8,0:0:0:0:
280,40,46828,1,0,0:0:0:0:
212,300,46995,38,0,L|187:388,1,83.9999974365235
436,280,47328,2,0,L|460:191,1,83.9999974365235,8|0,0:0|0:0,0:0:0:0:
280,24,47662,5,2,0:0:0:0:
212,300,47829,1,2,0:0:0:0:
400,20,47996,1,2,0:0:0:0:
80,108,48162,1,2,0:0:0:0:
296,312,48328,38,0,P|340:320|380:312,1,83.9999974365235,4|0,3:0|0:0,0:0:0:0:
296,108,48662,2,0,P|252:100|212:108,1,83.9999974365235,8|0,0:0|0:0,0:0:0:0:
88,344,48995,1,0,0:0:0:0:
376,220,49162,1,0,0:0:0:0:
48,140,49328,1,8,0:0:0:0:
200,384,49495,1,0,0:0:0:0:
324,40,49662,6,0,L|232:24,1,83.9999974365235,8|0,0:0|0:0,0:0:0:0:
88,264,49995,2,0,L|180:280,1,83.9999974365235,8|0,0:0|0:0,0:0:0:0:
388,324,50328,1,8,0:0:0:0:
136,144,50495,1,0,0:0:0:0:
234,382,50662,1,8,0:0:0:0:
320,32,50828,1,8,0:0:0:0:
440,364,50995,38,0,P|402:382|360:381,1,83.9999974365235,4|0,0:0|0:0,0:0:0:0:
288,140,51328,1,8,0:0:0:0:
380,300,51495,1,0,0:0:0:0:
160,368,51662,2,0,P|117:343|113:231,1,167.999994873047,0|8,0:0|0:0,0:0:0:0:
380,300,52162,1,0,0:0:0:0:
272,64,52328,2,0,L|184:76,1,83.9999974365235
160,368,52662,2,0,L|248:356,1,83.9999974365235,8|0,0:0|0:0,0:0:0:0:
400,148,52995,5,2,0:0:0:0:
172,268,53162,1,2,0:0:0:0:
458,320,53328,1,2,0:0:0:0:
352,44,53495,1,2,0:0:0:0:
243,356,53662,38,0,L|152:368,1,83.9999974365235,4|0,3:0|0:0,0:0:0:0:
68,120,53995,1,8,0:0:0:0:
248,228,54162,1,0,0:0:0:0:
16,312,54328,2,0,B|8:268|8:268|24:220,1,83.9999974365235
232,32,54662,2,0,B|240:76|240:76|224:124,1,83.9999974365235,8|0,0:0|0:0,0:0:0:0:
152,264,54995,5,0,0:0:0:0:
28,112,55162,1,0,0:0:0:0:
304,188,55328,2,0,L|312:280,1,83.9999974365235,8|0,0:0|0:0,0:0:0:0:
56,352,55662,2,0,L|64:260,1,83.9999974365235
256,124,55995,1,8,0:0:0:0:
176,336,56162,1,0,0:0:0:0:
92,68,56328,38,0,P|164:52|244:108,1,167.999994873047,4|8,0:0|0:0,0:0:0:0:
296,292,56828,1,0,0:0:0:0:
448,160,56995,2,0,L|428:68,1,83.9999974365235
272,200,57328,1,8,0:0:0:0:
480,272,57495,1,0,0:0:0:0:
176,376,57662,6,0,B|159:352|155:327|170:293|170:293|183:258|177:232|166:215,1,167.999994873047,0|8,0:0|0:0,0:0:0:0:
80,56,58162,1,0,0:0:0:0:
40,324,58328,37,2,0:0:0:0:
336,220,58495,1,2,0:0:0:0:
56,316,58662,1,2,0:0:0:0:
196,32,58828,1,2,0:0:0:0:
287,320,58995,6,0,P|331:332|443:248,1,167.999994873047,4|8,3:0|0:0,0:0:0:0:
360,80,59495,1,0,0:0:0:0:
228,260,59662,2,0,L|132:244,1,83.9999974365235
16,72,59995,2,0,L|112:56,1,83.9999974365235,8|0,0:0|0:0,0:0:0:0:
372,20,60328,38,0,P|384:64|300:176,1,167.999994873047,0|8,0:0|0:0,0:0:0:0:
88,240,60828,1,0,0:0:0:0:
328,340,60995,5,8,0:0:0:0:
256,52,61162,1,0,0:0:0:0:
424,236,61328,1,8,0:0:0:0:
100,112,61495,1,8,0:0:0:0:
230,341,61662,6,0,P|279:356|328:340,1,105.000004005432,4|0,0:0|0:0,0:0:0:0:
424,236,62162,1,0,0:0:0:0:
192,147,62328,2,0,B|166:195|166:195|184:241,1,105.000004005432,8|0,0:0|0:0,0:0:0:0:
185,242,62995,1,0,0:0:0:0:
48,296,63162,1,0,0:0:0:0:
48,296,63495,1,0,0:0:0:0:
88,128,63662,2,0,L|56:24,1,105.000004005432,8|0,0:0|0:0,0:0:0:0:
0,204,64162,1,8,0:0:0:0:
185,242,64328,6,0,P|221:242|241:234,2,52.5000020027161
136,128,64828,1,0,0:0:0:0:
100,308,64995,2,0,P|36:328|-12:316,1,105.000004005432,8|0,0:0|0:0,0:0:0:0:
64,176,65495,1,0,0:0:0:0:
64,176,65578,1,0,0:0:0:0:
64,176,65662,1,0,0:0:0:0:
192,248,65828,1,0,0:0:0:0:
64,176,65995,2,0,P|64:148|80:120,1,52.5000020027161
192,248,66328,2,0,P|244:252|288:224,1,105.000004005432,8|0,0:0|0:0,0:0:0:0:
168,136,66828,1,8,0:0:0:0:
120,328,66995,38,0,L|60:344,1,52.5000020027161,4|0,0:0|0:0,0:0:0:0:
244,372,67328,2,0,L|304:356,1,52.5000020027161
352,164,67662,2,0,P|296:152|244:172,1,105.000004005432,8|0,0:0|0:0,0:0:0:0:
280,296,68162,1,0,0:0:0:0:
176,384,68328,1,0,0:0:0:0:
280,296,68495,1,0,0:0:0:0:
412,336,68662,2,0,L|472:328,1,52.5000020027161
280,296,68995,2,0,P|224:304|168:276,1,105.000004005432,8|0,0:0|0:0,0:0:0:0:
144,132,69495,1,8,0:0:0:0:
368,200,69662,6,0,P|384:228|388:260,1,52.5000020027161
200,216,69995,2,0,P|206:190|220:168,1,52.5000020027161
348,328,70328,2,0,P|404:336|456:304,1,105.000004005432,8|0,0:0|0:0,0:0:0:0:
244,212,70828,1,0,0:0:0:0:
244,212,70912,1,0,0:0:0:0:
244,212,70995,38,0,L|184:196,1,52.5000020027161
24,152,71328,1,0,0:0:0:0:
96,272,71495,1,0,0:0:0:0:
168,64,71662,1,8,0:0:0:0:
168,64,71995,1,8,0:0:0:0:
388,8,72162,1,8,0:0:0:0:
288,120,72328,6,0,P|266:161|268:220,1,105.000004005432,4|0,0:0|0:0,0:0:0:0:
368,316,72828,1,0,0:0:0:0:
452,192,72995,2,0,L|347:180,1,105.000004005432,8|0,0:0|0:0,0:0:0:0:
184,160,73495,1,0,0:0:0:0:
312,60,73662,1,0,0:0:0:0:
340,256,73828,1,0,0:0:0:0:
184,160,73995,2,0,P|184:128|192:104,1,52.5000020027161
340,256,74328,2,0,L|232:289,1,105.000004005432,8|0,0:0|0:0,0:0:0:0:
88,328,74828,1,8,0:0:0:0:
240,384,74995,38,0,L|348:351,1,105.000004005432
456,280,75495,1,0,0:0:0:0:
332,231,75662,2,0,P|312:192|320:128,1,105.000004005432,8|0,0:0|0:0,0:0:0:0:
56,320,76328,1,0,0:0:0:0:
184,380,76495,1,0,0:0:0:0:
60,240,76662,2,0,P|24:244|4:260,1,52.5000020027161
208,308,76995,2,0,L|236:196,1,105.000004005432,8|0,0:0|0:0,0:0:0:0:
276,76,77495,1,8,0:0:0:0:
400,180,77662,6,0,P|423:212|424:284,1,105.000004005432,4|0,0:0|0:0,0:0:0:0:
320,352,78162,1,0,0:0:0:0:
268,220,78328,1,8,0:0:0:0:
44,320,78662,1,0,0:0:0:0:
160,380,78828,1,0,0:0:0:0:
100,208,78995,2,0,P|96:164|100:144,1,52.5000020027161
272,88,79328,2,0,P|268:132|272:152,1,52.5000020027161
356,260,79662,2,0,P|416:264|464:240,1,105.000004005432,8|0,0:0|0:0,0:0:0:0:
368,116,80162,1,8,0:0:0:0:
260,236,80328,38,0,L|148:224,1,105.000004005432
24,304,80828,1,0,0:0:0:0:
84,140,80995,2,0,P|92:104|88:76,1,52.5000020027161,8|0,0:0|0:0,0:0:0:0:
0,0,81328,1,0,0:0:0:0:
256,144,81662,1,0,0:0:0:0:
360,232,81828,1,0,0:0:0:0:
232,320,81995,2,0,P|184:324|172:320,1,52.5000020027161
100,172,82328,1,8,0:0:0:0:
444,72,82662,1,8,0:0:0:0:
444,72,82828,1,8,0:0:0:0:
256,192,82995,12,0,85662,0:0:0:0:
64,136,87995,5,8,0:0:0:0:
256,44,88162,1,8,0:0:0:0:
239,256,88328,38,0,L|256:324,1,70
440,208,88662,2,0,L|423:140,1,70,8|0,0:0|0:0,0:0:0:0:
256,44,88995,2,0,P|208:40|152:64,1,105
144,132,89328,2,0,P|152:172|148:208,1,70,8|0,0:0|0:0,0:0:0:0:
92,328,89662,5,0,0:0:0:0:
64,136,89828,1,0,0:0:0:0:
244,207,89995,2,0,L|316:200,1,70,8|0,0:0|0:0,0:0:0:0:
504,184,90328,1,0,0:0:0:0:
404,84,90495,1,0,0:0:0:0:
312,312,90662,1,8,0:0:0:0:
448,275,90828,1,8,0:0:0:0:
244,208,90995,38,0,P|200:200|148:232,1,105
211,275,91328,2,0,P|216:312|212:344,1,70,8|0,0:0|0:0,0:0:0:0:
72,336,91662,1,0,0:0:0:0:
448,275,91995,1,8,0:0:0:0:
32,192,92328,5,0,0:0:0:0:
348,16,92662,1,8,0:0:0:0:
342,377,92995,2,0,P|304:384|264:376,1,70
72,336,93328,1,8,0:0:0:0:
112,8,93662,37,0,0:0:0:0:
440,48,93995,1,8,0:0:0:0:
400,376,94328,1,0,0:0:0:0:
72,336,94662,1,8,0:0:0:0:
36,120,94828,1,0,0:0:0:0:
36,120,94912,1,0,0:0:0:0:
36,120,94995,6,0,P|68:112|112:116,1,70
256,192,95328,1,8,0:0:0:0:
0,360,95662,1,0,0:0:0:0:
88,252,95828,1,0,0:0:0:0:
36,120,95995,2,0,L|48:48,1,70,8|0,0:0|0:0,0:0:0:0:
144,152,96328,37,0,0:0:0:0:
368,232,96662,1,8,0:0:0:0:
117,241,96995,1,0,0:0:0:0:
394,142,97328,1,8,0:0:0:0:
76,127,97662,1,0,0:0:0:0:
435,256,97995,1,8,0:0:0:0:
216,80,98328,5,8,0:0:0:0:
296,304,98495,1,8,0:0:0:0:
304,24,98662,1,8,0:0:0:0:
206,330,98828,1,8,0:0:0:0:
172,340,98912,1,8,0:0:0:0:
136,352,98995,6,0,L|44:324,1,83.9999974365235,4|0,0:0|0:0,0:0:0:0:
8,108,99328,1,8,0:0:0:0:
140,276,99495,1,0,0:0:0:0:
320,168,99662,2,0,P|336:116|288:8,1,167.999994873047,0|8,0:0|0:0,0:0:0:0:
192,156,100162,1,0,0:0:0:0:
396,252,100328,6,0,L|388:344,1,83.9999974365235
128,288,100662,2,0,L|136:196,1,83.9999974365235,8|0,0:0|0:0,0:0:0:0:
304,24,100995,1,2,0:0:0:0:
424,240,101162,1,2,0:0:0:0:
208,360,101328,1,2,0:0:0:0:
88,144,101495,1,2,0:0:0:0:
304,24,101662,38,0,L|400:16,1,83.9999974365235,4|0,3:0|0:0,0:0:0:0:
88,144,101995,2,0,L|-8:136,1,83.9999974365235,8|0,0:0|0:0,0:0:0:0:
424,240,102328,2,0,L|520:232,1,83.9999974365235
304,144,102662,1,8,0:0:0:0:
416,364,102828,1,0,0:0:0:0:
472,16,102995,5,0,0:0:0:0:
4,137,103328,1,8,0:0:0:0:
472,258,103662,1,0,0:0:0:0:
256,368,103828,1,0,0:0:0:0:
268,125,103995,1,8,0:0:0:0:
416,364,104162,1,0,0:0:0:0:
168,240,104328,38,0,L|72:260,1,83.9999974365235,4|0,0:0|0:0,0:0:0:0:
256,368,104662,1,8,0:0:0:0:
268,125,104828,1,0,0:0:0:0:
88,348,104995,2,0,P|32:328|0:224,1,167.999994873047,0|8,0:0|0:0,0:0:0:0:
268,125,105495,1,0,0:0:0:0:
416,364,105662,6,0,L|512:348,1,83.9999974365235
351,111,105995,2,0,L|255:127,1,83.9999974365235,8|0,0:0|0:0,0:0:0:0:
12,172,106328,37,2,0:0:0:0:
320,224,106495,1,2,0:0:0:0:
40,320,106662,1,2,0:0:0:0:
40,24,106828,1,2,0:0:0:0:
268,125,106995,6,0,P|324:124|360:112,1,83.9999974365235,4|0,3:0|0:0,0:0:0:0:
496,288,107328,2,0,P|440:289|404:301,1,83.9999974365235,8|0,0:0|0:0,0:0:0:0:
192,244,107662,1,0,0:0:0:0:
472,384,107828,1,0,0:0:0:0:
350,116,107995,1,8,0:0:0:0:
252,364,108162,1,0,0:0:0:0:
512,120,108328,1,0,0:0:0:0:
84,12,108662,37,8,0:0:0:0:
132,300,108828,1,0,0:0:0:0:
404,160,108995,1,8,0:0:0:0:
108,160,109162,1,0,0:0:0:0:
380,300,109328,1,8,0:0:0:0:
428,12,109495,1,8,0:0:0:0:
84,12,109662,6,0,P|64:56|68:96,1,83.9999974365235,4|0,0:0|0:0,0:0:0:0:
132,300,109995,1,8,0:0:0:0:
260,60,110162,1,0,0:0:0:0:
8,216,110328,2,0,L|60:380,1,167.999994873047,0|8,0:0|0:0,0:0:0:0:
256,264,110828,1,0,0:0:0:0:
453,376,110995,38,0,L|504:216,1,167.999994873047,0|8,0:0|0:0,0:0:0:0:
404,20,111495,1,0,0:0:0:0:
256,264,111662,1,2,0:0:0:0:
108,20,111828,1,2,0:0:0:0:
72,300,111995,1,2,0:0:0:0:
256,48,112162,1,2,0:0:0:0:
440,300,112328,6,0,P|412:344|304:352,1,167.999994873047,4|8,3:0|0:0,0:0:0:0:
152,240,112828,1,0,0:0:0:0:
420,224,112995,2,0,P|464:224|500:248,1,83.9999974365235
228,300,113328,1,8,0:0:0:0:
258,95,113495,1,0,0:0:0:0:
440,300,113662,37,0,0:0:0:0:
56,216,113995,1,8,0:0:0:0:
492,104,114328,1,0,0:0:0:0:
340,248,114495,1,0,0:0:0:0:
272,12,114662,1,8,0:0:0:0:
120,152,114828,1,0,0:0:0:0:
340,248,114995,6,0,P|356:312|340:376,1,125.999996154785,4|0,0:0|0:0,0:0:0:0:
264,376,115328,2,0,L|176:364,1,83.9999974365235,8|0,0:0|0:0,0:0:0:0:
120,152,115662,1,0,0:0:0:0:
340,248,115828,1,0,0:0:0:0:
66,264,115995,1,8,0:0:0:0:
393,135,116162,1,0,0:0:0:0:
48,40,116328,38,0,P|8:92|28:200,1,167.999994873047,0|8,0:0|0:0,0:0:0:0:
256,292,116828,1,0,0:0:0:0:
493,188,116995,5,2,0:0:0:0:
284,34,117162,1,2,0:0:0:0:
248,372,117328,1,2,0:0:0:0:
493,188,117495,1,2,0:0:0:0:
136,116,117662,38,0,L|40:136,1,83.9999974365235,4|0,3:0|0:0,0:0:0:0:
376,268,117995,2,0,L|472:248,1,83.9999974365235,8|0,0:0|0:0,0:0:0:0:
92,208,118328,2,0,P|88:256|104:296,1,83.9999974365235
420,176,118662,2,0,P|424:128|408:88,1,83.9999974365235,8|0,0:0|0:0,0:0:0:0:
136,116,118995,5,8,0:0:0:0:
376,268,119162,1,0,0:0:0:0:
109,99,119328,1,8,0:0:0:0:
402,284,119495,1,0,0:0:0:0:
221,33,119662,1,8,0:0:0:0:
290,350,119828,1,0,0:0:0:0:
214,3,119995,1,8,0:0:0:0:
296,378,120162,1,0,0:0:0:0:
484,176,120328,38,0,P|496:132|484:88,1,83.9999974365235,4|0,0:0|0:0,0:0:0:0:
214,3,120662,1,8,0:0:0:0:
300,192,120828,1,0,0:0:0:0:
68,104,120995,2,0,P|56:148|68:192,1,83.9999974365235
338,277,121329,1,8,0:0:0:0:
252,88,121495,1,0,0:0:0:0:
96,368,121662,6,0,L|4:344,1,83.9999974365235
356,268,121995,2,0,L|448:244,1,83.9999974365235,8|0,0:0|0:0,0:0:0:0:
164,124,122328,2,0,L|72:100,1,83.9999974365235
424,24,122662,1,8,0:0:0:0:
340,348,122828,1,8,0:0:0:0:
172,36,122995,38,0,P|220:52|244:80,1,83.9999974365235
340,348,123328,2,0,P|292:332|268:304,1,83.9999974365235,8|0,0:0|0:0,0:0:0:0:
164,124,123662,1,0,0:0:0:0:
356,268,123828,1,0,0:0:0:0:
95,215,123995,1,8,0:0:0:0:
427,168,124162,1,0,0:0:0:0:
44,108,124328,6,0,P|32:64|44:24,1,83.9999974365235
470,27,124662,2,0,P|479:68|468:108,1,83.9999974365235,8|0,0:0|0:0,0:0:0:0:
44,275,124995,2,0,P|32:315|41:356,1,83.9999974365235
470,356,125328,2,0,P|479:315|468:276,1,83.9999974365235,8|0,0:0|0:0,0:0:0:0:
201,65,125662,37,4,0:0:0:0:
129,245,125828,1,0,0:0:0:0:
309,317,125995,1,8,0:0:0:0:
381,137,126162,1,0,0:0:0:0:
133,100,126328,5,0,0:0:0:0:
164,311,126495,1,0,0:0:0:0:
375,281,126662,1,8,0:0:0:0:
345,69,126828,1,0,0:0:0:0:
90,171,126995,37,0,0:0:0:0:
235,355,127162,1,0,0:0:0:0:
419,210,127328,1,8,0:0:0:0:
274,26,127495,1,0,0:0:0:0:
86,262,127662,5,0,0:0:0:0:
326,358,127828,1,0,0:0:0:0:
422,119,127995,1,8,0:0:0:0:
86,262,128162,1,8,0:0:0:0:
428,304,128328,38,0,L|541:291,1,83.9999974365235
316,88,128662,1,8,0:0:0:0:
232,384,128828,1,0,0:0:0:0:
64,112,128995,6,0,P|48:72|56:16,1,83.9999974365235
460,32,129328,2,0,P|462:74|447:113,1,83.9999974365235,8|0,0:0|0:0,0:0:0:0:
238,338,129662,1,0,0:0:0:0:
116,16,129828,1,0,0:0:0:0:
447,112,129995,1,8,0:0:0:0:
84,216,130162,1,0,0:0:0:0:
488,328,130328,38,0,L|504:228,1,83.9999974365235,8|0,0:0|0:0,0:0:0:0:
116,16,130662,2,0,L|100:116,1,83.9999974365235,8|0,0:0|0:0,0:0:0:0:
256,384,130995,1,4,0:0:0:0:
