osu file format v14

[General]
AudioFilename: Get Jinxed.mp3
AudioLeadIn: 0
PreviewTime: 40266
Countdown: 0
SampleSet: Soft
StackLeniency: 0.7
Mode: 0
LetterboxInBreaks: 0
WidescreenStoryboard: 1

[Editor]
DistanceSpacing: 0.4
BeatDivisor: 4
GridSize: 4
TimelineZoom: 1.5

[Metadata]
Title:Get Jinxed
TitleUnicode:Get Jinxed
Artist:Agnete Kjolsrud
ArtistUnicode:Agnete Kjølsrud
Creator:Tarrasky
Version:Master
Source:League of Legends
Tags:Mismagius Blue Dragon talnatch seto kousuke evilelvis irreversible srskyplayer riot games intro jinx djerv champion
BeatmapID:794670
BeatmapSetID:361740

[Difficulty]
HPDrainRate:6
CircleSize:4
OverallDifficulty:8.7
ApproachRate:9.3
SliderMultiplier:2
SliderTickRate:1

[Events]
//Background and Video events
0,0,"lagoakilagoai.jpg",0,0
Video,-294,"CrazyJinx.avi"
//Break Periods
2,61862,71758
2,83195,87425
//Storyboard Layer 0 (Background)
//Storyboard Layer 1 (Fail)
//Storyboard Layer 2 (Pass)
//Storyboard Layer 3 (Foreground)
//Storyboard Sound Samples

[TimingPoints]
329,333.333333333333,4,2,0,40,1,0
329,-133.333333333333,4,2,0,40,0,0
16328,-100,4,2,0,60,0,0
37662,-200,4,2,0,30,0,0
39995,-100,4,2,0,70,0,0
40328,-100,4,2,0,80,0,1
61662,-133.333333333333,4,2,0,60,0,0
87995,-100,4,2,0,60,0,0
98995,-100,4,2,0,80,0,1
120328,-83.3333333333333,4,2,0,80,0,1
130995,-100,4,2,0,80,0,0

[Colours]
Combo1 : 0,210,210
Combo2 : 0,0,255
Combo3 : 18,124,255
Combo4 : 255,0,255

[HitObjects]
176,268,329,5,0,0:0:0:0:
144,184,495,1,0,0:0:0:0:
175,100,662,2,0,P|247:80|319:98,1,150.000005722046,2|0,0:0|0:0,0:0:0:0:
368,175,1162,2,0,P|382:141|411:118,1,75.0000028610231,2|0,0:0|0:0,0:0:0:0:
448,200,1495,6,0,P|470:229|476:266,1,75.0000028610231,2|0,0:0|0:0,0:0:0:0:
392,312,1828,2,0,P|320:328|249:308,1,150.000005722046,2|0,0:0|0:0,0:0:0:0:
196,220,2328,2,0,L|200:124,1,75.0000028610231,2|0,0:0|0:0,0:0:0:0:
144,312,2662,1,2,0:0:0:0:
156,72,2995,38,0,B|192:60|192:60|232:68,1,75.0000028610231,2|0,0:3|0:0,0:0:0:0:
308,100,3328,2,0,L|345:103,3,37.5000014305115,2|0|2|0,0:0|0:0|0:0|0:0,0:0:0:0:
416,156,3662,2,0,L|453:152,3,37.5000014305115,2|0|2|0,0:0|0:0|0:0|0:0,0:0:0:0:
464,244,3995,1,0,0:0:0:0:
464,244,4162,6,0,L|389:247,1,75.0000028610231,2|0,0:0|0:0,0:0:0:0:
436,344,4495,2,0,L|361:340,1,75.0000028610231,2|0,0:0|0:0,0:0:0:0:
264,336,4828,1,0,0:0:0:0:
264,336,4995,2,0,P|239:251|248:172,1,150.000005722046,4|0,0:3|0:0,0:0:0:0:
72,107,5662,37,4,0:0:0:0:
72,107,5995,2,0,P|131:65|202:82,1,150.000005722046,2|0,0:0|0:0,0:0:0:0:
309,82,6495,2,0,P|380:65|439:107,1,150.000005722046,2|0,0:0|0:0,0:0:0:0:
324,276,6995,6,0,P|257:305|189:277,1,150.000005722046,2|0,0:0|0:0,0:0:0:0:
120,216,7495,1,0,0:0:0:0:
120,216,7662,2,0,L|123:141,1,75.0000028610231,4|0,0:3|0:0,0:0:0:0:
288,172,7995,2,0,L|284:97,1,75.0000028610231,4|0,0:3|0:0,0:0:0:0:
124,52,8328,37,4,0:0:0:0:
396,48,8662,2,0,L|412:197,1,150.000005722046,2|0,0:0|0:0,0:0:0:0:
288,172,9162,2,0,L|304:321,1,150.000005722046,2|0,0:0|0:0,0:0:0:0:
176,320,9662,6,0,P|120:328|48:304,1,112.500004291535,2|0,0:0|0:0,0:0:0:0:
44,308,9995,2,0,L|48:192,1,112.500004291535,2|0,0:0|0:0,0:0:0:0:
52,168,10328,1,2,0:0:0:0:
88,80,10495,2,0,P|164:56|236:80,1,150.000005722046,2|0,0:0|0:0,0:0:0:0:
340,120,10995,37,4,0:0:0:0:
340,120,11162,1,0,0:0:0:0:
444,32,11328,2,0,L|447:181,1,150.000005722046,2|0,0:0|0:0,0:0:0:0:
372,307,11828,2,0,P|313:350|242:333,1,150.000005722046,2|0,0:0|0:0,0:0:0:0:
176,164,12328,6,0,P|117:121|46:138,1,150.000005722046,2|0,0:0|0:0,0:0:0:0:
24,248,12828,1,0,0:0:0:0:
84,340,12995,2,0,L|158:336,1,75.0000028610231,4|0,0:3|0:0,0:0:0:0:
176,164,13328,2,0,L|250:167,1,75.0000028610231,4|0,0:3|0:0,0:0:0:0:
312,324,13662,1,4,0:0:0:0:
392,68,13995,38,0,B|472:72|472:72|488:139,1,150.000005722046,2|0,0:0|0:0,0:0:0:0:
416,232,14495,2,0,B|336:228|336:228|319:160,1,150.000005722046,2|0,0:0|0:0,0:0:0:0:
239,72,14995,6,0,P|203:80|166:78,1,75.0000028610231,2|0,0:0|0:0,0:0:0:0:
72,40,15328,1,0,0:0:0:0:
92,128,15495,1,0,0:0:0:0:
248,220,15662,1,2,0:0:0:0:
72,216,15828,1,0,0:0:0:0:
320,172,15995,1,0,0:0:0:0:
160,232,16162,1,0,0:0:0:0:
280,336,16328,38,0,P|373:363|461:320,1,200,8|0,0:0|0:0,0:0:0:0:
480,172,16828,1,0,0:0:0:0:
312,240,16995,1,8,0:0:0:0:
472,288,17162,1,0,0:0:0:0:
428,96,17328,2,0,P|379:83|330:90,1,100
152,348,17662,6,0,L|140:184,1,150,8|0,0:0|0:0,0:0:0:0:
136,164,17995,1,0,0:0:0:0:
321,104,18162,1,0,0:0:0:0:
136,44,18328,1,8,0:0:0:0:
252,200,18495,1,0,0:0:0:0:
252,8,18662,1,8,0:0:0:0:
136,164,18828,1,0,0:0:0:0:
321,104,18995,38,0,P|412:104|484:192,1,200,8|0,0:0|0:0,0:0:0:0:
444,284,19495,1,0,0:0:0:0:
344,336,19662,2,0,L|244:339,1,100,8|0,0:0|0:0,0:0:0:0:
268,176,19995,2,0,L|168:172,1,100
52,328,20328,6,0,L|44:172,1,150,8|0,0:0|0:0,0:0:0:0:
44,148,20662,1,0,0:0:0:0:
204,60,20828,1,0,0:0:0:0:
240,208,20995,2,0,L|236:307,1,100,8|0,0:0|0:0,0:0:0:0:
32,136,21328,2,0,L|28:36,1,100,8|0,0:0|0:0,0:0:0:0:
296,112,21662,38,0,P|344:200|288:312,1,200,8|0,0:0|0:0,0:0:0:0:
160,328,22162,1,0,0:0:0:0:
40,216,22328,2,0,L|43:116,1,100,8|0,0:0|0:0,0:0:0:0:
204,40,22662,2,0,L|207:139,1,100
284,296,22995,6,0,P|368:328|456:296,1,150,8|0,0:0|0:0,0:0:0:0:
456,292,23328,2,0,L|452:176,1,100
324,164,23662,1,8,0:0:0:0:
472,112,23828,1,0,0:0:0:0:
264,108,23995,1,8,0:0:0:0:
412,56,24161,1,0,0:0:0:0:
192,76,24328,38,0,P|160:136|204:264,1,200,8|0,0:0|0:0,0:0:0:0:
400,284,24828,1,0,0:0:0:0:
216,352,24995,1,8,0:0:0:0:
464,364,25162,1,0,0:0:0:0:
356,160,25328,2,0,P|344:100|360:48,1,100
276,224,25662,6,0,P|248:160|256:56,1,150,8|0,0:0|0:0,0:0:0:0:
256,40,25995,2,0,P|164:80|88:72,1,150
72,72,26328,1,8,0:0:0:0:
104,236,26495,1,0,0:0:0:0:
256,44,26662,1,8,0:0:0:0:
232,332,26828,1,8,0:0:0:0:
404,60,26995,38,0,L|408:216,1,150,4|0,0:0|0:0,0:0:0:0:
408,259,27328,2,0,P|363:281|313:282,1,100,8|0,0:0|0:0,0:0:0:0:
184,156,27662,2,0,L|187:56,1,100
52,240,27995,2,0,L|55:339,1,100,8|0,0:0|0:0,0:0:0:0:
183,156,28328,6,0,P|260:128|332:148,1,150
360,160,28662,2,0,L|356:300,1,100,8|0,0:0|0:0,0:0:0:0:
128,240,28995,1,0,0:0:0:0:
336,288,29162,1,0,0:0:0:0:
92,344,29328,1,8,0:0:0:0:
156,108,29495,1,8,0:0:0:0:
328,300,29662,38,0,L|331:200,1,100
468,72,29995,2,0,L|471:171,1,100,8|0,0:0|0:0,0:0:0:0:
256,172,30328,1,0,0:0:0:0:
424,256,30495,1,0,0:0:0:0:
312,80,30662,1,8,0:0:0:0:
266,314,30828,6,0,P|176:352|88:312,1,200
28,172,31328,2,0,P|25:122|29:72,1,100,8|0,0:0|0:0,0:0:0:0:
192,64,31662,2,0,P|194:113|190:163,1,100
88,312,31995,1,8,0:0:0:0:
28,172,32162,1,0,0:0:0:0:
272,140,32328,38,0,L|371:136,1,100
208,336,32662,2,0,L|108:332,1,100,8|0,0:0|0:0,0:0:0:0:
40,176,32995,2,0,P|25:128|27:78,1,100
208,32,33328,2,0,P|210:81|195:129,1,100,8|0,0:0|0:0,0:0:0:0:
127,304,33662,6,0,P|196:275|271:275,1,150
304,292,33995,2,0,L|308:184,1,100,8|0,0:0|0:0,0:0:0:0:
332,28,34328,1,0,0:0:0:0:
416,216,34495,1,0,0:0:0:0:
456,16,34662,1,8,0:0:0:0:
280,104,34828,1,0,0:0:0:0:
408,232,34995,38,0,L|508:224,1,100
336,304,35328,2,0,P|313:259|314:210,1,100,8|0,0:0|0:0,0:0:0:0:
431,40,35662,2,0,P|388:64|339:71,1,100
168,56,35995,1,8,0:0:0:0:
64,208,36162,1,0,0:0:0:0:
64,208,36245,1,0,0:0:0:0:
64,208,36328,5,0,0:0:0:0:
248,180,36495,1,0,0:0:0:0:
40,112,36662,1,8,0:0:0:0:
296,96,36828,1,0,0:0:0:0:
168,344,36995,1,8,0:0:0:0:
320,120,37162,1,8,0:0:0:0:
36,84,37328,1,8,0:0:0:0:
132,352,37495,1,8,0:0:0:0:
132,352,37578,1,8,0:0:0:0:
132,352,37662,38,0,B|116:256|116:256|145:198|108:156,1,200
32,84,38662,6,0,B|92:64|92:64|144:76|144:76|192:48|192:48|236:80|236:80|274:53|324:60,1,300
340,72,39995,37,8,0:0:0:0:
372,344,40162,1,8,0:0:0:0:
444,52,40328,22,0,L|447:151,1,100,4|0,0:0|0:0,0:0:0:0:
248,272,40662,2,0,L|251:172,1,100,8|0,0:0|0:0,0:0:0:0:
280,368,40995,2,0,P|184:352|152:296,1,150
144,276,41328,1,8,0:0:0:0:
100,72,41495,1,0,0:0:0:0:
23,264,41662,6,0,P|23:313|38:361,1,100
200,132,41995,2,0,P|215:84|214:34,1,100,8|0,0:0|0:0,0:0:0:0:
48,148,42328,1,2,0:0:0:0:
324,180,42495,1,2,0:0:0:0:
128,172,42662,1,2,0:0:0:0:
404,140,42829,1,2,0:0:0:0:
308,360,42995,38,0,P|292:248|312:180,1,150,4|0,0:3|0:0,0:0:0:0:
324,180,43328,2,0,L|212:188,1,100,8|0,0:0|0:0,0:0:0:0:
40,192,43662,1,0,0:0:0:0:
188,32,43828,1,0,0:0:0:0:
132,288,43995,1,8,0:0:0:0:
64,64,44162,1,0,0:0:0:0:
16,288,44328,6,0,P|63:301|113:299,1,100
180,56,44662,2,0,P|227:42|277:44,1,100,8|0,0:0|0:0,0:0:0:0:
356,272,44995,1,0,0:0:0:0:
376,48,45162,1,0,0:0:0:0:
472,312,45328,1,8,0:0:0:0:
452,88,45495,1,0,0:0:0:0:
280,236,45662,37,4,0:0:0:0:
328,24,45828,1,0,0:0:0:0:
472,191,45995,2,0,P|424:204|372:200,1,100,8|0,0:0|0:0,0:0:0:0:
208,40,46328,2,0,L|204:196,1,150
204,232,46662,1,8,0:0:0:0:
392,288,46828,1,0,0:0:0:0:
88,316,46995,6,0,L|84:216,1,100
336,208,47328,2,0,L|339:108,1,100,8|0,0:0|0:0,0:0:0:0:
72,116,47662,1,2,0:0:0:0:
272,24,47828,1,2,0:0:0:0:
116,240,47995,1,2,0:0:0:0:
172,8,48162,1,2,0:0:0:0:
324,200,48328,38,0,L|448:204,1,100,4|0,0:3|0:0,0:0:0:0:
184,340,48662,1,8,0:0:0:0:
240,80,48828,1,0,0:0:0:0:
304,300,48995,1,0,0:0:0:0:
24,100,49162,1,0,0:0:0:0:
352,60,49328,1,8,0:0:0:0:
200,360,49495,1,0,0:0:0:0:
168,28,49662,6,0,L|171:127,1,100
444,172,49995,2,0,L|447:72,1,100,8|0,0:0|0:0,0:0:0:0:
192,220,50328,1,8,0:0:0:0:
464,304,50495,1,0,0:0:0:0:
184,348,50662,1,8,0:0:0:0:
444,172,50828,1,8,0:0:0:0:
444,172,50912,1,8,0:0:0:0:
444,172,50995,38,0,L|440:72,1,100,4|0,0:0|0:0,0:0:0:0:
255,39,51328,2,0,P|207:31|160:46,1,100,8|0,0:0|0:0,0:0:0:0:
292,300,51662,2,0,L|296:132,1,150
296,112,51995,1,8,0:0:0:0:
159,46,52162,1,0,0:0:0:0:
108,252,52328,6,0,L|207:259,1,100
372,336,52662,1,8,0:0:0:0:
464,204,52828,1,0,0:0:0:0:
300,80,52995,1,2,0:0:0:0:
284,320,53162,1,2,0:0:0:0:
404,72,53328,1,2,0:0:0:0:
372,336,53495,1,2,0:0:0:0:
300,80,53662,38,0,P|252:76|192:84,1,100,4|0,0:3|0:0,0:0:0:0:
52,168,53995,2,0,L|56:332,1,150,8|0,0:0|0:0,0:0:0:0:
56,344,54328,1,0,0:0:0:0:
272,288,54495,1,0,0:0:0:0:
52,168,54662,2,0,L|52:68,1,100,8|0,0:0|0:0,0:0:0:0:
364,56,54995,6,0,B|415:49|415:49|463:56,1,100
148,248,55328,2,0,B|100:255|100:255|48:248,1,100,8|0,0:0|0:0,0:0:0:0:
416,156,55662,2,0,B|440:224|440:224|432:324,1,150
432,336,55995,1,8,0:0:0:0:
220,304,56162,1,0,0:0:0:0:
336,108,56328,38,0,L|332:207,1,100,4|0,0:0|0:0,0:0:0:0:
92,304,56662,2,0,L|88:204,1,100,8|0,0:0|0:0,0:0:0:0:
280,40,56995,1,0,0:0:0:0:
24,108,57162,1,0,0:0:0:0:
336,108,57328,1,8,0:0:0:0:
76,40,57495,1,0,0:0:0:0:
152,255,57662,6,0,P|158:206|160:156,1,100
344,20,57995,2,0,P|345:69|352:119,1,100,8|0,0:0|0:0,0:0:0:0:
456,312,58328,1,2,0:0:0:0:
220,276,58495,1,2,0:0:0:0:
448,192,58662,1,2,0:0:0:0:
136,236,58828,1,2,0:0:0:0:
372,376,58995,38,0,L|368:252,1,100,4|0,0:3|0:0,0:0:0:0:
144,116,59328,2,0,P|95:124|53:152,1,100,8|0,0:0|0:0,0:0:0:0:
140,264,59662,2,0,P|181:291|230:300,1,100
259,124,59995,2,0,P|252:75|228:32,1,100,8|0,0:0|0:0,0:0:0:0:
132,244,60328,5,0,0:0:0:0:
364,228,60495,1,0,0:0:0:0:
99,229,60662,1,8,0:0:0:0:
396,250,60829,1,0,0:0:0:0:
56,249,60995,1,8,0:0:0:0:
439,222,61162,1,0,0:0:0:0:
12,160,61328,1,8,0:0:0:0:
288,356,61495,1,0,0:0:0:0:
308,28,61662,5,4,0:0:0:0:
106,29,72328,54,0,P|87:106|100:181,1,150.000005722046,4|0,0:0|0:0,0:0:0:0:
192,236,72828,1,4,0:3:0:0:
200,244,72995,2,0,L|364:240,1,150.000005722046,8|0,0:0|0:0,0:0:0:0:
432,108,73495,1,0,0:0:0:0:
436,260,73662,5,4,0:3:0:0:
428,272,73828,2,0,L|432:364,1,75.0000028610231,4|0,0:3|0:0,0:0:0:0:
208,304,74162,1,4,0:3:0:0:
196,288,74328,2,0,P|179:215|198:144,1,150.000005722046,8|4,0:0|0:3,0:0:0:0:
264,52,74828,1,8,0:0:0:0:
340,152,74995,38,0,P|416:176|487:149,1,150.000005722046,4|0,0:0|0:0,0:0:0:0:
272,196,75495,1,4,0:3:0:0:
264,208,75662,2,0,L|267:357,1,150.000005722046,8|0,0:0|0:0,0:0:0:0:
388,248,76162,1,0,0:0:0:0:
188,276,76328,5,4,0:3:0:0:
176,284,76495,2,0,L|12:280,1,150.000005722046,4|4,0:3|0:3,0:0:0:0:
112,128,76995,2,0,P|168:112|236:128,1,112.500004291535,8|0,0:0|0:0,0:0:0:0:
252,136,77328,1,4,0:3:0:0:
300,292,77495,1,8,0:0:0:0:
335,92,77662,38,0,P|369:74|406:69,1,75.0000028610231,4|0,0:0|0:0,0:0:0:0:
156,112,77995,2,0,P|138:78|133:41,1,75.0000028610231,0|4,0:0|0:3,0:0:0:0:
176,291,78328,2,0,P|142:309|105:314,1,75.0000028610231,8|0,0:0|0:0,0:0:0:0:
355,271,78661,2,0,P|373:305|378:342,1,75.0000028610231
224,184,78995,5,4,0:3:0:0:
232,172,79162,2,0,P|324:148|404:168,1,150.000005722046,4|4,0:3|0:3,0:0:0:0:
460,284,79662,2,0,L|464:140,1,112.500004291535,8|0,0:0|0:0,0:0:0:0:
464,132,79995,1,4,0:3:0:0:
248,76,80162,1,8,0:0:0:0:
495,28,80328,38,0,P|460:39|423:44,1,75.0000028610231,4|0,0:0|0:0,0:0:0:0:
376,224,80662,2,0,P|341:210|309:189,1,75.0000028610231,0|4,0:0|0:3,0:0:0:0:
148,28,80995,2,0,L|144:102,1,75.0000028610231,8|0,0:0|0:0,0:0:0:0:
48,296,81328,2,0,L|44:221,1,75.0000028610231
244,264,81662,5,4,0:3:0:0:
256,272,81828,2,0,L|412:264,1,150.000005722046,4|4,0:3|0:3,0:0:0:0:
464,64,82328,2,0,P|384:52|340:64,1,112.500004291535,8|0,0:0|0:0,0:0:0:0:
332,72,82662,1,8,0:0:0:0:
180,280,82828,1,8,0:0:0:0:
84,64,82995,37,4,0:0:0:0:
120,344,87995,5,8,0:0:0:0:
336,304,88162,1,8,0:0:0:0:
72,260,88328,38,0,P|56:212|62:163,1,100,4|0,0:0|0:0,0:0:0:0:
220,128,88662,2,0,P|225:177|210:224,1,100,8|0,0:0|0:0,0:0:0:0:
152,76,88995,2,0,P|248:48|304:108,1,150
308,108,89328,1,8,0:0:0:0:
196,236,89495,1,0,0:0:0:0:
371,271,89662,6,0,P|421:278|470:271,1,100
304,100,89995,2,0,P|254:93|205:99,1,100,8|0,0:0|0:0,0:0:0:0:
84,224,90328,2,0,L|88:336,1,100
196,104,90662,1,8,0:0:0:0:
240,328,90828,1,8,0:0:0:0:
288,72,90995,37,0,0:0:0:0:
368,372,91328,1,8,0:0:0:0:
396,44,91662,1,0,0:0:0:0:
144,348,91995,1,8,0:0:0:0:
496,176,92328,5,0,0:0:0:0:
16,208,92662,1,8,0:0:0:0:
476,316,92995,1,0,0:0:0:0:
84,44,93328,1,8,0:0:0:0:
328,356,93662,38,0,L|331:256,1,100
168,336,93995,2,0,L|164:236,1,100,8|0,0:0|0:0,0:0:0:0:
64,144,94328,2,0,P|124:104|216:112,1,150
232,120,94662,1,8,0:0:0:0:
324,248,94828,1,0,0:0:0:0:
331,52,94995,6,0,P|378:34|428:30,1,100
496,200,95328,2,0,P|446:195|399:178,1,100,8|0,0:0|0:0,0:0:0:0:
224,16,95662,2,0,L|220:120,1,100
136,300,95995,1,8,0:0:0:0:
104,96,96162,1,0,0:0:0:0:
48,336,96328,37,0,0:0:0:0:
464,308,96662,1,8,0:0:0:0:
68,224,96995,1,0,0:0:0:0:
444,196,97328,1,8,0:0:0:0:
28,112,97662,5,0,0:0:0:0:
484,84,97995,1,8,0:0:0:0:
176,336,98328,1,8,0:0:0:0:
216,88,98495,1,8,0:0:0:0:
280,296,98662,1,8,0:0:0:0:
64,216,98828,1,8,0:0:0:0:
64,216,98912,1,8,0:0:0:0:
63,215,98995,6,0,P|57:166|64:117,1,100,4|0,0:0|0:0,0:0:0:0:
336,40,99328,2,0,P|343:89|337:138,1,100,8|0,0:0|0:0,0:0:0:0:
88,292,99662,2,0,L|256:296,1,150
280,296,99995,1,8,0:0:0:0:
236,80,100162,1,0,0:0:0:0:
428,167,100328,6,0,P|439:119|436:69,1,100
288,284,100662,2,0,P|284:333|296:382,1,100,8|0,0:0|0:0,0:0:0:0:
464,264,100995,1,2,0:0:0:0:
208,216,101162,1,2,0:0:0:0:
428,180,101328,1,2,0:0:0:0:
136,264,101495,1,2,0:0:0:0:
216,44,101662,38,0,P|234:107|224:196,1,150,4|0,0:3|0:0,0:0:0:0:
208,216,101995,2,0,L|316:212,1,100,8|0,0:0|0:0,0:0:0:0:
408,44,102328,1,0,0:0:0:0:
376,284,102495,1,0,0:0:0:0:
476,96,102662,1,8,0:0:0:0:
508,336,102829,1,0,0:0:0:0:
260,264,102995,6,0,P|249:215|252:165,1,100
488,100,103328,2,0,P|491:149|480:198,1,100,8|0,0:0|0:0,0:0:0:0:
268,272,103662,1,0,0:0:0:0:
208,48,103828,1,0,0:0:0:0:
172,312,103995,1,8,0:0:0:0:
320,100,104162,1,0,0:0:0:0:
64,96,104328,38,0,L|60:208,1,100,4|0,0:0|0:0,0:0:0:0:
195,327,104662,2,0,P|244:339|293:333,1,100,8|0,0:0|0:0,0:0:0:0:
376,96,104995,2,0,P|360:160|388:276,1,150
384,264,105328,2,0,L|488:260,1,100,8|0,0:0|0:0,0:0:0:0:
504,112,105662,6,0,B|508:60|508:60|500:12,1,100
280,160,105995,2,0,B|272:207|272:207|276:259,1,100,8|0,0:0|0:0,0:0:0:0:
440,324,106328,1,2,0:0:0:0:
152,216,106495,1,2,0:0:0:0:
388,236,106662,1,2,0:0:0:0:
200,360,106828,1,2,0:0:0:0:
504,240,106995,38,0,L|500:128,1,100,4|0,0:3|0:0,0:0:0:0:
228,64,107328,1,8,0:0:0:0:
376,244,107495,1,0,0:0:0:0:
152,124,107662,1,0,0:0:0:0:
472,72,107828,1,0,0:0:0:0:
332,340,107995,1,8,0:0:0:0:
228,24,108162,1,0,0:0:0:0:
48,308,108328,6,0,P|95:321|145:315,1,100
412,160,108662,2,0,L|415:259,1,100,8|0,0:0|0:0,0:0:0:0:
240,24,108995,1,8,0:0:0:0:
152,348,109162,1,0,0:0:0:0:
92,76,109328,1,8,0:0:0:0:
328,320,109495,1,8,0:0:0:0:
328,320,109578,1,8,0:0:0:0:
328,320,109662,38,0,L|436:316,1,100,4|0,0:0|0:0,0:0:0:0:
480,136,109995,2,0,L|380:132,1,100,8|0,0:0|0:0,0:0:0:0:
152,336,110328,2,0,P|132:268|148:180,1,150
160,160,110662,1,8,0:0:0:0:
312,232,110828,1,0,0:0:0:0:
144,352,110995,6,0,L|44:348,1,100
168,144,111328,2,0,L|267:140,1,100,8|0,0:0|0:0,0:0:0:0:
380,328,111662,1,2,0:0:0:0:
336,92,111828,1,2,0:0:0:0:
444,376,111995,1,2,0:0:0:0:
488,140,112161,1,2,0:0:0:0:
304,328,112328,38,0,P|248:348|152:328,1,150,4|0,0:3|0:0,0:0:0:0:
120,312,112662,2,0,L|120:212,1,100,8|0,0:0|0:0,0:0:0:0:
280,64,112995,1,0,0:0:0:0:
112,112,113162,1,0,0:0:0:0:
328,168,113328,2,0,P|377:176|427:172,1,100,8|0,0:0|0:0,0:0:0:0:
256,256,113662,6,0,B|248:308|248:308|256:356,1,100
100,120,113995,2,0,B|108:68|108:68|100:20,1,100,8|0,0:0|0:0,0:0:0:0:
32,248,114328,2,0,P|116:260|208:204,1,150
208,216,114662,1,8,0:0:0:0:
244,40,114828,1,0,0:0:0:0:
296,272,114995,38,0,L|416:268,1,100,4|0,0:0|0:0,0:0:0:0:
464,44,115328,2,0,L|364:40,1,100,8|0,0:0|0:0,0:0:0:0:
176,228,115662,1,0,0:0:0:0:
264,32,115828,1,0,0:0:0:0:
272,284,115995,1,8,0:0:0:0:
112,128,116162,1,0,0:0:0:0:
328,87,116328,6,0,P|375:73|425:73,1,100
256,296,116662,2,0,P|206:296|158:281,1,100,8|0,0:0|0:0,0:0:0:0:
112,44,116995,1,2,0:0:0:0:
80,312,117162,1,2,0:0:0:0:
192,24,117328,1,2,0:0:0:0:
272,288,117495,1,2,0:0:0:0:
4,208,117662,38,0,L|156:200,1,150,4|0,0:3|0:0,0:0:0:0:
188,176,117995,2,0,P|193:126|184:77,1,100,8|0,0:0|0:0,0:0:0:0:
72,284,118328,2,0,P|63:333|68:382,1,100
252,336,118662,2,0,P|298:319|338:289,1,100,8|0,0:0|0:0,0:0:0:0:
176,60,118995,5,4,0:3:0:0:
400,188,119162,1,0,0:0:0:0:
108,144,119328,1,8,0:0:0:0:
408,168,119495,1,0,0:0:0:0:
68,252,119662,1,4,0:3:0:0:
416,148,119828,1,4,0:3:0:0:
40,380,119995,1,8,0:0:0:0:
424,128,120162,1,4,0:3:0:0:
32,48,120328,38,0,L|151:51,1,119.999996337891,4|0,0:0|0:0,0:0:0:0:
232,252,120662,2,0,L|112:255,1,119.999996337891,8|0,0:0|0:0,0:0:0:0:
384,212,120995,2,0,P|386:271|371:329,1,119.999996337891
40,180,121328,2,0,P|24:122|27:62,1,119.999996337891,8|0,0:0|0:0,0:0:0:0:
240,44,121662,5,0,0:0:0:0:
264,236,121828,1,0,0:0:0:0:
376,24,121995,1,8,0:0:0:0:
352,216,122161,1,0,0:0:0:0:
464,56,122328,2,0,L|467:175,1,119.999996337891
252,244,122662,2,0,L|255:124,1,119.999996337891,8|0,0:0|0:0,0:0:0:0:
143,332,122995,38,0,P|84:328|31:302,1,119.999996337891,4|0,0:3|0:0,0:0:0:0:
80,64,123328,2,0,P|133:37|192:34,1,119.999996337891,8|0,0:0|0:0,0:0:0:0:
368,332,123662,2,0,P|427:328|480:302,1,119.999996337891
432,64,123995,2,0,P|378:37|319:34,1,119.999996337891,8|0,0:0|0:0,0:0:0:0:
204,328,124328,5,0,0:0:0:0:
300,120,124495,1,0,0:0:0:0:
300,348,124662,1,8,0:0:0:0:
204,100,124829,1,0,0:0:0:0:
388,316,124995,1,0,0:0:0:0:
116,132,125162,1,0,0:0:0:0:
376,48,125328,1,8,0:0:0:0:
311,327,125495,1,0,0:0:0:0:
87,140,125662,38,0,P|81:199|103:254,1,119.999996337891,4|0,0:0|0:0,0:0:0:0:
408,254,125995,2,0,P|430:199|424:140,1,119.999996337891,8|0,0:0|0:0,0:0:0:0:
200,328,126328,2,0,P|255:347|310:328,1,119.999996337891
310,55,126662,2,0,P|255:36|200:55,1,119.999996337891,8|0,0:0|0:0,0:0:0:0:
376,256,126995,5,0,0:0:0:0:
404,52,127162,1,0,0:0:0:0:
496,312,127328,1,8,0:0:0:0:
468,108,127495,1,0,0:0:0:0:
288,224,127662,2,0,L|168:231,1,119.999996337891
64,44,127995,2,0,L|183:51,1,119.999996337891,8|0,0:0|0:0,0:0:0:0:
372,176,128328,37,4,0:3:0:0:
292,368,128495,1,0,0:0:0:0:
264,120,128662,1,8,0:0:0:0:
468,304,128828,1,0,0:0:0:0:
212,356,128995,1,0,0:0:0:0:
344,104,129162,1,0,0:0:0:0:
344,368,129328,1,8,0:0:0:0:
144,228,129495,1,0,0:0:0:0:
416,200,129662,5,0,0:0:0:0:
176,120,129828,1,0,0:0:0:0:
212,356,129995,1,8,0:0:0:0:
352,132,130162,1,0,0:0:0:0:
72,148,130328,2,0,L|76:24,1,119.999996337891,8|0,0:0|0:0,0:0:0:0:
412,60,130662,1,8,0:0:0:0:
88,232,130828,1,8,0:0:0:0:
488,340,130995,5,4,0:0:0:0:
