osu file format v14

[General]
AudioFilename: Get Jinxed.mp3
AudioLeadIn: 0
PreviewTime: 40266
Countdown: 0
SampleSet: Normal
StackLeniency: 0.7
Mode: 0
LetterboxInBreaks: 0
WidescreenStoryboard: 0

[Editor]
DistanceSpacing: 1
BeatDivisor: 4
GridSize: 4
TimelineZoom: 1.5

[Metadata]
Title:Get Jinxed
TitleUnicode:Get Jinxed
Artist:Agnete Kjolsrud
ArtistUnicode:Agnete Kjølsrud
Creator:Tarrasky
Version:Irrelvis' Diamond
Source:League of Legends
Tags:Mismagius Blue Dragon talnatch seto kousuke evilelvis irreversible srskyplayer riot games intro jinx djerv champion
BeatmapID:806376
BeatmapSetID:361740

[Difficulty]
HPDrainRate:6
CircleSize:4
OverallDifficulty:8
ApproachRate:9
SliderMultiplier:1.92
SliderTickRate:1

[Events]
//Background and Video events
0,0,"lagoakilagoai.jpg",0,0
Video,-294,"CrazyJinx.avi"
//Break Periods
2,83862,87396
//Storyboard Layer 0 (Background)
//Storyboard Layer 1 (Fail)
//Storyboard Layer 2 (Pass)
//Storyboard Layer 3 (Foreground)
//Storyboard Sound Samples

[TimingPoints]
329,333.333333333333,4,2,0,60,1,0
5828,-200,4,2,1,45,0,0
15995,-100,4,2,1,45,0,0
16328,-133.333333333333,4,2,1,45,0,0
26995,-100,4,2,1,45,0,0
37661,-200,4,2,1,45,0,0
40328,-83.3333333333333,4,1,1,45,0,1
61662,-133.333333333333,4,2,1,45,0,0
72328,-166.666666666667,4,2,1,45,0,0
88328,-125,4,2,1,45,0,0
98995,-83.3333333333333,4,1,1,45,0,1
119995,-83.3333333333333,4,1,1,45,0,0
120328,-83.3333333333333,4,1,1,45,0,1
130995,-83.3333333333333,4,1,1,45,0,0

[Colours]
Combo1 : 0,210,210
Combo2 : 0,0,255
Combo3 : 18,124,255
Combo4 : 255,0,255

[HitObjects]
43,212,5662,5,4,0:0:0:0:
43,212,5996,2,0,P|80:229|140:227,1,96,2|0,0:0|0:0,0:0:0:0:
132,89,6496,2,0,P|84:87|40:105,1,96,2|0,0:0|0:0,0:0:0:0:
207,162,6996,2,0,L|224:50,1,96,2|0,0:0|0:0,0:0:0:0:
221,67,7662,5,2,0:0:0:0:
302,53,7829,1,0,0:0:0:0:
382,41,7996,1,2,0:0:0:0:
429,176,8162,1,2,0:0:0:0:
412,173,8246,1,0,0:0:0:0:
395,171,8329,38,0,L|413:109,1,48,4|0,0:0|0:0,0:0:0:0:
508,177,8662,2,0,L|487:277,1,96,2|0,0:0|0:0,0:0:0:0:
416,334,9162,2,0,P|372:348|317:324,1,96,2|0,0:0|0:0,0:0:0:0:
166,305,9662,2,0,P|212:308|260:272,1,96,2|2,0:0|0:0,0:0:0:0:
18,357,10162,5,2,0:0:0:0:
172,339,10329,1,0,0:0:0:0:
12,320,10496,1,2,0:0:0:0:
148,369,10662,1,2,0:0:0:0:
29,285,10829,1,2,0:0:0:0:
303,345,10995,1,4,0:0:0:0:
303,345,11329,38,0,P|352:351|407:333,1,96,2|0,0:0|0:0,0:0:0:0:
496,179,11829,2,0,P|451:160|392:167,1,96,2|0,0:0|0:0,0:0:0:0:
326,113,12329,2,0,L|316:277,1,144,2|0,0:0|0:0,0:0:0:0:
244,97,12996,6,0,P|262:69|281:57,1,48,2|0,0:0|0:0,0:0:0:0:
404,58,13329,2,0,P|377:41|355:35,1,48,2|2,0:0|0:0,0:0:0:0:
155,31,13662,1,2,0:0:0:0:
155,31,13996,38,0,P|123:35|45:20,1,96,2|0,0:0|0:0,0:0:0:0:
190,143,14496,2,0,P|237:134|284:137,1,96,2|0,0:0|0:0,0:0:0:0:
386,159,14996,5,2,0:0:0:0:
252,238,15162,1,2,0:0:0:0:
103,142,15329,1,8,0:1:0:0:
252,45,15496,1,2,0:0:0:0:
387,159,15662,1,8,0:1:0:0:
250,137,15829,1,2,0:0:0:0:
389,127,15996,1,8,0:1:0:0:
272,171,16162,1,4,0:0:0:0:
56,236,16328,38,0,P|100:240|160:156,1,144.000005493164,4|2,1:0|0:0,0:0:0:0:
81,162,16829,1,0,0:0:0:0:
285,208,16996,2,0,B|264:183|236:181|236:181|241:136|217:104|181:96,1,144.000005493164,0|2,1:0|0:0,0:0:0:0:
159,171,17496,1,0,0:0:0:0:
328,277,17662,2,0,P|366:219|343:154,1,144.000005493164,0|2,1:0|0:0,0:0:0:0:
286,208,18162,1,0,0:0:0:0:
436,68,18329,5,4,0:0:0:0:
256,40,18496,1,0,0:0:0:0:
440,76,18662,1,6,0:0:0:0:
251,34,18829,1,0,0:0:0:0:
400,240,18996,38,0,P|406:309|355:355,1,144.000005493164,0|2,1:0|0:0,0:0:0:0:
332,280,19496,1,0,0:0:0:0:
400,240,19662,2,0,L|483:260,1,72.0000027465821,0|0,1:0|0:0,0:0:0:0:
288,208,19996,2,0,L|205:188,1,72.0000027465821,2|0,0:0|0:0,0:0:0:0:
43,256,20329,2,0,P|96:300|166:291,1,144.000005493164,0|2,1:0|0:0,0:0:0:0:
218,191,20829,5,0,0:0:0:0:
188,32,20996,1,8,1:0:0:0:
123,216,21162,1,0,0:0:0:0:
124,96,21329,1,8,0:1:0:0:
43,256,21496,1,8,0:1:0:0:
188,164,21662,38,0,P|212:88|172:16,1,144.000005493164,4|2,1:0|0:0,0:0:0:0:
23,194,22162,1,0,0:0:0:0:
23,194,22329,2,0,P|-1:270|39:342,1,144.000005493164,0|2,1:0|0:0,0:0:0:0:
108,368,22829,1,2,0:0:0:0:
128,364,22912,1,2,0:0:0:0:
148,360,22996,5,0,1:0:0:0:
240,332,23162,1,0,0:0:0:0:
341,336,23329,1,2,0:0:0:0:
442,340,23495,1,0,0:0:0:0:
384,192,23663,37,0,1:0:0:0:
428,108,23829,1,0,0:0:0:0:
486,256,23994,1,8,1:0:0:0:
256,192,24162,1,8,1:0:0:0:
428,108,24329,1,4,1:2:0:0:
432,112,24662,5,2,0:0:0:0:
256,192,24829,1,0,0:0:0:0:
408,42,24996,2,0,P|444:39|481:59,1,72.0000027465821,0|0,1:0|0:0,0:0:0:0:
297,251,25328,2,0,P|264:266|229:263,1,72.0000027465821,2|0,0:0|0:0,0:0:0:0:
256,192,25579,1,0,0:0:0:0:
256,192,25662,37,0,1:0:0:0:
432,112,25829,1,0,0:0:0:0:
256,192,25996,1,4,1:2:0:0:
432,112,26162,1,0,0:0:0:0:
256,80,26329,5,8,1:0:0:0:
256,80,26495,1,0,0:0:0:0:
486,256,26662,1,8,1:0:0:0:
288,336,26828,1,8,1:0:0:0:
93,177,26996,38,0,P|148:169|206:240,1,144,4|0,1:0|0:0,0:0:0:0:
133,339,27329,2,0,P|115:305|139:229,1,96,8|0,1:0|0:0,0:0:0:0:
294,250,27662,2,0,P|303:296|283:339,1,96,0|0,1:0|0:0,0:0:0:0:
23,246,27996,1,8,1:0:0:0:
254,166,28162,1,0,0:1:0:0:
24,113,28329,6,0,P|77:127|158:61,1,144,0|0,1:0|0:0,0:0:0:0:
73,31,28662,2,0,B|-1:23|-1:23|30:40,1,96,8|0,1:0|0:0,0:0:0:0:
232,47,28996,2,0,L|332:35,1,96,0|4,1:0|0:0,0:0:0:0:
153,17,29329,1,8,1:0:0:0:
153,17,29496,1,8,1:0:0:0:
460,137,29662,38,0,P|414:126|350:138,1,96,4|0,1:0|0:0,0:0:0:0:
344,109,29912,1,0,0:0:0:0:
320,89,29996,2,0,L|301:189,1,96,8|0,1:0|0:0,0:0:0:0:
474,321,30329,2,0,L|491:226,1,96,0|0,1:0|0:0,0:0:0:0:
321,282,30662,1,8,1:0:0:0:
398,356,30829,1,0,0:0:0:0:
400,227,30996,5,4,1:2:0:0:
317,379,31162,1,0,0:0:0:0:
481,264,31329,1,8,1:0:0:0:
246,323,31496,1,4,0:0:0:0:
462,351,31662,1,0,1:0:0:0:
295,245,31829,1,4,0:0:0:0:
503,73,31996,1,8,1:0:0:0:
381,156,32162,1,8,1:0:0:0:
413,147,32246,1,0,0:0:0:0:
445,140,32329,38,0,L|327:125,1,96,4|0,1:2|0:0,0:0:0:0:
67,244,32662,2,0,L|185:259,1,96,8|0,1:0|0:0,0:0:0:0:
302,197,32996,1,0,1:0:0:0:
164,153,33162,1,0,0:0:0:0:
192,149,33246,1,0,0:0:0:0:
220,147,33329,2,0,L|105:130,1,96,8|0,1:0|0:0,0:0:0:0:
9,323,33662,6,0,L|153:344,1,144,4|0,1:2|0:0,0:0:0:0:
257,350,33996,2,0,L|158:336,1,96,8|0,1:0|0:0,0:0:0:0:
476,290,34329,1,0,1:0:0:0:
385,302,34496,1,0,0:0:0:0:
214,175,34662,1,8,1:0:0:0:
311,206,34829,1,8,1:0:0:0:
112,235,34996,38,0,P|103:193|103:140,1,96,4|0,1:0|0:0,0:0:0:0:
396,86,35329,2,0,P|403:132|400:191,1,96,8|0,1:0|0:0,0:0:0:0:
259,193,35579,1,0,0:0:0:0:
248,172,35662,2,0,B|240:124|240:124|253:86|253:86|239:20,1,144,0|0,1:0|0:0,0:0:0:0:
156,9,35996,2,0,B|93:25|93:25|138:40,1,96,8|0,1:0|0:0,0:0:0:0:
335,103,36329,6,0,B|398:87|398:87|353:72,1,96,0|0,1:0|1:0,0:0:0:0:
164,116,36662,2,0,L|172:224,1,96,4|0,0:0|0:0,0:0:0:0:
176,288,36912,1,0,1:0:0:0:
186,364,36996,1,4,1:2:0:0:
390,312,37162,1,8,1:0:0:0:
249,185,37329,1,8,1:0:0:0:
263,282,37496,1,4,0:0:0:0:
282,283,37579,1,0,0:0:0:0:
307,285,37662,38,0,L|100:315,1,192,4|0,1:0|0:0,0:0:0:0:
464,325,38662,2,0,L|478:322,8,12,0|0|0|0|0|0|0|0|0,0:0|0:0|0:0|0:0|0:0|0:0|0:0|0:0|0:0,0:0:0:0:
436,295,39037,2,0,L|422:292,6,12,0|0|0|0|0|0|0,0:0|0:0|0:0|0:0|0:0|0:0|0:0,0:0:0:0:
457,270,39329,2,0,L|471:267,6,12,0|0|0|0|0|0|0,0:0|0:0|0:0|0:0|0:0|0:0|0:0,0:0:0:0:
432,240,39662,5,2,0:0:0:0:
432,240,39829,1,2,0:0:0:0:
383,165,39996,37,8,1:0:0:0:
264,124,40162,1,8,1:0:0:0:
152,192,40328,22,0,P|140:252|176:320,1,115.199996484375,4|0,1:0|2:0,0:0:0:0:
384,164,40662,2,0,P|396:104|360:36,1,115.199996484375,8|0,1:0|2:0,0:0:0:0:
264,124,40996,1,2,0:0:0:0:
260,324,41162,1,0,0:0:0:0:
432,240,41329,1,10,0:0:0:0:
152,192,41496,1,2,0:0:0:0:
334,303,41662,6,0,P|294:255|193:283,1,172.799994726563,4|0,0:2|2:1,0:0:0:0:
196,277,41996,2,0,P|224:213|196:149,1,115.199996484375,10|0,0:0|0:0,0:0:0:0:
432,240,42329,38,0,L|380:248,1,28.7999991210938,10|0,0:0|2:0,0:0:0:0:
116,218,42496,2,0,L|168:210,1,28.7999991210938,10|0,0:0|2:0,0:0:0:0:
324,88,42662,2,0,L|272:96,1,28.7999991210938,10|0,0:0|2:0,0:0:0:0:
84,40,42829,2,0,L|136:32,1,28.7999991210938,10|0,0:0|2:0,0:0:0:0:
20,232,42996,6,0,P|8:304|36:348,1,115.199996484375,6|0,0:0|2:0,0:0:0:0:
220,256,43329,1,10,0:0:0:0:
72,152,43496,1,2,0:0:0:0:
220,256,43662,2,0,L|344:240,1,115.199996484375,0|2,0:0|2:1,0:0:0:0:
186,137,43996,2,0,L|72:152,1,115.199996484375,10|8,0:0|0:0,0:0:0:0:
304,24,44329,38,0,P|324:116|416:129,1,172.799994726563,4|0,0:2|2:0,0:0:0:0:
415,127,44662,2,0,P|455:179|443:251,1,115.199996484375,4|0,0:2|2:0,0:0:0:0:
348,348,44996,1,2,0:0:0:0:
372,200,45162,1,2,0:0:0:0:
342,370,45329,1,10,0:0:0:0:
376,180,45496,1,10,0:0:0:0:
184,136,45662,5,4,0:2:0:0:
472,56,45829,1,0,2:0:0:0:
420,256,45996,2,0,P|364:280|288:224,1,115.199996484375,8|2,0:0|0:0,0:0:0:0:
218,229,46329,38,0,P|274:181|386:241,1,172.799994726563,2|0,0:0|2:0,0:0:0:0:
364,216,46662,2,0,L|328:356,1,115.199996484375,10|2,0:0|0:0,0:0:0:0:
216,360,46996,2,0,B|144:364|144:364|120:348|120:348|28:352,1,172.799994726563,2|0,0:0|2:0,0:0:0:0:
32,352,47329,2,0,B|20:312|20:312|40:240,1,115.199996484375,10|0,0:0|2:0,0:0:0:0:
68,144,47662,6,0,L|114:167,1,28.7999991210938,10|0,0:0|2:0,0:0:0:0:
342,181,47829,2,0,L|295:157,1,28.7999991210938,10|0,0:0|2:0,0:0:0:0:
208,32,47995,2,0,L|254:55,1,28.7999991210938,10|0,0:0|2:0,0:0:0:0:
460,61,48162,2,0,L|413:37,1,28.7999991210938,10|0,0:0|2:0,0:0:0:0:
208,32,48328,37,6,0:0:0:0:
256,280,48495,1,0,2:0:0:0:
342,82,48662,1,10,0:0:0:0:
144,264,48829,1,0,0:0:0:0:
412,320,48995,5,2,0:0:0:0:
349,113,49163,1,2,0:0:0:0:
420,352,49329,37,8,0:0:0:0:
342,82,49496,1,2,0:0:0:0:
176,332,49662,6,0,P|123:351|64:317,1,115.199996484375,4|2,0:2|0:0,0:0:0:0:
336,52,49995,2,0,P|388:32|447:66,1,115.199996484375,4|2,0:2|0:0,0:0:0:0:
276,328,50329,37,10,0:0:0:0:
218,159,50496,1,10,0:0:0:0:
386,106,50662,1,4,0:2:0:0:
441,272,50829,1,10,0:0:0:0:
184,173,50996,6,0,P|247:163|328:244,1,172.799994726563,4|0,0:0|2:0,0:0:0:0:
226,357,51329,2,0,P|209:307|242:230,1,115.199996484375,10|0,0:0|2:0,0:0:0:0:
426,247,51662,2,0,P|442:301|425:355,1,115.199996484375,2|0,0:0|2:0,0:0:0:0:
324,229,51996,2,2,B|334:189|317:168|317:168|341:138|341:138|331:112|344:57,1,172.799994726563,10|0,0:0|2:0,0:0:0:0:
269,23,52329,2,0,P|208:34|153:28,1,115.199996484375,2|2,0:0|0:0,0:0:0:0:
5,137,52662,2,0,P|58:112|115:109,1,115.199996484375,10|0,0:0|0:0,0:0:0:0:
148,321,52996,38,0,P|127:328|105:331,1,28.7999991210938,10|0,0:0|2:0,0:0:0:0:
65,197,53162,2,0,P|78:192|92:188,1,28.7999991210938,10|0,0:0|2:0,0:0:0:0:
215,163,53329,2,0,P|239:157|259:155,1,28.7999991210938,4|0,0:2|2:0,0:0:0:0:
363,170,53496,2,0,P|385:171|403:173,1,28.7999991210938,10|0,0:0|2:0,0:0:0:0:
512,197,53662,6,0,B|492:340|492:340|478:282,1,172.799994726563,4|0,0:0|2:0,0:0:0:0:
475,124,53996,2,0,L|492:7,1,115.199996484375,10|0,0:0|2:0,0:0:0:0:
297,87,54329,1,0,0:0:0:0:
448,46,54496,1,2,0:0:0:0:
318,34,54662,2,0,P|250:58|180:46,1,115.199996484375,10|0,0:0|0:0,0:0:0:0:
184,38,54912,1,0,0:0:0:0:
160,20,54996,38,0,L|145:137,1,115.199996484375,4|0,0:2|2:0,0:0:0:0:
394,375,55329,2,0,L|409:258,1,115.199996484375,4|0,1:2|2:0,0:0:0:0:
260,118,55662,1,2,0:0:0:0:
172,235,55829,1,0,2:0:0:0:
251,348,55996,1,10,0:0:0:0:
337,243,56162,1,10,0:0:0:0:
151,322,56329,6,0,P|96:339|6:264,1,172.799994726563,4|0,0:0|2:0,0:0:0:0:
6,188,56662,2,0,L|20:73,1,115.199996484375,10|0,0:0|2:0,0:0:0:0:
262,241,56996,2,0,L|247:355,1,115.199996484375,2|2,0:0|0:0,0:0:0:0:
159,221,57329,1,8,0:0:0:0:
296,110,57496,1,2,0:0:0:0:
369,267,57662,37,4,0:2:0:0:
202,134,57829,1,0,2:0:0:0:
81,48,57996,2,0,P|132:61|204:55,1,115.199996484375,10|2,0:0|0:0,0:0:0:0:
448,35,58329,6,0,P|423:44|412:52,1,28.7999991210938,10|0,0:0|2:0,0:0:0:0:
279,97,58496,2,0,P|300:104|313:111,1,28.7999991210938,10|0,0:0|2:0,0:0:0:0:
450,160,58662,2,0,P|429:177|425:190,1,28.7999991210938,10|0,0:0|2:0,0:0:0:0:
316,235,58829,2,0,P|332:242|342:250,1,28.7999991210938,14|0,0:0|2:0,0:0:0:0:
457,314,58996,38,0,P|397:320|340:340,1,115.199996484375,4|0,0:0|2:0,0:0:0:0:
140,203,59329,2,0,P|199:219|263:214,1,115.199996484375,8|0,0:0|2:0,0:0:0:0:
89,281,59662,2,0,P|49:225|91:115,1,172.799994726563,0|0,0:0|2:0,0:0:0:0:
72,109,59996,1,8,0:0:0:0:
211,90,60162,1,0,2:0:0:0:
327,73,60329,6,0,B|407:55|407:55|352:52,1,115.199996484375,4|0,3:0|2:0,0:0:0:0:
240,182,60662,2,0,B|160:200|160:200|215:203,1,115.199996484375,8|8,0:0|0:0,0:0:0:0:
331,212,60996,37,4,0:2:0:0:
442,223,61162,1,2,0:0:0:0:
503,362,61329,1,4,0:2:0:0:
392,329,61496,1,8,0:0:0:0:
509,157,61662,21,4,0:0:0:0:
188,200,61829,2,0,L|343:213,1,144.000005493164,0|0,1:0|1:0,0:0:0:0:
144,292,62328,2,0,L|-11:305,1,144.000005493164,4|2,1:3|0:0,0:0:0:0:
188,200,62995,6,0,P|176:173|200:143,1,72.0000027465821,0|2,1:0|0:0,0:0:0:0:
331,212,63328,2,0,P|342:238|318:268,1,72.0000027465821,0|2,1:0|0:0,0:0:0:0:
188,200,63662,2,0,L|331:212,1,144.000005493164,4|8,3:0|0:1,0:0:0:0:
509,157,64162,37,8,0:1:0:0:
331,212,64329,1,0,1:0:0:0:
3,227,64828,5,2,0:0:0:0:
181,172,64995,1,4,3:0:0:0:
3,227,65662,37,0,1:0:0:0:
181,172,65828,1,4,3:0:0:0:
181,172,66162,5,4,3:0:0:0:
256,340,66329,2,0,L|336:336,1,72.0000027465821,8|0,1:0|0:0,0:0:0:0:
460,208,66662,1,4,1:2:0:0:
412,352,66828,1,8,0:1:0:0:
300,196,66996,38,0,P|245:152|178:169,1,144.000005493164,4|0,1:2|0:0,0:0:0:0:
96,300,67496,1,0,1:0:0:0:
298,203,67662,2,0,P|252:151|183:156,1,144.000005493164,4|0,3:0|0:0,0:0:0:0:
96,300,68162,2,0,P|141:352|210:347,2,144.000005493164,4|4|8,3:0|3:0|0:1,0:0:0:0:
172,144,68996,2,0,L|176:228,1,72.0000027465821,4|0,3:0|0:0,0:0:0:0:
340,240,69328,2,0,L|336:156,1,72.0000027465821,8|8,1:0|1:0,0:0:0:0:
416,84,69662,1,4,3:2:0:0:
336,168,69995,6,0,L|340:240,1,72.0000027465821,8|4,0:1|3:0,0:0:0:0:
96,84,70328,2,0,B|152:76|152:76|171:82|171:82|248:72,1,144.000005493164,8|4,1:0|0:0,0:0:0:0:
340,240,70828,2,0,B|284:232|284:232|265:238|265:238|188:228,2,144.000005493164,0|8|0,0:0|1:0|0:0,0:0:0:0:
385,182,71662,2,0,P|410:207|413:242,1,72.0000027465821,4|0,3:0|0:0,0:0:0:0:
236,72,71995,2,0,P|239:36|264:12,1,72.0000027465821,4|8,0:0|1:0,0:0:0:0:
272,252,72328,37,4,1:0:0:0:
272,252,72829,1,0,1:0:0:0:
272,252,72996,2,0,P|333:264|417:190,1,172.799994726563,4|0,3:0|0:0,0:0:0:0:
416,104,73662,2,0,P|379:118|357:135,1,57.5999982421876,2|0,1:0|1:0,0:0:0:0:
495,207,73996,2,0,P|501:175|494:140,1,57.5999982421876,0|8,0:0|1:0,0:0:0:0:
387,22,74329,6,0,L|272:49,1,115.199996484375,2|8,1:0|1:0,0:0:0:0:
177,39,74829,1,8,1:0:0:0:
79,32,74995,1,4,1:2:0:0:
79,32,75496,1,0,1:0:0:0:
23,103,75662,2,0,L|55:282,1,172.799994726563,4|0,3:0|0:0,0:0:0:0:
78,360,76329,38,0,P|116:354|143:358,1,57.5999982421876,2|0,1:0|0:0,0:0:0:0:
329,322,76662,2,0,P|300:324|272:320,1,57.5999982421876,2|0,0:1|0:0,0:0:0:0:
130,250,76996,1,8,0:1:0:0:
130,250,77329,1,10,1:0:0:0:
148,147,77496,1,10,1:0:0:0:
170,46,77662,6,0,B|234:55|234:55|248:82|248:82|333:91,1,172.799994726563,4|0,1:0|1:0,0:0:0:0:
412,91,78329,2,0,P|414:62|416:26,1,57.5999982421876,4|0,3:0|0:0,0:0:0:0:
505,170,78662,2,0,P|501:144|500:100,1,57.5999982421876,0|0,0:0|0:0,0:0:0:0:
416,207,78995,37,0,1:0:0:0:
506,283,79162,1,2,1:0:0:0:
345,255,79329,2,0,P|309:240|283:241,1,57.5999982421876,0|8,0:0|1:0,0:0:0:0:
280,363,79662,1,2,1:0:0:0:
280,363,79996,2,0,P|308:360|334:347,1,57.5999982421876,4|8,1:2|1:0,0:0:0:0:
443,228,80329,6,0,L|431:53,1,172.799994726563,4|0,1:0|1:0,0:0:0:0:
331,60,80996,1,4,3:0:0:0:
331,60,81662,38,0,P|294:66|266:66,1,57.5999982421876,0|0,1:0|0:0,0:0:0:0:
155,43,81996,1,4,3:3:0:0:
47,111,82162,1,0,1:0:0:0:
149,183,82329,2,0,P|199:176|289:175,1,115.199996484375,8|4,1:0|0:0,0:0:0:0:
420,156,82829,1,8,1:0:0:0:
420,156,82996,6,0,B|412:188|428:204|428:204|405:226|405:226|364:216|364:216|356:188|356:188|402:141|363:78,1,230.39999296875
76,256,87996,37,8,1:0:0:0:
296,312,88162,1,8,1:0:0:0:
76,256,88329,2,0,L|168:248,1,76.8,4|0,0:0|0:0,0:0:0:0:
296,312,88662,6,0,P|340:252|304:152,1,153.6,0|0,1:0|1:0,0:0:0:0:
327,177,89328,2,8,L|407:169,1,76.8,8|0,1:0|0:0,0:0:0:0:
152,249,89662,37,4,0:0:0:0:
256,64,89829,1,8,0:1:0:0:
403,169,89996,2,0,L|318:178,1,76.8,0|8,1:0|0:1,0:0:0:0:
72,240,90329,2,0,L|155:249,1,76.8,4|0,1:2|0:0,0:0:0:0:
326,177,90662,5,4,1:0:0:0:
148,248,90829,1,8,1:0:0:0:
326,177,90995,38,0,B|346:157|346:157|334:281,1,153.6,4|8,0:0|1:0,0:0:0:0:
208,138,91662,2,0,B|180:131|180:131|294:79,1,153.6,4|8,3:0|1:0,0:0:0:0:
233,260,92328,2,0,B|241:287|241:287|139:215,1,153.6,4|8,3:0|3:1,3:0:0:0:
294,79,92829,1,8,1:0:0:0:
233,260,92995,2,0,B|240:232|240:232|138:305,2,153.6,4|8|4,3:2|3:0|1:0,3:0:0:0:
256,192,93745,12,4,97661,0:0:0:0:
80,72,97996,5,8,1:0:0:0:
80,72,98329,1,8,1:0:0:0:
256,176,98496,1,8,1:0:0:0:
108,256,98662,1,4,1:2:0:0:
384,272,98829,1,0,1:0:0:0:
401,304,98912,1,0,1:0:0:0:
402,350,98995,6,0,L|260:365,1,115.199996484375,12|0,1:0|2:0,0:0:0:0:
451,201,99329,1,10,0:0:0:0:
491,308,99496,1,0,2:0:0:0:
204,253,99662,2,0,L|346:268,1,115.199996484375,2|0,0:0|2:0,0:0:0:0:
155,104,99995,1,10,0:0:0:0:
115,211,100162,1,2,0:0:0:0:
239,57,100329,6,0,P|156:18|76:46,1,172.799994726563,4|0,0:2|2:0,0:0:0:0:
322,147,100662,2,0,L|337:31,1,115.199996484375,8|0,0:0|2:0,0:0:0:0:
244,218,100996,38,0,P|256:228|274:235,1,28.7999991210938,10|0,0:0|2:0,0:0:0:0:
421,186,101162,2,0,P|403:193|388:197,1,28.7999991210938,10|0,0:0|2:0,0:0:0:0:
148,274,101329,2,0,P|167:271|187:266,1,28.7999991210938,4|0,0:2|2:0,0:0:0:0:
498,298,101496,2,0,P|474:286|465:281,1,28.7999991210938,10|0,0:0|2:0,0:0:0:0:
322,147,101662,6,0,L|337:31,1,115.199996484375,4|0,0:0|2:0,0:0:0:0:
264,269,101996,2,0,P|260:326|276:382,1,115.199996484375,8|0,0:0|2:0,0:0:0:0:
404,384,102246,1,0,2:0:0:0:
428,380,102329,2,0,P|444:325|441:268,1,115.199996484375,2|2,0:0|0:0,0:0:0:0:
216,183,102662,2,0,P|283:176|325:215,1,115.199996484375,8|2,0:0|0:0,0:0:0:0:
122,268,102996,38,0,B|127:230|111:209|111:209|126:175|126:175|103:149|110:100,1,172.799994726563,4|0,1:2|2:0,0:0:0:0:
112,16,103329,2,0,P|68:29|0:31,1,115.199996484375,4|2,0:2|0:0,0:0:0:0:
186,86,103662,1,2,0:0:0:0:
186,86,103829,1,4,0:2:0:0:
14,206,103996,1,10,0:0:0:0:
14,206,104162,1,10,0:0:0:0:
248,353,104329,6,0,L|262:206,1,115.199996484375,4|0,0:0|2:0,0:0:0:0:
298,158,104579,1,0,2:0:0:0:
298,158,104662,2,0,L|277:30,1,115.199996484375,10|2,0:0|0:0,0:0:0:0:
448,184,104996,1,2,0:0:0:0:
340,239,105162,1,0,2:0:0:0:
176,264,105329,2,0,L|197:136,1,115.199996484375,10|2,0:0|0:0,0:0:0:0:
26,290,105663,37,6,0:0:0:0:
134,345,105829,1,0,2:0:0:0:
125,88,105996,1,12,0:0:0:0:
41,186,106162,1,0,2:0:0:0:
285,99,106329,6,0,L|244:74,1,28.7999991210938,14|0,0:0|2:0,0:0:0:0:
321,229,106496,2,0,L|348:181,1,28.7999991210938,10|0,0:0|2:0,0:0:0:0:
204,260,106662,2,0,L|240:278,1,28.7999991210938,4|0,1:2|2:0,0:0:0:0:
176,140,106829,2,0,L|151:180,1,28.7999991210938,10|0,0:0|2:0,0:0:0:0:
329,322,106996,38,0,B|399:328|399:328|427:350|427:350|507:358,1,172.799994726563,6|0,0:0|2:0,0:0:0:0:
458,196,107329,2,0,B|371:185|371:185|417:156,1,115.199996484375,10|0,0:0|2:0,0:0:0:0:
512,106,107662,1,2,0:0:0:0:
482,284,107829,1,2,0:0:0:0:
256,208,107996,1,8,0:0:0:0:
310,16,108163,1,10,0:0:0:0:
382,276,108329,6,0,L|203:309,1,172.799994726563,4|0,0:2|2:0,0:0:0:0:
9,288,108662,2,0,L|127:264,1,115.199996484375,10|2,0:0|0:0,0:0:0:0:
49,368,108996,1,2,0:0:0:0:
25,194,109162,1,4,0:2:0:0:
200,124,109329,1,10,0:0:0:0:
212,307,109496,1,10,0:0:0:0:
25,194,109662,38,0,L|47:7,1,172.799994726563,6|0,0:0|2:0,0:0:0:0:
136,169,109996,2,0,P|118:120|118:48,1,115.199996484375,10|0,0:0|2:0,0:0:0:0:
306,121,110329,2,0,P|305:178|286:232,1,115.199996484375,2|0,0:0|2:0,0:0:0:0:
219,82,110662,2,2,P|281:46|387:73,1,172.799994726563,10|0,0:0|2:0,0:0:0:0:
453,89,110996,5,4,0:2:0:0:
405,282,111162,1,2,0:0:0:0:
379,139,111329,1,8,0:0:0:0:
468,346,111496,1,8,0:0:0:0:
491,196,111662,38,0,L|441:208,1,28.7999991210938,10|0,0:0|2:0,0:0:0:0:
214,297,111829,2,0,L|263:283,1,28.7999991210938,10|0,0:0|2:0,0:0:0:0:
308,166,111996,2,0,L|281:174,1,28.7999991210938,4|0,0:2|2:0,0:0:0:0:
30,266,112163,2,0,L|59:260,1,28.7999991210938,10|0,0:0|2:0,0:0:0:0:
308,70,112329,6,0,L|128:99,1,172.799994726563,4|0,0:0|2:0,0:0:0:0:
63,152,112662,2,0,P|55:101|76:18,1,115.199996484375,10|0,0:0|0:0,0:0:0:0:
391,34,112996,2,0,P|399:85|378:168,1,115.199996484375,2|2,0:0|0:0,0:0:0:0:
408,174,113246,1,0,2:0:0:0:
431,199,113329,2,0,L|305:210,1,115.199996484375,10|0,0:0|2:0,0:0:0:0:
194,109,113662,37,4,0:2:0:0:
304,121,113829,1,0,2:0:0:0:
188,24,113996,1,4,0:2:0:0:
75,40,114163,1,0,2:0:0:0:
102,206,114329,5,4,0:2:0:0:
223,184,114496,1,2,0:0:0:0:
43,119,114662,1,8,0:0:0:0:
43,302,114829,1,10,0:0:0:0:
126,248,114996,38,0,B|133:182|133:182|152:168|152:168|158:78,1,172.799994726563,6|0,0:0|2:0,0:0:0:0:
176,48,115329,2,0,B|119:31|119:31|52:56,1,115.199996484375,10|0,0:0|2:0,0:0:0:0:
68,318,115662,2,0,B|125:335|125:335|192:310,1,115.199996484375,2|0,0:0|2:0,0:0:0:0:
11,133,115996,1,10,0:0:0:0:
23,233,116162,1,10,0:0:0:0:
259,191,116329,5,6,0:0:0:0:
288,83,116495,1,0,2:0:0:0:
147,203,116662,1,8,0:0:0:0:
344,266,116829,1,10,0:0:0:0:
406,161,116996,38,0,P|383:161|356:169,1,28.7999991210938,14|0,0:0|2:0,0:0:0:0:
152,292,117162,2,0,P|166:289|180:283,1,28.7999991210938,10|0,0:0|2:0,0:0:0:0:
260,92,117329,2,0,P|273:86|287:82,1,28.7999991210938,4|0,0:2|2:0,0:0:0:0:
308,344,117495,2,0,P|327:351|348:352,1,28.7999991210938,0|0,1:2|2:0,0:0:0:0:
486,286,117662,6,0,B|461:196|529:216|492:93,1,172.799994726563,6|0,0:0|2:0,0:0:0:0:
486,39,117996,2,0,P|441:26|368:48,1,115.199996484375,8|0,0:0|2:0,0:0:0:0:
170,38,118329,2,0,P|211:26|291:34,1,115.199996484375,0|0,0:0|2:0,0:0:0:0:
286,203,118662,2,0,P|245:215|165:207,1,115.199996484375,8|0,0:0|2:0,0:0:0:0:
145,229,118912,1,0,2:0:0:0:
120,253,118996,38,0,L|102:75,1,172.799994726563,0|0,0:0|2:0,0:0:0:0:
125,98,119329,1,8,0:0:0:0:
206,152,119496,1,2,0:0:0:0:
21,133,119662,1,4,0:2:0:0:
4,276,119829,1,8,0:0:0:0:
316,192,119996,1,2,0:0:0:0:
256,36,120163,1,10,0:0:0:0:
104,192,120329,6,0,P|128:280|152:296,1,115.199996484375,12|0,0:0|0:0,0:0:0:0:
368,292,120662,2,0,P|404:248|407:192,1,115.199996484375,8|0,0:0|0:0,0:0:0:0:
106,218,120995,38,0,P|145:300|171:312,1,115.199996484375,8|0,0:0|0:0,0:0:0:0:
383,271,121328,2,0,P|412:222|405:166,1,115.199996484375,8|0,0:0|0:0,0:0:0:0:
113,243,121662,6,0,P|165:318|193:325,1,115.199996484375,8|0,0:0|0:0,0:0:0:0:
395,247,121995,2,0,P|415:194|398:140,1,115.199996484375,8|8,0:0|0:0,0:0:0:0:
124,268,122328,38,0,P|189:332|217:334,1,115.199996484375,0|8,0:0|0:0,0:0:0:0:
402,222,122661,2,0,P|413:166|387:116,1,115.199996484375,8|8,0:0|0:0,0:0:0:0:
208,252,122995,5,4,0:2:0:0:
252,52,123162,1,0,0:0:0:0:
208,252,123329,37,8,0:0:0:0:
400,315,123495,1,8,0:0:0:0:
208,252,123662,5,4,0:2:0:0:
252,52,123829,1,0,0:0:0:0:
208,252,123996,37,8,0:0:0:0:
400,315,124162,1,8,0:0:0:0:
304,132,124328,5,4,0:2:0:0:
260,332,124495,1,8,0:0:0:0:
304,132,124662,37,4,0:2:0:0:
112,69,124828,1,8,0:0:0:0:
304,132,124995,5,4,0:2:0:0:
260,332,125162,1,8,0:0:0:0:
304,132,125329,37,8,0:0:0:0:
112,69,125495,1,4,0:2:0:0:
176,260,125662,6,0,L|44:276,1,115.199996484375,12|0,0:0|0:0,0:0:0:0:
336,260,125995,2,0,L|468:276,1,115.199996484375,8|0,0:0|0:0,0:0:0:0:
165,245,126328,38,0,L|32:237,1,115.199996484375,8|0,0:0|0:0,0:0:0:0:
322,272,126661,2,0,L|450:311,1,115.199996484375,8|0,0:0|0:0,0:0:0:0:
157,228,126995,6,0,L|28:198,1,115.199996484375,8|0,0:0|0:0,0:0:0:0:
307,283,127328,2,0,L|426:343,1,115.199996484375,8|8,0:0|0:0,0:0:0:0:
152,210,127661,38,0,L|30:158,1,115.199996484375,0|8,0:0|0:0,0:0:0:0:
291,290,127995,2,0,L|392:368,1,115.199996484375,0|8,0:0|0:0,0:0:0:0:
188,320,128328,5,4,0:2:0:0:
232,84,128495,1,0,0:0:0:0:
332,314,128662,37,8,0:0:0:0:
150,158,128829,1,8,0:0:0:0:
400,186,128995,5,4,0:2:0:0:
174,266,129162,1,0,0:0:0:0:
324,64,129329,37,4,0:2:0:0:
280,300,129496,1,0,0:0:0:0:
179,69,129662,5,8,0:0:0:0:
361,225,129829,1,4,0:2:0:0:
111,197,129996,37,8,0:0:0:0:
337,117,130163,1,4,0:2:0:0:
188,320,130328,5,8,0:0:0:0:
232,83,130495,1,4,0:2:0:0:
388,356,130662,1,8,0:0:0:0:
111,197,130829,37,8,0:0:0:0:
195,190,130912,5,8,0:0:0:0:
280,184,130996,5,12,1:0:0:0:
