osu file format v14

[General]
AudioFilename: Get Jinxed.mp3
AudioLeadIn: 0
PreviewTime: 20553
Countdown: 1
SampleSet: Soft
StackLeniency: 0.7
Mode: 0
LetterboxInBreaks: 1
WidescreenStoryboard: 1

[Editor]
Bookmarks: 15207,20540,31207,41873,55206,65873,76540,87206,97873,103206,113873,124540,135206,145873
DistanceSpacing: 1.6
BeatDivisor: 4
GridSize: 4
TimelineZoom: 1

[Metadata]
Title:Get Jinxed
TitleUnicode:Get Jinxed
Artist:Agnete Kjolsrud
ArtistUnicode:Agnete Kjolsrud
Creator:Reiji-RJ
Version:Hard
Source:League of Legends
Tags:LoL Riot Games Djerv Jinx Vass_Bass ReFaller
BeatmapID:1012232
BeatmapSetID:131936

[Difficulty]
HPDrainRate:6
CircleSize:4
OverallDifficulty:6
ApproachRate:8
SliderMultiplier:1.4
SliderTickRate:1

[Events]
//Background and Video events
0,0,"bgbgbg.jpg",0,0
Video,0,"Get Jinxed.avi"
//Break Periods
2,98096,102146
//Storyboard Layer 0 (Background)
//Storyboard Layer 1 (Fail)
//Storyboard Layer 2 (Pass)
//Storyboard Layer 3 (Foreground)
//Storyboard Sound Samples

[TimingPoints]
15230,333.333333333333,4,2,0,15,1,0
15230,-133.333333333333,4,2,0,15,0,0
19896,-133.333333333333,4,1,0,15,0,0
20563,-133.333333333333,4,2,0,15,0,0
21229,-133.333333333333,4,2,0,20,0,0
21896,-133.333333333333,4,2,0,10,0,0
21980,-133.333333333333,4,2,0,15,0,0
22563,-133.333333333333,4,1,0,20,0,0
23229,-133.333333333333,4,2,0,15,0,0
23896,-133.333333333333,4,2,0,20,0,0
24563,-133.333333333333,4,2,0,10,0,0
24646,-133.333333333333,4,2,0,15,0,0
25229,-133.333333333333,4,1,0,20,0,0
25896,-133.333333333333,4,2,0,15,0,0
26563,-133.333333333333,4,2,0,20,0,0
27229,-133.333333333333,4,2,0,10,0,0
27313,-133.333333333333,4,2,0,15,0,0
27896,-133.333333333333,4,1,0,20,0,0
28563,-133.333333333333,4,2,0,15,0,0
29229,-133.333333333333,4,2,0,20,0,0
29896,-133.333333333333,4,2,0,15,0,0
30563,-133.333333333333,4,1,0,20,0,0
31229,-133.333333333333,4,2,0,35,0,0
31563,-133.333333333333,4,2,0,30,0,0
31646,-133.333333333333,4,2,0,35,0,0
32229,-133.333333333333,4,2,0,30,0,0
32313,-133.333333333333,4,2,0,35,0,0
32896,-133.333333333333,4,2,0,30,0,0
32979,-133.333333333333,4,2,0,35,0,0
34229,-133.333333333333,4,2,0,30,0,0
34313,-133.333333333333,4,2,0,35,0,0
34896,-133.333333333333,4,2,0,30,0,0
34979,-133.333333333333,4,2,0,35,0,0
35563,-133.333333333333,4,2,0,30,0,0
35646,-133.333333333333,4,2,0,35,0,0
36896,-133.333333333333,4,2,0,30,0,0
36979,-133.333333333333,4,2,0,35,0,0
37563,-133.333333333333,4,2,0,30,0,0
37646,-133.333333333333,4,2,0,35,0,0
38229,-133.333333333333,4,2,0,30,0,0
38313,-133.333333333333,4,2,0,35,0,0
39563,-133.333333333333,4,2,0,30,0,0
39646,-133.333333333333,4,2,0,35,0,0
40229,-133.333333333333,4,2,0,30,0,0
40313,-133.333333333333,4,2,0,35,0,0
40896,-133.333333333333,4,2,0,30,0,0
40979,-133.333333333333,4,2,0,35,0,0
41563,-133.333333333333,4,2,1,30,0,0
41896,-100,4,2,1,50,0,1
41979,-100,4,2,1,50,0,0
43729,-100,4,2,1,40,0,0
44563,-100,4,2,1,50,0,0
46313,-100,4,2,1,40,0,0
47229,-100,4,2,1,50,0,0
49146,-100,4,2,1,40,0,0
49896,-100,4,2,1,50,0,0
51646,-100,4,2,1,40,0,0
52563,-200,4,2,1,20,0,0
53729,-133.333333333333,4,2,1,15,0,0
54896,-133.333333333333,4,2,1,30,0,0
55229,-100,4,1,1,50,0,1
55313,-100,4,1,1,50,0,0
55729,-100,4,1,1,35,0,0
55813,-100,4,1,1,50,0,0
56396,-100,4,1,1,35,0,0
56479,-100,4,1,1,50,0,0
57063,-100,4,1,1,35,0,0
57229,-100,4,1,1,50,0,1
57313,-100,4,1,1,35,0,0
57563,-100,4,1,1,40,0,0
57729,-100,4,1,1,45,0,0
57896,-100,4,1,1,50,0,1
57979,-100,4,1,1,50,0,0
58396,-100,4,1,1,35,0,0
58479,-100,4,1,1,50,0,0
59063,-100,4,1,1,35,0,0
59146,-100,4,1,1,50,0,0
59729,-100,4,1,1,35,0,0
59813,-100,4,1,1,50,0,0
60396,-100,4,1,1,35,0,0
60479,-100,4,1,1,50,0,0
61063,-100,4,1,1,35,0,0
61146,-100,4,1,1,50,0,0
61729,-100,4,1,1,35,0,0
61813,-100,4,1,1,50,0,0
62396,-100,4,1,1,35,0,0
62563,-100,4,1,1,50,0,1
62646,-100,4,1,1,35,0,0
62896,-100,4,1,1,40,0,0
63063,-100,4,1,1,45,0,0
63229,-100,4,1,1,50,0,1
63313,-100,4,1,1,50,0,0
63729,-100,4,1,1,35,0,0
63813,-100,4,1,1,50,0,0
64396,-100,4,1,1,35,0,0
64479,-100,4,1,1,50,0,0
65063,-100,4,1,1,35,0,0
65146,-100,4,1,1,50,0,0
65896,-100,4,1,1,50,0,1
65979,-100,4,1,1,50,0,0
66396,-100,4,1,1,35,0,0
66479,-100,4,1,1,50,0,0
66979,-100,4,1,1,35,0,0
67146,-100,4,1,1,50,0,0
67729,-100,4,1,1,35,0,0
67813,-100,4,1,1,50,0,0
67896,-100,4,1,1,50,0,1
67979,-100,4,1,1,35,0,0
68146,-100,4,1,1,40,0,0
68313,-100,4,1,1,45,0,0
68563,-100,4,1,1,50,0,1
68646,-100,4,1,1,50,0,0
68979,-100,4,1,1,35,0,0
69146,-100,4,1,1,50,0,0
69729,-100,4,1,1,35,0,0
69813,-100,4,1,1,50,0,0
70646,-100,4,1,1,35,0,0
70813,-100,4,1,1,50,0,0
71063,-100,4,1,1,35,0,0
71146,-100,4,1,1,50,0,0
71646,-100,4,1,1,35,0,0
71813,-100,4,1,1,50,0,0
72396,-100,4,1,1,35,0,0
72479,-100,4,1,1,50,0,0
73063,-100,4,1,1,35,0,0
73146,-100,4,1,1,50,0,0
73229,-100,4,1,1,50,0,1
73313,-100,4,1,1,35,0,0
73479,-100,4,1,1,40,0,0
73646,-100,4,1,1,45,0,0
73896,-100,4,1,1,50,0,1
73979,-100,4,1,1,50,0,0
74313,-100,4,1,1,35,0,0
74479,-100,4,1,1,50,0,0
75063,-100,4,1,1,35,0,0
75146,-100,4,1,1,50,0,0
75729,-100,4,1,1,35,0,0
75813,-100,4,1,1,50,0,0
76563,-100,4,1,1,50,0,1
76646,-133.333333333333,4,2,1,30,0,0
77229,-133.333333333333,4,2,1,45,0,0
77313,-133.333333333333,4,2,1,30,0,0
78563,-133.333333333333,4,2,1,45,0,0
78646,-133.333333333333,4,2,1,30,0,0
79896,-133.333333333333,4,2,1,45,0,0
79979,-133.333333333333,4,2,1,30,0,0
81229,-133.333333333333,4,2,1,45,0,0
81313,-133.333333333333,4,2,1,30,0,0
81896,-133.333333333333,4,2,1,45,0,0
81979,-133.333333333333,4,2,1,30,0,0
82563,-133.333333333333,4,2,1,45,0,0
82646,-133.333333333333,4,2,1,30,0,0
83896,-133.333333333333,4,2,1,45,0,0
83979,-133.333333333333,4,2,1,30,0,0
85229,-133.333333333333,4,2,1,45,0,0
85313,-133.333333333333,4,2,1,30,0,0
86563,-133.333333333333,4,2,1,45,0,0
86813,-133.333333333333,4,2,1,35,0,0
87229,-133.333333333333,4,2,1,40,0,0
87896,-133.333333333333,4,2,1,55,0,0
87979,-133.333333333333,4,2,1,40,0,0
89229,-133.333333333333,4,2,1,55,0,0
89313,-133.333333333333,4,2,1,40,0,0
90563,-133.333333333333,4,2,1,55,0,0
90646,-133.333333333333,4,2,1,40,0,0
91896,-133.333333333333,4,2,1,55,0,0
91979,-133.333333333333,4,2,1,40,0,0
93229,-133.333333333333,4,2,1,55,0,0
93313,-133.333333333333,4,2,1,40,0,0
94563,-133.333333333333,4,2,1,55,0,0
94646,-133.333333333333,4,2,1,40,0,0
95896,-133.333333333333,4,2,1,55,0,0
95979,-133.333333333333,4,2,1,40,0,0
97146,-133.333333333333,4,2,1,55,0,0
97313,-133.333333333333,4,2,1,40,0,0
97896,-133.333333333333,4,2,1,25,0,0
104313,-133.333333333333,4,2,1,15,0,0
104479,-133.333333333333,4,2,1,25,0,0
107063,-133.333333333333,4,2,1,15,0,0
107146,-133.333333333333,4,2,1,25,0,0
109729,-133.333333333333,4,2,1,15,0,0
109813,-133.333333333333,4,2,1,25,0,0
111063,-133.333333333333,4,2,1,15,0,0
111146,-133.333333333333,4,2,1,25,0,0
112396,-133.333333333333,4,2,1,15,0,0
112479,-133.333333333333,4,2,1,25,0,0
113563,-133.333333333333,4,2,1,30,0,0
113729,-133.333333333333,4,2,1,35,0,0
113896,-100,4,1,1,50,0,1
113979,-100,4,1,1,50,0,0
114313,-100,4,1,1,35,0,0
114479,-100,4,1,1,50,0,0
115063,-100,4,1,1,35,0,0
115146,-100,4,1,1,50,0,0
115729,-100,4,1,1,35,0,0
115896,-100,4,1,1,50,0,1
115979,-100,4,1,1,35,0,0
116229,-100,4,1,1,40,0,0
116396,-100,4,1,1,45,0,0
116563,-100,4,1,1,50,0,1
116646,-100,4,1,1,50,0,0
116979,-100,4,1,1,35,0,0
117146,-100,4,1,1,50,0,0
117729,-100,4,1,1,35,0,0
117813,-100,4,1,1,50,0,0
118313,-100,4,1,1,35,0,0
118479,-100,4,1,1,50,0,0
119063,-100,4,1,1,35,0,0
119229,-100,4,1,1,50,0,0
119646,-100,4,1,1,35,0,0
119813,-100,4,1,1,50,0,0
120396,-100,4,1,1,35,0,0
120479,-100,4,1,1,50,0,0
121063,-100,4,1,1,35,0,0
121229,-100,4,1,1,50,0,1
121313,-100,4,1,1,35,0,0
121563,-100,4,1,1,40,0,0
121729,-100,4,1,1,45,0,0
121896,-100,4,1,1,50,0,1
121979,-100,4,1,1,50,0,0
122313,-100,4,1,1,35,0,0
122479,-100,4,1,1,50,0,0
123063,-100,4,1,1,35,0,0
123146,-100,4,1,1,50,0,0
123646,-100,4,1,1,35,0,0
123813,-100,4,1,1,50,0,0
123979,-100,4,1,1,35,0,0
124146,-100,4,1,1,50,0,0
124563,-100,4,1,1,50,0,1
124646,-100,4,1,1,50,0,0
125063,-100,4,1,1,35,0,0
125146,-100,4,1,1,50,0,0
125729,-100,4,1,1,35,0,0
125813,-100,4,1,1,50,0,0
126396,-100,4,1,1,35,0,0
126563,-100,4,1,1,50,0,1
126646,-100,4,1,1,35,0,0
126813,-100,4,1,1,40,0,0
126979,-100,4,1,1,45,0,0
127229,-100,4,1,1,50,0,1
127313,-100,4,1,1,50,0,0
127729,-100,4,1,1,35,0,0
127813,-100,4,1,1,50,0,0
128396,-100,4,1,1,35,0,0
128479,-100,4,1,1,50,0,0
129063,-100,4,1,1,35,0,0
129146,-100,4,1,1,50,0,0
129729,-100,4,1,1,35,0,0
129813,-100,4,1,1,50,0,0
130396,-100,4,1,1,35,0,0
130479,-100,4,1,1,50,0,0
131063,-100,4,1,1,35,0,0
131146,-100,4,1,1,50,0,0
131729,-100,4,1,1,35,0,0
131896,-100,4,1,1,50,0,1
131979,-100,4,1,1,35,0,0
132146,-100,4,1,1,40,0,0
132313,-100,4,1,1,45,0,0
132563,-100,4,1,1,50,0,1
132646,-100,4,1,1,50,0,0
133063,-100,4,1,1,35,0,0
133146,-100,4,1,1,50,0,0
133729,-100,4,1,1,35,0,0
133813,-100,4,1,1,50,0,0
134396,-100,4,1,1,35,0,0
134479,-100,4,1,1,50,0,0
135063,-100,4,1,1,35,0,0
135146,-100,4,1,1,50,0,0
135229,-100,4,1,1,50,0,1
135646,-100,4,1,1,35,0,1
135813,-100,4,1,1,50,0,1
136313,-100,4,1,1,35,0,1
136479,-100,4,1,1,50,0,1
136979,-100,4,1,1,35,0,1
137146,-100,4,1,1,50,0,1
137896,-100,4,1,1,40,0,1
137979,-100,4,1,1,35,0,1
138229,-100,4,1,1,40,0,1
138313,-100,4,1,1,50,0,1
138563,-100,4,1,1,40,0,1
138896,-100,4,1,1,40,0,1
138979,-100,4,1,1,35,0,1
139229,-100,4,1,1,40,0,1
139313,-100,4,1,1,50,0,1
139563,-100,4,1,1,40,0,1
139646,-100,4,1,1,35,0,1
139896,-100,4,1,1,40,0,1
139979,-100,4,1,1,50,0,1
140396,-100,4,1,1,35,0,1
140563,-100,4,1,1,50,0,1
140979,-100,4,1,1,35,0,1
141146,-100,4,1,1,50,0,1
141646,-100,4,1,1,35,0,1
141813,-100,4,1,1,50,0,1
142396,-100,4,1,1,35,0,1
142479,-100,4,1,1,50,0,1
143229,-100,4,1,1,40,0,1
143313,-100,4,1,1,35,0,1
143479,-100,4,1,1,40,0,1
143896,-100,4,1,1,50,0,1
144063,-100,4,1,1,40,0,1
144479,-100,4,1,1,50,0,1
145813,-100,4,1,1,50,0,0
145896,-100,4,1,1,50,0,1
145979,-100,4,1,1,50,0,0

[Colours]
Combo1 : 0,60,85
Combo2 : 244,53,116
Combo3 : 0,115,170
Combo4 : 47,255,151
Combo5 : 0,174,174

[HitObjects]
156,76,15230,22,0,L|148:44,5,17.500000667572
136,96,15563,2,0,P|82:86|28:84,2,105.000004005432,2|0|2,0:0|0:0|0:0,0:0:0:0:
228,156,16396,1,0,0:0:0:0:
228,156,16730,1,2,0:0:0:0:
228,156,17063,1,0,0:0:0:0:
316,108,17229,2,0,L|304:52,1,52.5000020027161,2|0,0:0|0:0,0:0:0:0:
412,76,17563,2,0,L|424:132,1,52.5000020027161,0|2,0:0|0:0,0:0:0:0:
460,232,17896,6,0,L|436:344,1,105.000004005432,4|2,0:0|0:0,0:0:0:0:
352,308,18396,1,0,0:0:0:0:
308,236,18563,1,0,0:0:0:0:
296,152,18729,1,0,0:0:0:0:
312,68,18896,1,2,0:0:0:0:
380,124,19063,2,0,P|412:84|424:32,2,105.000004005432,0|2|0,0:0|0:0|0:0,0:0:0:0:
280,160,19896,38,2,B|260:143|260:143|244:158|244:158|228:142|228:142|212:157|212:157|196:141|196:141|180:156|180:156|164:139|164:139|148:155|148:155|128:138|128:138,1,210.000008010865,4|4,0:0|1:0,0:0:0:0:
48,312,20896,37,2,0:0:0:0:
48,312,21063,2,0,P|96:284|144:276,1,105.000004005432,0|2,0:0|0:0,0:0:0:0:
256,320,21563,2,0,B|276:284|276:284|264:220,1,105.000004005432,0|0,0:0|1:0,0:0:0:0:
244,128,22063,1,2,0:0:0:0:
152,152,22229,1,0,1:0:0:0:
172,244,22396,1,0,1:0:0:0:
264,221,22563,2,0,L|316:225,2,52.5000020027161
168,248,23063,1,4,0:0:0:0:
396,328,23563,5,2,0:0:0:0:
396,328,23729,2,0,P|420:276|424:228,1,105.000004005432,0|2,0:0|0:0,0:0:0:0:
392,140,24229,1,0,0:0:0:0:
144,56,24563,2,0,L|88:64,1,52.5000020027161,0|2,1:0|0:0,0:0:0:0:
144,148,24896,2,0,L|196:140,1,52.5000020027161,0|0,1:0|1:0,0:0:0:0:
284,108,25229,1,0,0:0:0:0:
272,192,25396,1,0,0:0:0:0:
260,276,25563,1,0,0:0:0:0:
248,356,25729,1,4,0:0:0:0:
452,272,26229,21,2,0:0:0:0:
452,272,26396,2,0,P|396:284|360:316,1,105.000004005432,0|2,0:0|0:0,0:0:0:0:
248,356,26896,2,0,P|200:352|148:328,1,105.000004005432,0|0,0:0|1:0,0:0:0:0:
96,244,27396,1,2,0:0:0:0:
28,320,27563,2,0,L|40:370,1,52.5000020027161,0|0,1:0|1:0,0:0:0:0:
96,244,27896,2,0,L|84:192,2,52.5000020027161
192,280,28396,1,4,0:0:0:0:
472,192,28896,5,2,0:0:0:0:
472,192,29063,2,0,L|364:184,1,105.000004005432,0|2,0:0|0:0,0:0:0:0:
288,220,29563,1,0,0:0:0:0:
288,220,29896,1,0,1:0:0:0:
304,304,30063,1,2,0:0:0:0:
220,324,30229,1,0,1:0:0:0:
204,240,30396,1,0,1:0:0:0:
288,220,30563,37,0,1:0:0:0:
376,200,30729,1,0,0:0:0:0:
360,112,30896,1,0,1:0:0:0:
272,132,31063,1,0,1:0:0:0:
168,128,31229,38,0,P|116:120|68:92,1,105.000004005432,0|2,1:0|3:0,0:0:0:0:
276,36,31896,2,0,P|328:44|376:72,1,105.000004005432,0|2,1:0|3:0,0:0:0:0:
373,69,32563,2,0,L|357:173,1,105.000004005432,0|2,1:0|3:0,0:0:0:0:
396,276,33063,1,0,0:0:0:0:
396,276,33229,2,0,L|384:344,1,52.5000020027161,0|0,1:0|0:0,0:0:0:0:
264,288,33563,2,0,L|276:228,1,52.5000020027161,0|0,1:0|0:0,0:0:0:0:
172,200,33896,6,0,L|64:204,1,105.000004005432,0|2,1:0|3:0,0:0:0:0:
188,60,34563,2,0,L|296:56,1,105.000004005432,0|2,1:0|3:0,0:0:0:0:
480,156,35229,2,0,L|372:160,1,105.000004005432,0|2,1:0|3:0,0:0:0:0:
375,159,35896,2,0,P|348:148|316:144,1,52.5000020027161,0|0,1:0|0:0,0:0:0:0:
228,180,36229,2,0,P|216:196|205:228,1,52.5000020027161,0|0,1:0|0:0,0:0:0:0:
205,226,36563,22,0,P|158:202|106:200,1,105.000004005432,0|2,1:0|3:0,0:0:0:0:
152,312,37063,1,0,0:0:0:0:
152,312,37229,2,0,P|198:335|250:337,1,105.000004005432,0|2,1:0|3:0,0:0:0:0:
360,340,37729,1,0,0:0:0:0:
360,340,37896,2,0,L|376:220,1,105.000004005432,0|2,1:0|0:3,0:0:0:0:
384,144,38396,1,0,0:0:0:0:
460,200,38563,2,0,L|516:192,1,52.5000020027161,0|0,1:0|0:0,0:0:0:0:
384,144,38896,2,0,L|329:152,1,52.5000020027161,0|0,1:0|0:0,0:0:0:0:
232,176,39229,22,0,P|224:120|212:68,1,105.000004005432,0|2,1:0|3:0,0:0:0:0:
92,64,39729,1,0,0:0:0:0:
92,64,39896,2,0,P|100:120|112:172,1,105.000004005432,0|2,1:0|3:0,0:0:0:0:
80,272,40396,1,0,0:0:0:0:
80,272,40563,2,0,P|68:304|68:336,1,52.5000020027161,0|0,1:0|0:0,0:0:0:0:
176,340,40896,2,0,L|236:352,1,52.5000020027161,2|0,3:0|0:0,0:0:0:0:
328,324,41229,2,0,P|338:299|341:273,1,52.5000020027161,0|0,1:0|0:0,0:0:0:0:
248,236,41563,1,8,1:0:0:0:
148,196,41729,1,0,1:0:0:0:
248,236,41896,6,0,P|292:212|328:164,1,105,4|0,1:0|0:0,0:0:0:0:
325,169,42229,2,0,L|401:177,1,70,0|0,1:0|0:0,0:0:0:0:
324,60,42563,2,0,L|248:52,1,70
100,136,42896,2,0,P|128:120|168:116,1,70,0|0,1:0|0:0,0:0:0:0:
165,115,43229,2,0,L|156:260,1,140,0|0,0:0|1:0,0:0:0:0:
340,324,43896,1,0,1:0:0:0:
428,308,44063,1,2,0:0:0:0:
408,220,44229,1,8,1:0:0:0:
320,240,44396,1,0,1:0:0:0:
432,312,44563,22,0,P|448:264|444:208,1,105
456,200,44896,2,0,L|384:192,1,70,0|0,1:0|0:0,0:0:0:0:
280,164,45229,2,0,P|270:130|264:96,1,70
152,80,45563,2,0,L|80:96,1,70,0|0,1:0|0:0,0:0:0:0:
16,192,45896,2,0,P|92:200|148:232,1,140,0|0,0:0|1:0,0:0:0:0:
263,294,46396,1,2,0:0:0:0:
263,294,46563,2,0,B|291:254|291:254|279:162,1,140,0|0,0:0|1:0,0:0:0:0:
260,60,47063,1,4,0:0:0:0:
180,128,47229,6,0,P|124:120|76:88,1,105
83,95,47563,2,0,L|8:108,1,70,0|0,1:0|0:0,0:0:0:0:
24,212,47896,2,0,L|44:284,1,70
120,336,48229,2,0,P|148:320|188:312,1,70,0|0,1:0|0:0,0:0:0:0:
284,320,48563,2,0,P|340:348|424:348,1,140,0|0,0:0|1:0,0:0:0:0:
416,349,49229,1,0,0:0:0:0:
436,268,49396,1,2,0:0:0:0:
452,184,49563,1,0,1:0:0:0:
468,100,49729,1,0,1:0:0:0:
340,32,49896,6,0,L|358:170,1,140,0|0,0:0|1:0,0:0:0:0:
292,256,50396,1,0,0:0:0:0:
292,256,50563,2,0,B|252:232|252:232|156:244,1,140,0|0,0:0|1:0,0:0:0:0:
40,320,51063,1,0,0:0:0:0:
44,324,51229,2,0,L|120:336,1,70,0|0,1:0|0:0,0:0:0:0:
159,243,51563,2,0,P|140:200|144:144,1,105,0|0,1:0|0:0,0:0:0:0:
152,136,51896,5,0,1:0:0:0:
244,128,52063,1,0,1:0:0:0:
336,120,52229,1,0,1:0:0:0:
428,120,52396,1,0,1:0:0:0:
428,120,52479,1,0,1:0:0:0:
440,332,53563,6,0,L|436:352,5,11.6666666666667
400,312,53896,2,0,L|408:284,12,17.500000667572,2|0|0|0|0|0|0|0|0|0|0|0|0,0:0|0:0|0:0|0:0|0:0|0:0|0:0|0:0|0:0|0:0|0:0|0:0|0:0,0:0:0:0:
48,320,54896,1,8,1:0:0:0:
164,344,55063,1,0,1:0:0:0:
48,320,55229,6,0,P|35:279|32:248,1,70,4|0,0:0|2:3,0:0:0:0:
104,168,55563,2,0,L|176:176,1,70,8|2,0:0|2:3,0:0:0:0:
272,204,55896,2,0,P|292:143|300:68,1,140,0|8,0:0|0:0,0:0:0:0:
400,32,56396,1,2,2:3:0:0:
421,134,56563,2,0,B|421:206|421:206|441:278,1,140,0|8,0:0|0:0,0:0:0:0:
392,360,57063,1,2,2:3:0:0:
288,336,57229,53,0,0:0:0:0:
264,332,57396,1,0,0:0:0:0:
240,328,57563,1,8,0:0:0:0:
216,324,57729,1,8,0:0:0:0:
40,296,57896,22,0,P|104:284|164:240,1,140,4|8,0:0|0:0,0:0:0:0:
208,148,58396,1,2,2:3:0:0:
72,88,58563,2,0,L|88:160,1,70,0|0,0:0|1:0,0:0:0:0:
208,148,58896,2,0,L|192:76,1,70,8|2,0:0|2:3,0:0:0:0:
324,56,59229,2,0,L|476:68,2,140,0|8|0,0:0|0:0|0:0,0:0:0:0:
220,36,60063,1,0,0:0:0:0:
148,112,60229,1,8,0:0:0:0:
252,136,60396,1,0,0:0:0:0:
224,40,60563,6,0,L|148:36,1,70,4|0,0:0|2:3,0:0:0:0:
28,92,60896,2,0,P|28:128|44:164,1,70,8|2,0:0|2:3,0:0:0:0:
112,236,61229,2,0,P|172:208|252:204,1,140,0|8,0:0|0:0,0:0:0:0:
368,304,61729,1,2,2:3:0:0:
368,304,61896,2,0,L|296:296,1,70,0|0,0:0|2:3,0:0:0:0:
356,208,62229,2,0,L|425:214,1,70,8|2,0:0|2:3,0:0:0:0:
468,112,62563,21,0,0:0:0:0:
464,88,62729,1,0,0:0:0:0:
460,64,62896,1,8,0:0:0:0:
456,40,63063,1,8,0:0:0:0:
316,76,63229,54,0,P|268:124|200:148,1,140,4|8,0:0|0:0,0:0:0:0:
100,192,63729,1,2,2:3:0:0:
48,72,63896,2,0,P|84:72|120:88,1,70,0|0,0:0|2:3,0:0:0:0:
201,147,64229,2,0,L|209:219,1,70,8|2,0:0|2:3,0:0:0:0:
248,328,64563,2,0,L|388:316,1,140,0|8,0:0|0:0,0:0:0:0:
468,248,65063,1,2,2:3:0:0:
416,152,65229,2,0,L|424:72,1,70,8|0,0:0|0:0,0:0:0:0:
296,136,65563,2,0,L|300:56,1,70
176,128,65896,22,0,L|176:40,1,70,4|0,0:0|2:3,0:0:0:0:
72,60,66229,1,8,0:0:0:0:
28,156,66396,1,2,2:3:0:0:
76,248,66563,2,0,B|144:256|144:256|196:308,1,140,0|8,0:0|0:0,0:0:0:0:
296,344,67063,1,2,2:3:0:0:
296,344,67229,2,0,P|352:300|424:296,1,140,0|8,0:0|0:0,0:0:0:0:
492,232,67729,1,2,2:3:0:0:
404,192,67896,53,0,0:0:0:0:
380,188,68063,1,0,0:0:0:0:
356,184,68229,1,8,0:0:0:0:
332,180,68396,1,8,0:0:0:0:
168,176,68563,22,0,B|216:164|216:164|268:84,1,140,4|8,0:0|0:0,0:0:0:0:
155,45,69063,1,2,2:3:0:0:
155,45,69229,2,0,L|-5:29,2,140,0|8|0,0:0|0:0|0:0,0:0:0:0:
252,88,70063,1,0,2:3:0:0:
348,48,70229,2,0,L|432:40,1,70,8|0,0:0|2:3,0:0:0:0:
440,144,70563,2,0,P|436:179|420:212,1,70
352,300,70896,2,0,P|319:259|312:208,1,105,8|0,0:0|2:0,0:0:0:0:
320,204,71229,6,0,L|180:200,1,140,4|8,0:0|0:0,0:0:0:0:
76,220,71729,1,2,2:3:0:0:
76,324,71896,2,0,L|220:328,1,140,0|8,0:0|0:0,0:0:0:0:
352,300,72396,1,2,2:3:0:0:
352,300,72563,2,0,L|442:302,1,70,0|0,0:0|2:3,0:0:0:0:
360,192,72896,2,0,L|364:120,1,70,8|2,0:0|2:3,0:0:0:0:
248,184,73229,21,0,0:0:0:0:
220,180,73396,1,0,0:0:0:0:
192,176,73563,1,8,0:0:0:0:
164,172,73729,1,8,0:0:0:0:
36,84,73896,54,0,P|84:64|140:68,1,105,4|0,0:0|2:0,0:0:0:0:
136,66,74229,2,0,L|128:136,1,70,8|2,0:0|2:3,0:0:0:0:
148,240,74563,2,0,L|220:232,1,70,0|0,0:0|2:3,0:0:0:0:
312,280,74896,2,0,L|328:348,1,70,8|2,0:0|2:3,0:0:0:0:
428,260,75229,2,0,P|460:196|456:128,2,140,0|8|0,0:0|0:0|0:0,0:0:0:0:
332,232,76063,1,0,0:0:0:0:
256,292,76229,1,8,0:0:0:0:
168,252,76396,1,0,0:0:0:0:
96,320,76563,21,4,0:0:0:0:
96,320,77063,1,0,1:0:0:0:
24,232,77229,2,0,P|108:180|224:176,1,210.000008010865,8|0,1:3|1:0,0:0:0:0:
216,174,78063,1,0,1:0:0:0:
420,216,78396,1,0,1:0:0:0:
448,304,78563,2,0,P|396:304|348:272,1,105.000004005432,8|0,1:3|1:0,0:0:0:0:
264,292,79063,1,0,1:0:0:0:
176,308,79229,5,0,1:0:0:0:
172,312,79729,1,0,1:0:0:0:
240,368,79896,2,0,P|264:304|260:216,1,157.500006008148,8|0,1:3|0:0,0:0:0:0:
260,216,80479,1,0,0:0:0:0:
260,216,80563,1,0,1:0:0:0:
138,207,80729,2,0,P|128:160|136:104,1,105.000004005432,0|0,1:0|1:0,0:0:0:0:
208,40,81229,1,8,1:3:0:0:
208,40,81563,1,0,1:0:0:0:
268,96,81729,1,0,1:0:0:0:
332,152,81896,6,0,B|376:140|376:140|416:36,1,157.500006008148,4|0,1:0|1:0,0:0:0:0:
480,128,82563,2,0,P|468:240|504:340,1,210.000008010865,8|0,1:3|1:0,0:0:0:0:
498,330,83396,1,0,1:0:0:0:
300,360,83729,1,0,1:0:0:0:
300,360,83896,2,0,P|332:320|348:264,1,105.000004005432,8|0,1:3|1:0,0:0:0:0:
300,200,84396,1,0,1:0:0:0:
220,228,84563,6,0,B|144:248|144:248|60:216,1,157.500006008148,0|0,1:0|1:0,0:0:0:0:
156,144,85229,2,0,B|232:124|232:124|316:156,1,157.500006008148,0|0,1:0|0:0,0:0:0:0:
305,152,85813,1,0,0:0:0:0:
305,152,85896,1,0,1:0:0:0:
384,212,86063,2,0,L|372:316,1,105.000004005432,0|0,1:0|1:0,0:0:0:0:
371,316,86563,1,8,1:3:0:0:
216,344,86813,1,0,1:0:0:0:
216,344,86896,1,4,1:2:0:0:
124,332,87063,1,0,1:0:0:0:
32,320,87229,22,0,P|4:260|12:168,1,157.500006008148,4|0,1:0|1:0,0:0:0:0:
10,170,87896,1,8,1:3:0:0:
16,176,88563,1,0,1:0:0:0:
96,156,88729,1,0,1:0:0:0:
176,136,88896,1,0,0:0:0:0:
156,212,89063,1,0,1:0:0:0:
232,192,89229,2,0,B|268:180|268:180|336:204,1,105.000004005432,8|8,1:3|1:0,0:0:0:0:
420,248,89729,1,0,1:0:0:0:
420,248,89896,6,0,P|456:184|456:100,1,157.500006008148,0|0,1:0|1:0,0:0:0:0:
456,101,90563,1,8,1:3:0:0:
96,88,91229,2,0,L|28:76,2,52.5000020027161,0|0|0,1:0|1:0|0:0,0:0:0:0:
164,128,91729,1,0,1:0:0:0:
232,168,91896,2,0,P|284:164|340:128,1,105.000004005432,8|8,1:3|1:0,0:0:0:0:
424,100,92396,1,8,1:0:0:0:
424,100,92563,6,0,L|404:260,1,157.500006008148,4|0,1:0|1:0,0:0:0:0:
432,344,93229,1,8,1:3:0:0:
432,344,93896,1,0,1:0:0:0:
344,324,94063,1,0,1:0:0:0:
404,256,94229,1,0,0:0:0:0:
492,276,94396,1,0,1:0:0:0:
344,324,94563,2,0,L|240:320,1,105.000004005432,8|8,1:3|1:0,0:0:0:0:
148,348,95063,1,0,1:0:0:0:
72,292,95229,6,0,B|56:228|56:228|64:208|64:208|48:136,1,157.500006008148,4|0,1:0|1:0,0:0:0:0:
92,68,95896,1,8,1:3:0:0:
432,84,96563,2,0,L|488:68,2,52.5000020027161,0|0|0,1:0|1:0|0:0,0:0:0:0:
348,108,97063,1,0,1:0:0:0:
260,92,97229,2,0,L|148:76,1,105.000004005432,8|8,1:3|1:0,0:0:0:0:
44,100,97729,1,8,1:0:0:0:
156,77,97896,21,2,3:0:0:0:
48,132,102896,53,8,1:0:0:0:
72,128,103063,1,0,1:0:0:0:
96,124,103229,22,0,L|108:184,1,52.5000020027161,4|0,1:0|0:0,0:0:0:0:
200,136,103563,2,0,L|188:76,1,52.5000020027161,0|0,1:0|0:0,0:0:0:0:
284,48,103896,2,0,P|328:68|384:72,1,105.000004005432,0|0,0:0|1:0,0:0:0:0:
476,124,104396,1,2,0:0:0:0:
448,224,104563,2,0,L|436:288,1,52.5000020027161
364,348,104896,2,0,L|300:340,1,52.5000020027161,0|0,1:0|0:0,0:0:0:0:
168,300,105229,2,0,P|220:284|264:248,1,105.000004005432,0|0,0:0|1:0,0:0:0:0:
336,184,105729,1,8,1:0:0:0:
336,184,105896,6,0,L|304:84,1,105.000004005432,2|0,1:3|1:0,0:0:0:0:
136,144,106563,2,0,L|104:44,1,105.000004005432,0|0,0:0|1:0,0:0:0:0:
212,48,107063,1,2,0:0:0:0:
212,48,107146,1,0,0:0:0:0:
212,48,107229,2,0,L|316:28,1,105.000004005432,4|0,0:0|1:0,0:0:0:0:
336,184,107896,2,0,L|440:164,1,105.000004005432,0|0,0:0|1:0,0:0:0:0:
496,256,108396,1,0,0:0:0:0:
496,256,108563,6,0,P|496:284|488:316,1,52.5000020027161,4|0,1:0|0:0,0:0:0:0:
392,304,108896,2,0,P|368:292|340:288,1,52.5000020027161,0|0,1:0|0:0,0:0:0:0:
264,352,109229,2,0,P|216:368|160:364,1,105.000004005432,0|0,0:0|1:0,0:0:0:0:
68,348,109729,1,2,0:0:0:0:
28,260,109896,2,0,L|40:204,1,52.5000020027161
124,164,110229,2,0,L|176:172,1,52.5000020027161,0|0,1:0|0:0,0:0:0:0:
268,148,110563,2,0,P|248:96|248:44,1,105.000004005432,0|0,0:0|1:0,0:0:0:0:
364,68,111063,1,2,0:0:0:0:
364,68,111229,22,0,P|384:120|384:172,1,105.000004005432,2|0,1:3|1:0,0:0:0:0:
328,344,111896,2,0,L|224:336,1,105.000004005432,0|0,0:0|1:0,0:0:0:0:
56,208,112563,2,0,P|57:260|76:308,2,105.000004005432,0|0|0,0:0|1:0|1:0,0:0:0:0:
68,196,113313,53,0,1:0:0:0:
80,188,113396,1,0,1:0:0:0:
92,180,113479,1,0,1:0:0:0:
104,172,113563,1,0,1:0:0:0:
116,164,113646,1,0,1:0:0:0:
128,156,113729,1,0,1:0:0:0:
140,148,113813,1,0,1:0:0:0:
152,140,113896,22,0,L|232:156,1,70,4|0,0:0|2:0,0:0:0:0:
216,52,114229,2,0,L|136:36,1,70,8|2,0:0|2:3,0:0:0:0:
220,153,114563,2,0,P|288:132|360:136,1,140,0|8,0:0|0:0,0:0:0:0:
452,192,115063,1,2,2:3:0:0:
452,192,115229,2,0,L|432:336,1,140,0|8,0:0|0:0,0:0:0:0:
344,360,115729,1,2,2:3:0:0:
248,324,115896,37,0,0:0:0:0:
224,320,116063,1,0,0:0:0:0:
200,316,116229,1,8,0:0:0:0:
176,312,116396,1,8,0:0:0:0:
36,256,116563,38,0,P|88:220|164:216,1,140,4|8,0:0|0:0,0:0:0:0:
264,172,117063,1,2,2:3:0:0:
172,108,117229,1,0,0:0:0:0:
162,215,117396,1,0,0:0:0:0:
268,176,117563,1,8,0:0:0:0:
276,64,117729,1,2,2:3:0:0:
176,112,117896,2,0,L|32:96,1,140,0|8,0:0|0:0,0:0:0:0:
56,208,118396,1,2,2:3:0:0:
168,220,118563,2,0,L|244:228,1,70
328,280,118896,2,0,L|344:352,1,70,8|0,0:0|0:0,0:0:0:0:
448,296,119229,6,0,B|464:268|464:268|460:228,1,70,4|0,0:0|2:0,0:0:0:0:
388,112,119563,2,0,B|372:140|372:140|376:180,1,70,8|2,0:0|2:3,0:0:0:0:
328,280,119896,2,0,L|184:264,1,140,0|8,0:0|0:0,0:0:0:0:
80,292,120396,1,2,2:3:0:0:
80,292,120563,2,0,P|48:232|52:160,1,140,0|8,0:0|0:0,0:0:0:0:
104,76,121063,1,2,2:3:0:0:
188,148,121229,5,0,0:0:0:0:
196,168,121396,1,0,0:0:0:0:
204,188,121563,1,8,0:0:0:0:
212,208,121729,1,8,0:0:0:0:
264,320,121896,6,0,B|336:320|336:320|388:272,1,140,4|8,0:0|0:0,0:0:0:0:
480,180,122396,1,2,2:3:0:0:
480,180,122563,2,0,L|408:168,1,70,0|0,0:0|2:0,0:0:0:0:
308,148,122896,2,0,L|292:76,1,70,8|2,0:0|2:3,0:0:0:0:
188,68,123229,2,0,P|116:60|48:56,1,140,0|8,0:0|0:0,0:0:0:0:
0,152,123729,1,2,2:3:0:0:
0,152,123896,2,0,P|32:156|72:160,1,70,8|0,0:0|0:0,0:0:0:0:
184,180,124229,1,0,0:0:0:0:
304,196,124396,1,0,0:0:0:0:
184,180,124563,6,0,L|200:256,1,70,4|0,0:0|2:0,0:0:0:0:
318,264,124896,2,0,L|302:188,1,70,8|2,0:0|2:3,0:0:0:0:
272,104,125229,2,0,P|348:100|412:68,1,140,0|8,0:0|0:0,0:0:0:0:
312,16,125729,1,2,2:3:0:0:
216,24,125896,2,0,P|140:28|76:60,1,140,0|8,0:0|0:0,0:0:0:0:
36,140,126396,1,2,2:3:0:0:
44,244,126563,37,0,0:0:0:0:
48,264,126729,1,0,0:0:0:0:
52,284,126896,1,8,0:0:0:0:
56,304,127063,1,8,0:0:0:0:
176,324,127229,38,0,B|228:313|228:313|256:320|256:320|316:308,1,140,4|8,0:0|0:0,0:0:0:0:
416,348,127729,1,2,2:3:0:0:
416,348,127896,2,0,P|448:292|448:212,2,140,0|8|0,0:0|0:0|0:0,0:0:0:0:
313,308,128729,1,0,2:0:0:0:
313,308,128896,2,0,L|300:240,1,70,8|2,0:0|2:3,0:0:0:0:
204,192,129229,2,0,L|128:184,1,70
216,88,129563,2,0,L|320:100,1,105,8|0,0:0|2:0,0:0:0:0:
320,100,129896,6,0,P|336:64|352:36,1,70,4|0,0:0|2:0,0:0:0:0:
432,112,130229,2,0,P|416:148|400:176,1,70,8|2,0:0|2:3,0:0:0:0:
296,208,130563,2,0,P|232:184|160:188,1,140,0|8,0:0|0:0,0:0:0:0:
64,240,131063,1,2,2:3:0:0:
64,240,131229,2,0,B|28:180|28:180|36:102,1,140,0|8,0:0|0:0,0:0:0:0:
112,36,131729,1,2,2:3:0:0:
208,80,131896,5,0,0:0:0:0:
228,76,132063,1,0,0:0:0:0:
248,72,132229,1,8,0:0:0:0:
268,68,132396,1,8,0:0:0:0:
408,88,132563,6,0,P|404:140|388:192,1,105,4|0,0:0|2:0,0:0:0:0:
388,190,132896,2,0,L|464:208,1,70,8|2,0:0|2:3,0:0:0:0:
392,296,133229,2,0,L|316:278,1,70,0|0,0:0|2:0,0:0:0:0:
224,244,133563,2,0,L|156:268,1,70,8|2,0:0|2:3,0:0:0:0:
68,320,133896,2,0,P|32:264|36:192,1,140,0|8,0:0|0:0,0:0:0:0:
96,116,134396,1,2,2:3:0:0:
188,84,134563,1,0,0:0:0:0:
220,176,134729,1,0,0:0:0:0:
128,212,134896,1,0,0:0:0:0:
96,116,135063,1,0,0:0:0:0:
188,84,135229,6,0,L|328:96,1,140,4|8,0:0|0:0,0:0:0:0:
420,128,135729,1,2,2:3:0:0:
416,228,135896,2,0,L|276:216,1,140,0|8,0:0|0:0,0:0:0:0:
176,264,136396,1,2,2:3:0:0:
68,228,136563,2,0,P|32:208|-8:204,2,70,0|0|8,0:0|2:0|0:0,0:0:0:0:
176,264,137063,1,2,2:3:0:0:
276,216,137229,2,0,B|304:176|304:176|284:76,1,140,0|8,0:0|0:0,0:0:0:0:
196,48,137729,1,0,0:0:0:0:
196,48,137896,6,0,L|120:40,1,70,2|0,0:0|0:0,0:0:0:0:
180,144,138229,2,0,L|256:152,1,70,10|0,0:0|0:0,0:0:0:0:
152,240,138563,2,0,L|76:232,1,70,2|2,0:0|0:0,0:0:0:0:
136,336,138896,2,0,L|212:344,1,70,10|0,0:0|0:0,0:0:0:0:
320,340,139229,6,0,P|336:308|340:272,1,70,2|0,0:0|0:0,0:0:0:0:
272,176,139563,2,0,P|256:208|252:244,1,70,10|0,0:0|0:0,0:0:0:0:
364,184,139896,2,0,P|380:152|384:116,1,70,0|2,0:0|0:0,0:0:0:0:
316,20,140229,2,0,P|300:52|296:88,1,70,10|0,0:0|0:0,0:0:0:0:
156,88,140563,22,0,L|16:72,1,140,4|8,0:0|0:0,0:0:0:0:
28,188,141063,1,2,2:3:0:0:
28,188,141229,2,0,L|168:204,1,140,0|8,0:0|0:0,0:0:0:0:
256,248,141729,1,2,2:3:0:0:
256,248,141896,2,0,P|288:236|332:232,1,70,0|0,0:0|2:0,0:0:0:0:
412,276,142229,2,0,L|432:352,1,70,8|2,0:0|2:3,0:0:0:0:
504,228,142563,2,0,L|468:88,1,140,0|8,0:0|0:0,0:0:0:0:
380,152,143063,1,0,0:0:0:0:
380,152,143229,6,0,P|348:144|312:116,1,70,2|0,0:0|0:0,0:0:0:0:
407,63,143563,2,0,P|439:71|475:99,1,70,10|0,0:0|0:0,0:0:0:0:
504,228,143896,2,0,L|488:300,1,70,0|2,0:0|0:0,0:0:0:0:
376,328,144229,2,0,L|392:256,1,70,8|2,0:0|0:0,0:0:0:0:
268,208,144563,6,0,B|244:224|244:224|196:228,1,70,2|0,0:0|0:0,0:0:0:0:
124,160,144896,2,0,B|148:144|148:144|196:140,1,70,10|0,0:0|0:0,0:0:0:0:
284,112,145229,1,0,0:0:0:0:
396,100,145396,1,2,0:0:0:0:
284,100,145563,1,8,0:0:0:0:
396,88,145729,1,10,0:0:0:0:
508,80,145896,21,4,0:0:0:0:
256,192,145979,12,0,149896,2:0:0:70:bye bye.wav
