osu file format v14

[General]
AudioFilename: audio.mp3
AudioLeadIn: 0
PreviewTime: -1
Countdown: 0
SampleSet: Normal
StackLeniency: 0.2
Mode: 0
LetterboxInBreaks: 0
WidescreenStoryboard: 1

[Editor]
Bookmarks: 5436,56193
DistanceSpacing: 1
BeatDivisor: 4
GridSize: 8
TimelineZoom: 1

[Metadata]
Title:Get Jinxed (Nightcore - Cut ver.)
TitleUnicode:Get Jinxed (Nightcore - Cut ver.)
Artist:Agnete Kjolsrud
ArtistUnicode:Agnete Kjolsrud
Creator:Mikojel
Version:Shoot Faster! AR:10
Source:
Tags:nightcore short version overmapped high jumps lol
BeatmapID:1806409
BeatmapSetID:804876

[Difficulty]
HPDrainRate:7
CircleSize:4.2
OverallDifficulty:8
ApproachRate:10
SliderMultiplier:1.5
SliderTickRate:1

[Events]
//Background and Video events
0,0,"stretched-1440-900-495672.jpg",0,0
//Break Periods
//Storyboard Layer 0 (Background)
//Storyboard Layer 1 (Fail)
//Storyboard Layer 2 (Pass)
//Storyboard Layer 3 (Foreground)
//Storyboard Sound Samples

[TimingPoints]
436,303.030303030303,4,1,0,40,1,0
5432,-133.333333333333,4,1,0,40,0,0
13314,-100,4,1,0,40,0,0
24698,-66.6666666666667,4,1,0,40,0,0
36799,-57.1428571428571,4,1,0,50,0,1
40435,-40,4,1,0,50,0,1
41648,-50,4,1,0,50,0,1
42860,-40,4,1,0,50,0,1
43466,-50,4,1,0,50,0,1
45284,-33.3333333333333,4,1,0,50,0,1
46496,-50,4,1,0,50,0,1
51970,303.030303030303,4,1,0,50,1,1
51970,-50,4,1,0,50,0,1
65890,-100,4,1,0,40,0,0

[Colours]
Combo1 : 0,128,192
Combo2 : 224,190,89
Combo3 : 219,94,140

[HitObjects]
256,192,4678,12,0,5284,0:0:0:0:
154,121,5436,6,0,P|183:74|236:60,1,112.500004291535,0|0,0:0|0:0,0:0:0:0:
232,141,5890,2,0,P|285:126|314:80,1,112.500004291535,0|0,0:0|0:0,0:0:0:0:
398,76,6345,2,0,P|394:104|383:130,1,56.2500021457673,0|0,0:0|0:0,0:0:0:0:
340,204,6648,5,0,0:0:0:0:
379,311,6799,1,0,0:0:0:0:
259,195,6951,1,0,0:0:0:0:
298,302,7102,1,0,0:0:0:0:
308,134,7254,5,0,0:0:0:0:
232,322,7405,1,0,0:0:0:0:
258,75,7557,1,0,0:0:0:0:
182,263,7708,1,0,0:0:0:0:
147,331,8011,6,0,P|109:290|111:235,1,112.500004291535,0|0,0:0|0:0,0:0:0:0:
110,153,8466,2,0,P|61:170|30:221,1,112.500004291535,0|0,0:0|0:0,0:0:0:0:
211,372,8920,5,0,0:0:0:0:
110,236,9072,1,0,0:0:0:0:
140,373,9223,1,0,0:0:0:0:
165,197,9375,1,0,0:0:0:0:
79,339,9526,5,0,0:0:0:0:
326,265,9678,1,0,0:0:0:0:
110,236,9829,1,0,0:0:0:0:
322,365,9981,1,0,0:0:0:0:
407,319,10360,5,0,0:0:0:0:
406,318,10435,2,0,P|397:265|430:221,1,112.500004291535,0|0,0:0|0:0,0:0:0:0:
491,183,10890,2,0,P|500:236|467:280,1,112.500004291535,0|0,0:0|0:0,0:0:0:0:
328,321,11345,5,0,0:0:0:0:
430,221,11496,1,0,0:0:0:0:
316,242,11648,1,0,0:0:0:0:
418,142,11799,1,0,0:0:0:0:
442,303,11951,5,0,0:0:0:0:
364,101,12102,1,0,0:0:0:0:
385,336,12254,1,0,0:0:0:0:
307,134,12405,1,0,0:0:0:0:
240,203,12860,6,0,P|286:233|341:228,1,112.500004291535,0|0,0:0|0:0,0:0:0:0:
162,208,13314,2,0,P|199:272|264:306,1,150,0|0,0:0|0:0,0:0:0:0:
180,140,13769,5,0,0:0:0:0:
53,225,13920,1,0,0:0:0:0:
107,84,14072,1,0,0:0:0:0:
68,242,14223,1,0,0:0:0:0:
242,108,14375,5,0,0:0:0:0:
131,266,14526,1,0,0:0:0:0:
110,16,14678,1,0,0:0:0:0:
210,249,14829,1,0,0:0:0:0:
135,126,14981,5,0,0:0:0:0:
70,218,15284,2,0,P|101:238|137:245,1,75,0|0,0:0|0:0,0:0:0:0:
175,350,15587,1,0,0:0:0:0:
269,304,15890,2,0,P|246:274|214:255,1,75,0|0,0:0|0:0,0:0:0:0:
72,360,16193,1,0,0:0:0:0:
300,364,16496,2,0,P|327:340|336:304,1,75,0|0,0:0|0:0,0:0:0:0:
276,200,16799,1,0,0:0:0:0:
461,73,17102,1,0,0:0:0:0:
475,297,17405,5,0,0:0:0:0:
411,173,17708,2,0,P|378:156|341:162,1,75,0|0,0:0|0:0,0:0:0:0:
234,233,18011,1,0,0:0:0:0:
274,117,18314,2,0,P|284:81|272:47,1,75,0|0,0:0|0:0,0:0:0:0:
190,93,18617,5,0,0:0:0:0:
306,247,18769,1,0,0:0:0:0:
223,57,18920,1,0,0:0:0:0:
256,239,19072,1,0,0:0:0:0:
354,21,19223,5,0,0:0:0:0:
187,219,19375,1,0,0:0:0:0:
427,181,19526,1,0,0:0:0:0:
163,160,19678,1,0,0:0:0:0:
298,138,19829,5,0,0:0:0:0:
271,17,20132,2,0,P|235:25|209:52,1,75,0|0,0:0|0:0,0:0:0:0:
314,167,20436,1,0,0:0:0:0:
142,16,20739,2,0,P|132:52|140:88,1,75,0|0,0:0|0:0,0:0:0:0:
291,49,21042,1,0,0:0:0:0:
197,160,21345,2,0,P|222:186|258:195,1,75,0|0,0:0|0:0,0:0:0:0:
291,49,21648,1,0,0:0:0:0:
506,117,21951,1,0,0:0:0:0:
343,267,22254,5,0,0:0:0:0:
65,226,22557,6,0,L|136:205,1,75,0|0,0:0|0:0,0:0:0:0:
310,109,22860,2,0,L|239:130,1,75,0|0,0:0|0:0,0:0:0:0:
52,156,23163,6,0,L|124:174,1,75,0|0,0:0|0:0,0:0:0:0:
322,178,23466,2,0,L|250:160,1,75,0|0,0:0|0:0,0:0:0:0:
129,141,23769,5,0,0:0:0:0:
244,192,23920,1,0,0:0:0:0:
131,90,24072,1,0,0:0:0:0:
242,243,24223,1,0,0:0:0:0:
138,44,24375,5,0,0:0:0:0:
234,291,24526,1,0,0:0:0:0:
149,0,24678,2,0,P|176:27|207:47,1,75,0|0,0:0|0:0,0:0:0:0:
262,57,24981,5,0,0:0:0:0:
323,239,25132,1,0,0:0:0:0:
293,38,25284,1,0,0:0:0:0:
436,165,25435,1,0,0:0:0:0:
221,141,25587,1,0,0:0:0:0:
380,35,25738,1,0,0:0:0:0:
185,206,25890,2,0,P|239:215|284:183,1,112.500004291535,0|0,0:0|0:0,0:0:0:0:
459,28,26193,2,0,P|444:80|397:108,1,112.500004291535,0|0,0:0|0:0,0:0:0:0:
122,37,26496,5,0,0:0:0:0:
319,134,26648,1,0,0:0:0:0:
271,20,26799,5,0,0:0:0:0:
93,149,26951,1,0,0:0:0:0:
0,13,27102,2,0,P|-4:67|28:112,1,112.500004291535,0|0,0:0|0:0,0:0:0:0:
206,184,27405,5,0,0:0:0:0:
82,367,27557,1,0,0:0:0:0:
63,198,27708,1,0,0:0:0:0:
223,352,27860,1,0,0:0:0:0:
42,288,28011,1,0,0:0:0:0:
297,258,28162,1,0,0:0:0:0:
170,238,28314,6,8,P|188:185|229:147,1,112.500004291535,0|0,0:0|0:0,0:0:0:0:
181,309,28617,2,8,P|218:349|271:368,1,112.500004291535,0|0,0:0|0:0,0:0:0:0:
331,139,28920,2,8,P|382:160|417:203,1,112.500004291535,0|0,0:0|0:0,0:0:0:0:
368,362,29223,2,8,P|411:326|432:275,1,112.500004291535,0|0,0:0|0:0,0:0:0:0:
457,374,29526,6,0,P|487:328|500:273,1,112.500004291535,0|0,0:0|0:0,0:0:0:0:
297,258,29829,5,0,0:0:0:0:
500,273,29981,1,0,0:0:0:0:
289,195,30132,1,0,0:0:0:0:
421,349,30284,1,0,0:0:0:0:
445,183,30436,1,0,0:0:0:0:
291,316,30588,1,0,0:0:0:0:
216,200,30739,2,0,P|228:254|218:309,1,112.500004291535
107,168,31042,2,0,P|145:208|163:261,1,112.500004291535
0,194,31345,5,0,0:0:0:0:
210,118,31496,1,0,0:0:0:0:
2,43,31648,5,0,0:0:0:0:
210,118,31799,1,0,0:0:0:0:
0,117,31951,2,0,P|51:100|75:50,1,112.500004291535
148,197,32254,5,0,0:0:0:0:
73,14,32405,1,0,0:0:0:0:
79,201,32557,1,0,0:0:0:0:
142,0,32708,1,0,0:0:0:0:
9,27,32860,2,0,P|40:71|94:76,1,112.500004291535
12,131,33163,2,0,B|75:170|180:134|192:57|192:57|217:47|246:44|246:44|298:74|298:74|327:78|350:71,1,393.750015020371
358,74,33769,5,0,0:0:0:0:
162,296,33920,1,0,0:0:0:0:
149,64,34072,5,0,0:0:0:0:
351,316,34223,1,0,0:0:0:0:
256,192,34375,12,0,35132,0:0:0:0:
256,192,35284,12,0,36345,0:0:0:0:
90,205,36496,5,0,0:0:0:0:
412,185,36647,1,0,0:0:0:0:
112,132,36799,1,0,0:0:0:0:
112,132,36875,2,0,P|141:145|163:169,1,65.6250006258488
21,246,37102,2,0,P|72:286|134:274,1,131.250001251698
63,48,37405,2,0,P|127:43|184:75,1,131.250001251698
157,359,37708,2,0,P|216:326|251:269,1,131.250001251698
222,72,38011,2,0,B|250:56|284:49|284:49|320:64|337:83,1,131.250001251698
429,338,38314,6,0,L|410:185,1,131.250001251698
311,25,38617,2,0,L|321:103,1,65.6250006258488
239,116,38769,2,0,L|199:63,1,65.6250006258488
133,163,38921,2,0,L|193:188,1,65.6250006258488
206,277,39072,2,0,L|140:285,1,65.6250006258488
244,240,39223,6,0,P|252:176|302:136,1,131.250001251698
116,346,39526,2,0,P|98:319|92:287,1,65.6250006258488
123,55,39678,1,0,0:0:0:0:
158,323,39829,1,0,0:0:0:0:
213,35,39981,1,0,0:0:0:0:
204,332,40132,1,0,0:0:0:0:
308,57,40284,1,0,0:0:0:0:
238,364,40435,2,0,P|322:355|314:271,1,187.5
223,234,40739,2,0,P|158:175|195:96,1,187.5
285,104,41042,2,0,P|372:92|318:23,1,187.5
159,109,41345,5,0,0:0:0:0:
395,317,41496,1,0,0:0:0:0:
423,9,41648,2,0,P|383:70|407:138,1,150
510,256,41951,5,0,0:0:0:0:
333,16,42102,1,0,0:0:0:0:
255,155,42254,2,0,P|262:225|329:250,1,150
511,109,42557,1,0,0:0:0:0:
277,345,42708,1,0,0:0:0:0:
502,349,42860,2,0,P|496:256|448:176,1,187.5
52,341,43163,2,0,P|58:248|106:168,1,187.5
393,264,43466,6,0,L|331:307,1,75
280,268,43617,2,0,L|287:193,1,75
169,241,43769,2,0,L|222:295,1,75
274,343,43920,2,0,L|289:169,1,150
294,24,44223,5,0,0:0:0:0:
157,205,44375,1,0,0:0:0:0:
377,29,44526,1,0,0:0:0:0:
66,172,44678,1,0,0:0:0:0:
470,66,44829,1,0,0:0:0:0:
0,86,44981,1,0,0:0:0:0:
510,164,45132,1,0,0:0:0:0:
41,0,45284,2,0,P|-23:84|29:175,1,225.000008583069
80,56,45587,2,0,P|183:59|187:161,1,225.000008583069
86,172,45890,5,0,0:0:0:0:
389,373,46042,1,0,0:0:0:0:
454,28,46193,5,0,0:0:0:0:
143,304,46345,1,0,0:0:0:0:
1,115,46496,2,0,P|66:110|49:172,1,150
8,270,46799,2,0,P|82:266|142:222,1,150
91,21,47102,2,0,P|145:72|162:144,1,150
78,341,47405,2,0,P|148:315|200:261,1,150
192,15,47708,2,0,P|231:78|238:153,1,150
354,31,48011,6,0,P|330:101|277:154,1,150
71,143,48314,1,0,0:0:0:0:
297,300,48466,1,0,0:0:0:0:
156,34,48617,1,0,0:0:0:0:
188,358,48769,1,0,0:0:0:0:
339,220,48920,2,0,P|388:274|377:346,1,150
286,152,49223,6,0,P|359:158|421:200,1,150
225,109,49526,2,0,P|156:139|105:193,1,150
330,84,49829,2,0,P|403:103|463:147,1,150
313,289,50132,2,0,B|329:261|329:261|335:218|335:218|301:245|301:245|285:273,1,150
55,344,50435,2,0,B|39:316|39:316|5:289|5:289|12:332|12:332|28:360,1,150
221,246,50739,2,0,P|150:235|98:286,1,150
66,185,51042,2,0,B|139:201|139:201|189:145,1,150
84,123,51345,6,0,P|95:61|143:101,1,150
33,175,51648,2,0,P|97:209|166:187,1,150
257,110,51970,2,0,P|251:184|209:246,1,150
2,255,52273,2,0,P|70:284|144:280,1,150
289,345,52576,6,0,P|215:335|158:288,1,150
182,91,52879,2,0,P|135:148|126:222,1,150
339,297,53182,1,0,0:0:0:0:
103,252,53333,1,0,0:0:0:0:
230,37,53485,1,0,0:0:0:0:
51,270,53636,1,0,0:0:0:0:
407,305,53788,2,0,P|456:239|443:170,1,150
105,79,54091,6,0,P|56:145|69:214,1,150
407,305,54394,2,0,P|416:223|370:170,1,150
105,78,54697,2,0,P|92:151|135:210,1,150
484,260,55000,2,0,P|511:192|488:122,1,150
28,124,55303,2,0,P|0:191|23:261,1,150
512,120,55606,2,0,P|502:48|447:0,1,150
0,263,55909,2,0,P|9:335|64:384,1,150
510,0,56212,2,0,P|439:-5|406:57,1,150
304,275,56515,5,0,0:0:0:0:
208,109,56667,1,0,0:0:0:0:
284,298,56818,1,0,0:0:0:0:
227,85,56970,1,0,0:0:0:0:
256,318,57121,1,0,0:0:0:0:
255,65,57273,1,0,0:0:0:0:
218,332,57424,1,0,0:0:0:0:
293,51,57576,1,0,0:0:0:0:
172,336,57727,1,0,0:0:0:0:
339,47,57879,1,0,0:0:0:0:
120,327,58030,1,0,0:0:0:0:
391,56,58182,1,0,0:0:0:0:
47,289,58333,1,0,0:0:0:0:
464,94,58485,1,0,0:0:0:0:
218,306,58636,5,0,0:0:0:0:
294,136,58788,1,0,0:0:0:0:
294,306,58939,1,0,0:0:0:0:
218,136,59091,1,0,0:0:0:0:
208,314,59242,1,0,0:0:0:0:
260,106,59394,1,0,0:0:0:0:
304,314,59545,1,0,0:0:0:0:
252,106,59697,1,0,0:0:0:0:
204,319,59848,1,0,0:0:0:0:
221,73,60000,1,0,0:0:0:0:
308,319,60151,1,0,0:0:0:0:
291,73,60303,1,0,0:0:0:0:
194,336,60454,1,0,0:0:0:0:
164,53,60606,1,0,0:0:0:0:
318,336,60758,1,0,0:0:0:0:
348,53,60910,1,0,0:0:0:0:
208,275,61061,5,0,0:0:0:0:
304,109,61213,1,0,0:0:0:0:
228,298,61364,1,0,0:0:0:0:
285,85,61516,1,0,0:0:0:0:
256,318,61667,1,0,0:0:0:0:
257,65,61819,1,0,0:0:0:0:
294,332,61970,1,0,0:0:0:0:
219,51,62122,1,0,0:0:0:0:
340,336,62273,1,0,0:0:0:0:
173,47,62425,1,0,0:0:0:0:
392,327,62576,1,0,0:0:0:0:
121,56,62727,1,0,0:0:0:0:
447,301,62879,1,0,0:0:0:0:
65,81,63030,1,0,0:0:0:0:
512,236,63182,1,0,0:0:0:0:
0,145,63333,1,0,0:0:0:0:
299,322,63485,5,0,0:0:0:0:
212,127,63637,1,0,0:0:0:0:
212,322,63788,1,0,0:0:0:0:
299,127,63940,1,0,0:0:0:0:
311,332,64091,1,0,0:0:0:0:
251,93,64243,1,0,0:0:0:0:
200,332,64394,1,0,0:0:0:0:
260,93,64546,1,0,0:0:0:0:
315,337,64697,1,0,0:0:0:0:
296,55,64849,1,0,0:0:0:0:
196,337,65000,1,0,0:0:0:0:
215,55,65152,1,0,0:0:0:0:
436,364,65303,1,0,0:0:0:0:
361,32,65455,1,0,0:0:0:0:
76,364,65606,1,0,0:0:0:0:
24,24,65759,1,0,0:0:0:0:
488,360,65909,1,0,0:0:0:0:
256,192,65985,12,0,78030,0:0:0:0:
