osu file format v14

[General]
AudioFilename: audio.mp3
AudioLeadIn: 0
PreviewTime: 98811
Countdown: 0
SampleSet: Soft
StackLeniency: 0.3
Mode: 0
LetterboxInBreaks: 0
WidescreenStoryboard: 0

[Editor]
Bookmarks: 29228,82895,83061,83145,83311,83395,83561,83645,83728,83895,83978,84145,84228,84311,84395,84478,84561,84645,84728,84811,84895,84978,85061,85228,85311,85395,85478,85561,85728,85811,85978,86061,86145,86228,86395,86478,86645,86728,86895,86978,87061,87145,87228,87311,87395,87478,87561,87645,87728,87811,87895,120228,130895
DistanceSpacing: 1.2
BeatDivisor: 4
GridSize: 32
TimelineZoom: 3.299999

[Metadata]
Title:Get Jinxed
TitleUnicode:Get Jinxed
Artist:Agnete Kjolsrud
ArtistUnicode:Agnete Kjølsrud
Creator:Hishiro Chizuru
Version:Top Diff
Source:League of Legends
Tags:amb1d3x malzahar nether grasp nocturne unspeakable horror brasse lasse deviouspanda english rock pop video game riot rito games djerv champion nunu jinx intro arcane powder
BeatmapID:3482946
BeatmapSetID:1704573

[Difficulty]
HPDrainRate:5
CircleSize:3
OverallDifficulty:9
ApproachRate:9
SliderMultiplier:1.7
SliderTickRate:1

[Events]
//Background and Video events
0,0,"its always jungle diff.png",0,0
//Break Periods
2,83095,87295
//Storyboard Layer 0 (Background)
//Storyboard Layer 1 (Fail)
//Storyboard Layer 2 (Pass)
//Storyboard Layer 3 (Foreground)
//Storyboard Layer 4 (Overlay)
//Storyboard Sound Samples

[TimingPoints]
5562,333.333333333333,4,2,69,60,1,0
5562,-133.333333333333,4,2,69,60,0,0
16228,-133.333333333333,4,2,69,70,0,0
26895,-100,4,2,69,75,0,0
40228,-83.3333333333333,4,2,69,80,0,0
61561,-133.333333333333,4,2,69,65,0,0
98895,-76.9230769230769,4,2,69,80,0,0
109228,-20,4,2,69,80,0,0
109895,-76.9230769230769,4,2,69,80,0,0

[Colours]
Combo1 : 228,203,203
Combo2 : 128,255,249
Combo3 : 255,170,255
Combo4 : 149,255,149
Combo5 : 187,187,255

[HitObjects]
32,320,5561,5,2,0:0:0:0:
159,335,5895,2,0,L|31:319,1,127.500004863739
376,303,6395,2,0,L|249:288,1,127.500004863739
31,319,6895,6,0,L|159:335,1,127.500004863739,2|0,0:0|0:0,0:0:0:0:
249,288,7395,1,0,0:0:0:0:
155,174,7561,2,0,L|162:237,2,63.7500024318696
249,288,8061,5,0,0:0:0:0:
31,319,8228,1,2,0:0:0:0:
8,38,8561,6,0,L|135:53,1,127.500004863739
352,35,9061,2,0,L|224:19,1,127.500004863739
134,53,9561,1,2,0:0:0:0:
225,19,9728,1,0,0:0:0:0:
215,177,9895,2,0,L|207:113,1,63.7500024318696
68,159,10228,5,2,0:0:0:0:
215,177,10395,1,0,0:0:0:0:
288,186,10561,1,0,0:0:0:0:
435,204,10728,2,0,L|427:140,2,63.7500024318696
340,384,11228,6,0,L|355:256,1,127.500004863739,2|0,0:0|0:0,0:0:0:0:
150,228,11728,2,0,L|166:355,1,127.500004863739
261,132,12228,5,2,0:0:0:0:
288,167,12395,1,0,0:0:0:0:
253,195,12561,1,0,0:0:0:0:
225,159,12728,1,0,0:0:0:0:
70,71,12895,5,2,0:0:0:0:
217,53,13062,1,0,0:0:0:0:
290,44,13228,1,0,0:0:0:0:
437,26,13395,2,0,L|429:90,2,63.7500024318696
357,172,13895,6,0,L|372:299,1,127.500004863739,2|0,0:0|0:0,0:0:0:0:
175,356,14395,2,0,L|302:371,1,127.500004863739
467,287,14895,2,0,L|474:350,2,63.7500024318696
372,298,15395,1,0,0:0:0:0:
162,217,15561,5,2,0:0:0:0:
257,228,15728,1,0,0:0:0:0:
349,108,15895,2,0,L|356:171,1,63.7500024318696
171,5,16228,5,2,1:2:0:0:
164,67,16561,2,0,P|162:31|171:3,1,63.7500024318696,0|0,3:0|0:0,0:0:0:0:
139,144,16895,2,0,P|107:127|87:105,1,63.7500024318696,0|0,1:0|0:0,0:0:0:0:
240,94,17228,1,0,3:0:0:0:
51,218,17395,5,0,3:0:0:0:
51,218,17478,1,0,3:0:0:0:
51,218,17561,2,0,P|130:239|146:291,1,127.500004863739,2|0,1:2|3:0,0:0:0:0:
65,300,18061,1,0,0:0:0:0:
287,327,18228,5,0,1:0:0:0:
263,222,18395,1,0,3:0:0:0:
490,164,18561,2,0,P|456:163|426:156,1,63.7500024318696,0|0,1:0|3:0,0:0:0:0:
170,4,18895,5,2,1:2:0:0:
88,106,19228,2,0,P|110:129|139:144,1,63.7500024318696,0|0,3:0|0:0,0:0:0:0:
170,4,19561,2,0,P|161:35|163:67,1,63.7500024318696,0|0,1:0|0:0,0:0:0:0:
240,94,19895,1,0,3:0:0:0:
398,21,20061,5,0,3:0:0:0:
398,21,20145,1,0,3:0:0:0:
398,21,20228,2,0,P|472:33|491:102,1,127.500004863739,2|0,1:2|3:0,0:0:0:0:
416,102,20728,1,0,0:0:0:0:
469,300,20895,5,0,1:0:0:0:
377,325,21061,1,0,3:0:0:0:
174,249,21228,2,0,P|160:288|158:324,1,63.7500024318696,0|0,1:0|3:0,0:0:0:0:
376,227,21561,6,0,P|364:164|333:108,1,127.500004863739,2|0,1:2|3:0,0:0:0:0:
157,65,22061,1,0,0:0:0:0:
258,13,22228,2,0,P|251:46|250:76,2,63.7500024318696,0|0|0,1:0|0:0|3:0,0:0:0:0:
148,214,22728,5,0,3:0:0:0:
148,214,22811,1,0,3:0:0:0:
148,214,22895,2,0,P|85:192|17:185,1,127.500004863739,2|0,1:2|3:0,0:0:0:0:
24,184,23395,1,0,0:0:0:0:
219,294,23561,5,0,1:0:0:0:
298,272,23728,1,0,3:0:0:0:
493,353,23895,2,0,P|433:341|411:336,1,63.7500024318696,0|0,1:0|3:0,0:0:0:0:
308,110,24228,6,0,P|245:121|181:128,1,127.500004863739,2|0,1:2|3:0,0:0:0:0:
308,110,24728,1,0,0:0:0:0:
150,38,24895,5,0,1:0:0:0:
109,178,25061,1,0,3:0:0:0:
190,272,25228,5,0,3:0:0:0:
186,243,25395,1,0,3:0:0:0:
50,345,25561,6,0,P|82:347|113:352,1,63.7500024318696,2|0,1:2|0:0,0:0:0:0:
392,311,25895,2,0,P|424:309|455:303,1,63.7500024318696,0|0,3:0|0:0,0:0:0:0:
258,327,26228,5,2,1:2:0:0:
254,358,26395,1,0,3:0:0:0:
195,251,26561,5,8,0:0:0:0:
311,150,26728,5,8,0:0:0:0:
222,13,26895,6,0,P|195:71|193:135,1,127.5,2|0,1:2|0:0,0:0:0:0:
206,150,27228,1,8,0:0:0:0:
110,130,27395,1,0,0:0:0:0:
317,56,27561,1,0,1:0:0:0:
395,86,27728,1,0,0:0:0:0:
324,322,27895,2,0,P|317:279|305:238,1,85,10|0,0:2|0:0,0:0:0:0:
33,295,28228,6,0,P|115:318|155:339,1,127.5,2|0,1:2|0:0,0:0:0:0:
169,360,28561,2,0,P|193:303|187:268,1,85,8|0,0:0|0:0,0:0:0:0:
155,61,28895,5,0,1:0:0:0:
65,49,29061,1,0,0:0:0:0:
216,130,29228,1,8,0:0:0:0:
385,74,29395,1,8,0:0:0:0:
447,287,29561,6,0,P|455:242|466:194,2,85,2|0|8,1:2|0:0|0:0,0:0:0:0:
447,287,30061,1,0,0:0:0:0:
263,374,30228,2,0,P|256:331|244:281,1,85,2|0,1:2|0:0,0:0:0:0:
48,199,30561,2,0,P|38:240|31:282,1,85,10|0,0:2|0:0,0:0:0:0:
254,143,30895,5,2,1:2:0:0:
281,178,31061,1,0,0:0:0:0:
246,206,31228,1,8,0:0:0:0:
218,170,31395,1,0,0:0:0:0:
382,77,31561,5,2,1:2:0:0:
130,42,31728,1,0,0:0:0:0:
212,66,31895,1,8,0:0:0:0:
298,55,32062,1,0,0:0:0:0:
23,203,32228,6,0,P|73:192|114:186,1,85,2|0,1:2|0:0,0:0:0:0:
304,296,32561,2,0,P|262:289|220:279,1,85,8|0,0:0|0:0,0:0:0:0:
486,192,32895,1,2,1:2:0:0:
486,192,33061,1,0,0:0:0:0:
446,264,33228,1,8,0:0:0:0:
383,76,33395,1,0,0:0:0:0:
155,9,33561,6,0,P|142:48|135:103,1,85,2|0,1:2|0:0,0:0:0:0:
248,220,33895,2,0,P|220:189|176:155,1,85,8|0,0:0|0:0,0:0:0:0:
18,195,34228,2,0,P|58:186|109:165,1,85,0|0,1:0|0:0,0:0:0:0:
99,170,34561,1,10,0:2:0:0:
99,170,34728,1,0,0:0:0:0:
352,326,34895,6,0,P|391:329|452:338,2,85,2|0|8,1:2|0:0|0:0,0:0:0:0:
352,326,35395,1,2,0:2:0:0:
276,370,35561,1,0,1:0:0:0:
68,301,35728,1,2,0:2:0:0:
152,264,35895,2,0,P|159:312|169:358,1,85,10|0,0:2|0:0,0:0:0:0:
368,211,36228,6,0,P|376:169|382:127,1,85,2|0,1:2|0:0,0:0:0:0:
105,9,36561,2,0,P|111:51|119:92,1,85,8|0,0:0|0:0,0:0:0:0:
256,192,36895,5,10,0:2:0:0:
50,137,37061,1,8,0:0:0:0:
196,100,37228,5,8,0:0:0:0:
446,27,37395,1,8,0:0:0:0:
446,27,37478,1,8,0:0:0:0:
256,192,37561,12,0,38895,0:0:0:0:
256,192,39895,5,8,0:0:0:0:
256,192,40061,1,8,0:0:0:0:
103,326,40228,6,0,B|197:297|206:389|296:349,1,203.999993774414,6|8,1:2|0:0,0:0:0:0:
256,192,40728,1,0,0:0:0:0:
276,271,40895,1,0,1:0:0:0:
236,113,41061,1,0,0:0:0:0:
472,57,41228,2,0,L|370:44,2,101.999996887207,10|0|0,0:2|0:0|1:0,0:0:0:0:
472,57,41728,1,0,0:0:0:0:
216,12,41895,6,0,L|240:137,1,101.999996887207,10|0,0:2|0:0,0:0:0:0:
31,157,42228,1,0,1:0:0:0:
129,118,42395,1,0,1:0:0:0:
393,190,42561,1,8,0:0:0:0:
491,151,42728,1,8,0:0:0:0:
256,192,42895,6,0,L|240:319,2,101.999996887207,2|0|8,1:2|0:0|0:0,0:0:0:0:
256,192,43395,1,0,0:0:0:0:
324,338,43561,5,2,1:2:0:0:
187,358,43728,1,0,1:0:0:0:
119,303,43895,1,8,0:0:0:0:
405,353,44061,1,0,0:0:0:0:
256,192,44228,6,0,P|245:142|277:92,1,101.999996887207,2|0,1:2|0:0,0:0:0:0:
330,247,44561,2,0,P|302:206|255:191,1,101.999996887207,8|0,0:0|0:0,0:0:0:0:
168,227,44895,2,0,P|218:224|256:191,1,101.999996887207,0|0,1:0|1:0,0:0:0:0:
256,190,45228,1,10,0:2:0:0:
256,190,45395,1,0,1:0:0:0:
256,0,45561,5,4,1:0:0:0:
441,54,45728,2,0,L|339:66,2,101.999996887207,2|8|0,0:2|0:0|0:0,0:0:0:0:
256,0,46228,2,0,L|33:27,1,203.999993774414,2|8,1:2|0:0,0:0:0:0:
86,367,46728,1,0,0:0:0:0:
49,273,46895,6,0,P|100:277|150:289,1,101.999996887207,2|0,1:2|0:0,0:0:0:0:
364,256,47228,2,0,P|414:251|464:239,1,101.999996887207,8|0,0:0|0:0,0:0:0:0:
277,374,47561,5,2,1:2:0:0:
245,297,47728,1,0,1:0:0:0:
289,87,47895,1,8,0:0:0:0:
255,10,48061,2,0,L|147:-1,2,101.999996887207,10|0|0,0:2|1:0|0:0,0:0:0:0:
289,87,48561,5,8,0:0:0:0:
245,297,48728,1,2,0:2:0:0:
277,374,48895,6,0,L|385:385,1,101.999996887207,2|0,1:2|0:0,0:0:0:0:
143,310,49228,2,0,L|244:296,1,101.999996887207,8|0,0:0|0:0,0:0:0:0:
71,371,49561,5,2,1:2:0:0:
92,233,49728,1,0,1:0:0:0:
113,95,49895,1,8,0:0:0:0:
67,367,50061,5,2,1:2:0:0:
88,229,50228,1,8,0:0:0:0:
109,91,50395,1,0,1:0:0:0:
63,363,50561,5,10,0:2:0:0:
105,87,50728,1,0,1:0:0:0:
31,36,50895,6,0,B|125:7|134:99|224:59,1,203.999993774414,6|8,1:2|0:0,0:0:0:0:
31,36,51395,1,0,0:0:0:0:
332,48,51561,2,0,P|295:82|287:132,1,101.999996887207,2|0,1:2|0:0,0:0:0:0:
374,171,51895,2,0,P|382:121|418:86,1,101.999996887207,8|0,0:0|0:0,0:0:0:0:
470,165,52228,5,2,1:2:0:0:
293,227,52395,1,0,0:0:0:0:
428,365,52561,2,0,P|422:312|438:263,1,101.999996887207,8|0,0:0|0:0,0:0:0:0:
508,320,52895,5,2,1:2:0:0:
304,369,53061,1,0,1:0:0:0:
224,337,53228,1,8,0:0:0:0:
29,301,53395,1,8,0:0:0:0:
251,76,53561,6,0,P|276:175|269:254,1,152.999995330811,2|0,1:2|0:0,0:0:0:0:
248,252,53895,2,0,L|133:235,1,101.999996887207,8|0,0:0|0:0,0:0:0:0:
400,159,54228,2,0,L|285:142,1,101.999996887207,2|0,1:2|0:0,0:0:0:0:
470,330,54561,2,0,L|355:313,1,101.999996887207,8|0,0:0|0:0,0:0:0:0:
48,168,54895,6,0,L|67:326,1,152.999995330811,2|0,1:2|0:0,0:0:0:0:
57,346,55228,2,0,P|100:368|154:347,1,101.999996887207,8|0,0:0|0:0,0:0:0:0:
458,268,55561,5,2,1:2:0:0:
374,209,55728,1,0,0:0:0:0:
286,254,55895,1,8,0:0:0:0:
369,315,56061,1,0,0:0:0:0:
297,96,56228,6,0,L|412:76,2,101.999996887207,2|0|8,1:2|0:0|0:0,0:0:0:0:
297,96,56728,1,0,0:0:0:0:
95,31,56895,2,0,L|195:45,1,101.999996887207,2|0,1:2|0:0,0:0:0:0:
212,257,57228,2,0,L|197:156,1,101.999996887207,8|0,0:0|0:0,0:0:0:0:
44,293,57561,6,0,P|94:301|142:316,1,101.999996887207,2|0,1:2|0:0,0:0:0:0:
379,273,57895,2,0,P|429:264|477:249,1,101.999996887207,8|0,0:0|0:0,0:0:0:0:
465,0,58228,5,2,1:2:0:0:
383,21,58395,1,0,1:0:0:0:
162,163,58561,5,8,0:0:0:0:
33,129,58728,1,8,0:0:0:0:
33,129,58895,2,0,P|18:83|21:21,1,101.999996887207,4|0,1:0|0:0,0:0:0:0:
201,269,59228,6,0,P|103:263|50:345,1,203.999993774414,10|0,0:2|1:0,0:0:0:0:
153,358,59728,1,0,0:0:0:0:
230,185,59895,2,0,P|322:163|343:178,1,101.999996887207,8|0,0:0|0:0,0:0:0:0:
507,320,60228,6,0,L|405:307,1,101.999996887207,2|0,1:2|0:0,0:0:0:0:
194,279,60561,2,0,L|295:291,1,101.999996887207,8|0,0:0|0:0,0:0:0:0:
507,320,60895,5,2,1:2:0:0:
194,279,61061,1,0,1:0:0:0:
295,291,61228,1,8,0:0:0:0:
405,307,61395,1,0,1:0:0:0:
83,266,61561,5,14,0:2:0:0:
83,266,62061,5,0,1:0:0:0:
71,175,62228,1,8,0:0:0:0:
55,87,62895,5,0,1:0:0:0:
145,69,63061,1,0,1:0:0:0:
145,69,63395,5,0,1:0:0:0:
55,87,63561,1,8,0:0:0:0:
55,87,63895,5,0,1:0:0:0:
145,69,64061,1,8,0:0:0:0:
235,51,64228,1,0,1:0:0:0:
325,33,64728,5,0,1:0:0:0:
235,51,64895,1,8,0:0:0:0:
411,14,65562,5,0,1:0:0:0:
429,104,65728,1,0,1:0:0:0:
449,201,66061,5,0,1:0:0:0:
467,291,66227,1,8,0:0:0:0:
467,291,66562,5,0,1:0:0:0:
377,309,66728,1,8,0:0:0:0:
250,326,66895,2,0,L|376:308,1,127.500004863739,2|0,1:2|0:0,0:0:0:0:
167,336,67395,1,0,1:0:0:0:
167,336,67561,1,8,0:0:0:0:
256,192,68228,5,0,1:0:0:0:
256,192,68395,1,8,0:0:0:0:
320,128,68728,5,0,1:0:0:0:
192,96,68895,1,8,0:0:0:0:
192,96,69228,5,0,1:0:0:0:
320,128,69395,1,8,0:0:0:0:
126,175,69561,2,0,L|-1:159,1,127.500004863739,2|0,1:2|0:0,0:0:0:0:
0,159,70061,1,0,1:0:0:0:
192,96,70228,1,8,0:0:0:0:
288,320,70895,5,0,1:0:0:0:
288,320,71061,1,0,1:0:0:0:
352,384,71395,5,0,1:0:0:0:
192,320,71561,1,8,0:0:0:0:
192,320,71895,5,10,0:2:0:0:
352,384,72061,1,8,0:0:0:0:
430,335,72228,2,0,P|444:270|429:210,1,127.500004863739,14|0,0:2|0:0,0:0:0:0:
485,134,72728,1,0,1:0:0:0:
429,212,72895,1,8,0:0:0:0:
485,134,73561,5,2,1:2:0:0:
408,69,73728,2,0,P|324:50|276:81,1,127.500004863739,0|0,1:0|1:0,0:0:0:0:
408,69,74228,1,8,0:0:0:0:
235,138,74561,5,2,1:2:0:0:
192,54,74728,1,8,0:0:0:0:
91,181,74895,2,0,P|157:203|182:274,1,127.500004863739,0|0,1:0|0:0,0:0:0:0:
91,277,75395,1,0,1:0:0:0:
181,251,75561,1,8,0:0:0:0:
181,251,76228,5,2,1:2:0:0:
91,277,76395,1,0,1:0:0:0:
267,230,76728,5,0,1:0:0:0:
181,251,76895,1,8,0:0:0:0:
353,209,77228,5,2,1:2:0:0:
267,230,77395,1,8,0:0:0:0:
405,318,77561,2,0,P|436:233|466:197,1,127.500004863739,0|0,1:0|0:0,0:0:0:0:
398,128,78061,1,0,1:0:0:0:
458,204,78228,1,8,0:0:0:0:
398,128,78895,5,2,1:2:0:0:
321,68,79061,2,0,P|252:80|201:56,1,127.500004863739,0|0,1:0|1:0,0:0:0:0:
321,68,79561,1,8,0:0:0:0:
196,195,79895,5,0,1:0:0:0:
235,269,80061,1,8,0:0:0:0:
112,172,80228,2,0,P|62:174|8:111,1,127.500004863739,2|0,1:2|0:0,0:0:0:0:
89,84,80728,1,0,1:0:0:0:
10,121,80895,1,8,0:0:0:0:
89,84,81561,5,2,1:2:0:0:
10,120,81728,2,0,P|7:152|12:183,1,63.7500024318696,0|0,1:0|0:0,0:0:0:0:
88,338,82061,5,0,1:0:0:0:
166,301,82228,2,0,P|168:269|163:238,1,63.7500024318696,8|0,0:0|0:0,0:0:0:0:
88,338,82561,1,8,0:0:0:0:
230,363,82728,1,8,0:0:0:0:
351,292,82895,1,2,2:0:0:0:
256,192,87895,5,8,0:0:0:0:
256,192,88061,1,8,0:0:0:0:
348,119,88228,5,0,1:0:0:0:
182,99,88561,1,8,0:0:0:0:
328,285,88895,1,0,1:0:0:0:
162,265,89228,1,8,0:0:0:0:
372,206,89561,5,0,1:0:0:0:
269,75,89895,1,8,0:0:0:0:
138,178,90228,1,0,1:0:0:0:
241,309,90561,1,8,0:0:0:0:
241,309,90728,1,8,0:0:0:0:
138,178,90895,5,0,1:0:0:0:
372,206,91228,1,8,0:0:0:0:
269,75,91561,1,0,1:0:0:0:
241,309,91895,1,8,0:0:0:0:
162,265,92228,5,0,1:0:0:0:
328,285,92561,1,8,0:0:0:0:
182,99,92895,1,0,1:0:0:0:
348,119,93228,1,8,0:0:0:0:
64,167,93561,5,0,1:0:0:0:
278,0,93895,1,8,0:0:0:0:
446,214,94228,1,0,1:0:0:0:
231,382,94561,1,8,0:0:0:0:
65,169,94895,5,0,1:0:0:0:
231,382,95228,1,8,0:0:0:0:
447,216,95562,1,0,1:0:0:0:
280,1,95895,1,8,0:0:0:0:
231,382,96228,5,0,1:0:0:0:
65,169,96561,1,8,0:0:0:0:
447,216,96895,1,0,1:0:0:0:
280,1,97228,1,8,0:0:0:0:
256,192,97561,5,0,1:0:0:0:
256,192,97895,1,8,0:0:0:0:
406,72,98228,5,8,0:0:0:0:
136,39,98395,1,8,0:0:0:0:
103,310,98561,1,8,0:0:0:0:
374,339,98728,1,0,1:0:0:0:
374,339,98811,1,0,1:0:0:0:
374,339,98895,6,0,B|405:243|302:225|353:125,1,220.999989883423,6|8,1:2|0:0,0:0:0:0:
351,128,99395,1,0,0:0:0:0:
419,237,99561,2,0,P|363:243|309:258,1,110.499994941712,0|0,1:0|0:0,0:0:0:0:
138,384,99895,2,0,P|83:376|30:361,1,110.499994941712,10|0,0:2|0:0,0:0:0:0:
130,179,100228,5,2,1:2:0:0:
163,151,100395,1,2,0:2:0:0:
201,171,100561,1,8,0:0:0:0:
168,199,100728,1,2,0:2:0:0:
184,65,100895,5,2,1:2:0:0:
156,287,101061,1,0,1:0:0:0:
260,337,101228,5,8,0:0:0:0:
482,309,101395,1,8,0:0:0:0:
494,153,101561,6,0,P|405:103|341:-2,1,220.999989883423,2|8,1:2|0:0,0:0:0:0:
494,153,102061,1,2,0:2:0:0:
390,215,102228,1,0,1:0:0:0:
114,129,102395,1,0,1:0:0:0:
10,191,102561,2,0,L|126:207,1,110.499994941712,8|0,0:0|0:0,0:0:0:0:
258,7,102895,6,0,P|237:54|230:119,1,110.499994941712,2|0,1:2|0:0,0:0:0:0:
253,376,103228,2,0,P|274:329|277:267,1,110.499994941712,8|0,0:0|0:0,0:0:0:0:
10,191,103561,5,2,1:2:0:0:
114,129,103728,1,0,1:0:0:0:
390,215,103895,1,8,0:0:0:0:
494,153,104062,1,0,1:0:0:0:
258,7,104228,6,0,L|273:134,2,110.499994941712,6|0|8,1:2|0:0|0:0,0:0:0:0:
348,62,104728,1,0,0:0:0:0:
157,187,104895,2,0,L|379:214,1,220.999989883423,2|8,1:2|0:0,0:0:0:0:
251,301,105395,1,0,0:0:0:0:
54,146,105561,6,0,L|67:259,1,110.499994941712,2|0,1:2|0:0,0:0:0:0:
452,115,105895,2,0,L|465:229,1,110.499994941712,8|0,0:0|0:0,0:0:0:0:
187,337,106228,5,2,1:2:0:0:
314,33,106395,1,0,1:0:0:0:
339,121,106561,5,10,0:2:0:0:
164,258,106728,1,8,0:0:0:0:
254,193,106895,5,2,1:2:0:0:
254,193,107061,1,0,0:0:0:0:
391,318,107228,6,0,P|362:271|347:218,1,110.499994941712,10|0,0:2|0:0,0:0:0:0:
121,64,107561,2,0,P|149:112|164:165,1,110.499994941712,0|0,1:0|0:0,0:0:0:0:
70,217,107895,5,10,0:2:0:0:
419,159,108061,1,0,1:0:0:0:
256,192,108228,5,10,0:2:0:0:
256,192,108395,1,0,1:0:0:0:
347,218,108561,5,8,0:0:0:0:
164,165,108728,1,0,1:0:0:0:
419,159,108895,5,10,0:2:0:0:
70,217,109061,1,0,1:0:0:0:
455,236,109228,6,2,L|33:185,2,425,10|0|4,0:2|1:0|1:0,0:1:0:0:
274,40,109895,6,0,L|496:12,1,220.999989883423,10|0,0:2|1:0,0:0:0:0:
397,115,110395,1,2,0:2:0:0:
166,64,110561,1,8,0:0:0:0:
166,64,110728,1,2,0:2:0:0:
77,263,110895,6,0,L|48:137,1,110.499994941712,2|0,1:2|0:0,0:0:0:0:
266,254,111228,2,0,L|241:361,1,110.499994941712,8|0,0:0|0:0,0:0:0:0:
467,208,111561,5,2,1:2:0:0:
467,208,111728,1,0,1:0:0:0:
171,297,111895,1,8,0:0:0:0:
266,254,112061,5,8,0:0:0:0:
296,105,112228,2,0,L|261:-2,2,110.499994941712,2|0|8,1:2|0:0|0:0,0:0:0:0:
296,105,112728,1,0,0:0:0:0:
467,208,112895,6,0,L|446:333,1,110.499994941712,2|0,1:2|0:0,0:0:0:0:
254,266,113228,2,0,L|379:245,1,110.499994941712,8|0,0:0|0:0,0:0:0:0:
51,250,113561,6,0,L|72:375,1,110.499994941712,2|0,1:2|0:0,0:0:0:0:
217,140,113895,2,0,L|92:119,1,110.499994941712,8|0,0:0|0:0,0:0:0:0:
11,158,114228,5,2,1:2:0:0:
233,62,114395,1,2,0:2:0:0:
281,206,114561,5,8,0:0:0:0:
503,110,114728,1,2,0:2:0:0:
358,20,114895,6,0,L|342:147,2,110.499994941712,2|0|8,1:2|0:0|0:0,0:0:0:0:
233,62,115395,1,0,0:0:0:0:
262,296,115561,2,0,L|484:268,1,220.999989883423,2|8,1:2|0:0,0:0:0:0:
481,269,116061,1,2,0:2:0:0:
297,384,116228,5,2,1:2:0:0:
265,380,116395,1,2,0:2:0:0:
233,376,116561,1,8,0:0:0:0:
201,372,116728,1,2,0:2:0:0:
139,318,116895,5,2,1:2:0:0:
105,33,117061,1,0,1:0:0:0:
105,33,117228,1,8,0:0:0:0:
56,115,117395,1,8,0:0:0:0:
349,176,117561,6,0,L|323:59,2,110.499994941712,6|0|8,1:2|0:0|0:0,0:0:0:0:
349,176,118061,1,0,0:0:0:0:
229,269,118228,2,0,L|448:295,1,220.999989883423,2|8,1:2|0:0,0:0:0:0:
329,368,118728,1,0,0:0:0:0:
122,223,118895,6,0,L|137:350,1,110.499994941712,2|0,1:2|0:0,0:0:0:0:
99,25,119228,2,0,L|114:152,1,110.499994941712,8|0,0:0|0:0,0:0:0:0:
212,168,119561,5,2,1:2:0:0:
27,188,119728,1,0,1:0:0:0:
310,157,119895,1,8,0:0:0:0:
495,137,120062,1,0,1:0:0:0:
250,344,120228,6,0,L|265:216,2,110.499994941712,6|0|8,1:2|0:0|0:0,0:0:0:0:
250,344,120728,1,0,0:0:0:0:
133,307,120895,1,0,1:0:0:0:
370,273,121061,1,0,1:0:0:0:
370,273,121145,1,0,1:0:0:0:
370,273,121228,2,0,L|354:145,1,110.499994941712,10|0,0:2|0:0,0:0:0:0:
151,11,121561,5,2,1:2:0:0:
126,102,121728,1,0,0:0:0:0:
217,127,121895,1,8,0:0:0:0:
241,36,122061,1,0,0:0:0:0:
325,58,122228,1,2,1:2:0:0:
43,79,122395,1,0,0:0:0:0:
151,11,122561,1,8,0:0:0:0:
217,127,122728,1,8,0:0:0:0:
106,383,122895,6,0,L|90:255,1,110.499994941712,2|0,1:2|0:0,0:0:0:0:
422,193,123228,2,0,L|437:320,1,110.499994941712,8|0,0:0|0:0,0:0:0:0:
92,273,123561,1,2,1:2:0:0:
435,302,123728,1,0,1:0:0:0:
349,255,123895,1,8,0:0:0:0:
177,320,124061,1,0,0:0:0:0:
246,252,124228,5,2,1:2:0:0:
280,328,124395,1,0,0:0:0:0:
280,328,124561,1,8,0:0:0:0:
246,252,124728,1,0,0:0:0:0:
320,145,124895,5,2,1:2:0:0:
81,113,125061,1,0,1:0:0:0:
81,113,125228,1,8,0:0:0:0:
320,145,125394,1,0,1:0:0:0:
196,11,125561,6,0,L|216:132,2,110.499994941712,6|0|8,1:2|0:0|0:0,0:0:0:0:
214,120,126061,1,0,0:0:0:0:
252,337,126228,2,0,L|234:228,1,110.499994941712,2|0,1:2|0:0,0:0:0:0:
234,228,126561,1,8,0:0:0:0:
483,255,126728,5,0,1:0:0:0:
483,255,126811,1,0,1:0:0:0:
483,255,126895,2,0,L|361:224,1,110.499994941712,2|0,1:2|0:0,0:0:0:0:
115,337,127228,2,0,L|-7:368,1,110.499994941712,8|0,0:0|0:0,0:0:0:0:
253,337,127561,5,2,1:2:0:0:
234,228,127728,1,0,0:0:0:0:
193,0,127895,1,8,0:0:0:0:
212,109,128062,1,8,0:0:0:0:
477,52,128228,6,0,L|349:36,1,110.499994941712,2|0,1:2|0:0,0:0:0:0:
0,209,128561,2,0,L|127:193,1,110.499994941712,8|0,0:0|0:0,0:0:0:0:
403,140,128895,6,0,L|512:153,1,110.499994941712,2|0,1:2|0:0,0:0:0:0:
142,290,129228,2,0,L|32:303,1,110.499994941712,8|0,0:0|0:0,0:0:0:0:
319,362,129561,5,2,1:2:0:0:
299,209,129728,1,0,1:0:0:0:
280,56,129895,1,8,0:0:0:0:
323,357,130061,5,2,1:2:0:0:
304,204,130228,1,8,0:0:0:0:
285,51,130395,1,0,1:0:0:0:
328,352,130561,5,10,0:2:0:0:
290,46,130728,1,0,1:0:0:0:
0,16,130895,5,6,1:2:0:0:
