osu file format v14

[General]
AudioFilename: audio.mp3
AudioLeadIn: 0
PreviewTime:98811
Countdown: 0
SampleSet: Soft
StackLeniency: 0.7
Mode: 0
LetterboxInBreaks: 0
WidescreenStoryboard: 1

[Editor]
Bookmarks: 29228,79895,79978,80061,82895,83061,83145,83311,83395,83561,83645,83728,83895,83978,84145,84228,84311,84395,84478,84561,84645,84728,84811,84895,84978,85061,85228,85311,85395,85478,85561,85728,85811,85978,86061,86145,86228,86395,86478,86645,86728,86895,86978,87061,87145,87228,87311,87395,87478,87561,87645,87728,87811,87895,120228,130895
DistanceSpacing: 1.3
BeatDivisor: 4
GridSize: 32
TimelineZoom: 2.2

[Metadata]
Title:Get Jinxed
TitleUnicode:Get Jinxed
Artist:Agnete Kjolsrud
ArtistUnicode:Agnete Kjølsrud
Creator:Hishiro Chizuru
Version:Lasse's Jungle Diff
Source:League of Legends
Tags:amb1d3x malzahar nether grasp nocturne unspeakable horror brasse lasse deviouspanda english rock pop video game riot rito games djerv champion nunu jinx intro arcane powder
BeatmapID:3482945
BeatmapSetID:1704573

[Difficulty]
HPDrainRate:6.9
CircleSize:4.2
OverallDifficulty:8.2
ApproachRate:8.7
SliderMultiplier:1.6
SliderTickRate:1

[Events]
//Background and Video events
0,0,"nunu.jpg",0,0
//Break Periods
2,83095,87250
//Storyboard Layer 0 (Background)
//Storyboard Layer 1 (Fail)
//Storyboard Layer 2 (Pass)
//Storyboard Layer 3 (Foreground)
//Storyboard Layer 4 (Overlay)
//Storyboard Sound Samples

[TimingPoints]
5562,333.333333333333,4,2,69,60,1,0
5562,-133.333333333333,4,2,69,60,0,0
16228,-117.647058823529,4,2,69,70,0,0
26895,-100,4,2,69,75,0,0
40228,-90.9090909090909,4,2,69,80,0,0
61561,-133.333333333333,4,2,69,65,0,0
72228,-117.647058823529,4,2,69,65,0,0
98895,-90.9090909090909,4,2,69,80,0,0
120228,-83.3333333333333,4,2,69,80,0,0

[Colours]
Combo1 : 228,203,203
Combo2 : 128,255,249
Combo3 : 255,170,255
Combo4 : 149,255,149
Combo5 : 187,187,255

[HitObjects]
245,200,5895,6,0,P|211:187|120:177,1,120.000004577637
254,178,6395,2,0,P|282:155|336:81,1,120.000004577637
268,197,6895,2,0,P|274:233|311:317,1,120.000004577637,2|0,0:0|0:0,0:0:0:0:
445,359,7561,5,0,0:0:0:0:
445,359,7728,1,0,0:0:0:0:
469,279,7895,1,0,0:0:0:0:
469,279,8060,1,0,0:0:0:0:
427,197,8227,1,2,0:0:0:0:
247,304,8560,6,0,P|310:288|376:292,1,120.000004577637
282,206,9061,2,0,B|261:136|291:163|270:80,1,120.000004577637
218,14,9560,1,2,0:0:0:0:
218,14,9727,1,0,0:0:0:0:
138,67,9895,1,0,0:0:0:0:
138,67,10061,1,0,0:0:0:0:
191,140,10227,5,2,0:0:0:0:
108,169,10395,1,0,0:0:0:0:
191,140,10560,1,0,0:0:0:0:
108,169,10728,1,0,0:0:0:0:
174,226,10895,1,0,0:0:0:0:
120,321,11145,5,0,0:0:0:0:
120,321,11227,2,0,L|-4:313,1,120.000004577637,2|0,0:0|0:0,0:0:0:0:
142,342,11728,2,0,L|266:350,1,120.000004577637
124,356,12228,2,0,L|4:348,1,120.000004577637,2|0,0:0|0:0,0:0:0:0:
186,237,12894,5,2,0:0:0:0:
186,237,13061,1,0,0:0:0:0:
272,261,13227,1,0,0:0:0:0:
272,261,13395,1,0,0:0:0:0:
347,209,13561,1,0,0:0:0:0:
477,43,13894,6,0,P|466:84|467:166,1,120.000004577637,2|0,0:0|0:0,0:0:0:0:
347,209,14395,2,0,P|360:150|357:90,1,120.000004577637
290,21,14895,1,0,0:0:0:0:
290,21,15061,1,0,0:0:0:0:
255,110,15228,1,0,0:0:0:0:
255,110,15394,1,0,0:0:0:0:
196,34,15560,5,2,0:0:0:0:
357,90,15727,1,0,0:0:0:0:
255,110,15895,1,0,0:0:0:0:
290,21,16061,1,0,0:0:0:0:
157,132,16228,5,2,1:2:0:0:
157,132,16561,2,0,B|81:106|96:155|21:135,1,136.000002593994,0|0,3:0|1:0,0:0:0:0:
126,209,17061,2,0,P|115:263|139:369,1,136.000002593994,0|0,0:0|3:0,0:0:0:0:
348,251,17561,6,0,P|359:305|335:411,1,136.000002593994,2|0,1:2|3:0,0:0:0:0:
237,260,18061,1,0,0:0:0:0:
203,354,18228,2,0,P|233:353|268:341,1,68.0000012969971,0|0,1:0|3:0,0:0:0:0:
281,182,18561,2,0,P|248:170|215:169,1,68.0000012969971,0|0,1:0|3:0,0:0:0:0:
372,277,18894,5,2,1:2:0:0:
372,277,19228,2,0,P|432:292|519:245,1,136.000002593994,0|0,3:0|1:0,0:0:0:0:
426,194,19728,2,0,B|453:161|453:161|426:58,1,136.000002593994,0|0,0:0|3:0,0:0:0:0:
249,161,20228,6,0,B|222:128|222:128|245:37,1,136.000002593994,2|0,1:2|3:0,0:0:0:0:
135,0,20727,1,0,0:0:0:0:
47,100,20895,2,0,P|86:90|129:89,1,68.0000012969971,0|0,1:0|3:0,0:0:0:0:
237,179,21228,2,0,P|198:169|155:168,1,68.0000012969971,0|0,1:0|3:0,0:0:0:0:
36,236,21561,5,2,1:2:0:0:
36,236,21895,2,0,P|20:318|19:381,1,136.000002593994,0|0,3:0|1:0,0:0:0:0:
141,295,22395,2,0,B|224:281|194:326|289:313,1,136.000002593994,0|0,0:0|3:0,0:0:0:0:
427,268,22895,6,0,P|398:259|351:254,1,68.0000012969971,2|0,1:2|0:0,0:0:0:0:
358,380,23228,2,0,P|391:375|424:366,1,68.0000012969971,0|0,3:0|0:0,0:0:0:0:
272,220,23560,5,0,1:0:0:0:
388,159,23727,1,0,3:0:0:0:
360,254,23895,1,0,1:0:0:0:
300,132,24061,1,0,3:0:0:0:
383,56,24227,6,0,B|323:23|323:23|243:36,1,136.000002593994,2|0,1:2|3:0,0:0:0:0:
177,2,24727,1,0,0:0:0:0:
138,160,24895,2,0,P|178:157|213:139,1,68.0000012969971,0|0,1:0|3:0,0:0:0:0:
43,74,25228,2,0,P|46:114|64:149,1,68.0000012969971,0|0,3:0|3:0,0:0:0:0:
279,172,25560,6,0,B|269:205|269:205|272:220|272:220|258:239|255:278,1,102.000001945496,2|0,1:2|0:0,0:0:0:0:
286,344,25895,2,0,P|319:343|358:333,1,68.0000012969971,0|0,3:0|0:0,0:0:0:0:
512,243,26228,2,0,P|478:241|445:233,1,68.0000012969971,2|0,1:2|3:0,0:0:0:0:
359,84,26560,5,8,0:0:0:0:
483,41,26727,1,8,0:0:0:0:
344,97,26895,6,0,P|294:106|196:56,1,160,2|8,1:2|0:0,0:0:0:0:
97,120,27395,1,0,0:0:0:0:
174,242,27561,2,0,P|184:200|184:161,1,80,0|0,1:0|0:0,0:0:0:0:
31,182,27895,2,0,P|31:221|41:260,1,80,10|0,0:2|0:0,0:0:0:0:
168,340,28228,6,0,B|197:324|197:324|216:327|216:327|251:314|300:320,1,120,2|0,1:2|0:0,0:0:0:0:
354,350,28561,2,0,P|395:350|439:331,1,80,8|0,0:0|0:0,0:0:0:0:
509,175,28895,5,0,1:0:0:0:
419,199,29061,1,0,0:0:0:0:
437,111,29228,1,8,0:0:0:0:
491,259,29395,1,8,0:0:0:0:
279,144,29561,6,0,P|324:136|361:136,1,80,2|0,1:2|0:0,0:0:0:0:
174,184,29895,2,0,P|166:139|166:102,1,80,8|0,0:0|0:0,0:0:0:0:
214,289,30228,2,0,P|169:297|132:297,1,80,2|0,1:2|0:0,0:0:0:0:
319,249,30561,2,0,P|327:294|327:331,1,80,10|0,0:2|0:0,0:0:0:0:
144,186,30895,5,2,1:2:0:0:
403,122,31228,1,8,0:0:0:0:
97,62,31561,5,2,1:2:0:0:
198,109,31728,1,0,0:0:0:0:
43,139,31895,1,8,0:0:0:0:
144,186,32062,1,0,0:0:0:0:
0,273,32228,6,0,P|45:265|92:258,1,80,2|0,1:2|0:0,0:0:0:0:
244,220,32561,2,0,P|237:180|230:141,1,80,8|0,0:0|0:0,0:0:0:0:
337,30,32895,1,2,1:2:0:0:
243,5,33061,1,0,0:0:0:0:
334,117,33228,1,8,0:0:0:0:
426,30,33395,1,0,0:0:0:0:
506,204,33561,6,0,B|478:192|478:192|458:196|458:196|429:176|383:175,1,120,2|0,1:2|0:0,0:0:0:0:
318,201,33895,2,0,P|302:228|287:290,1,80,8|0,0:0|0:0,0:0:0:0:
323,369,34228,1,0,1:0:0:0:
206,317,34395,1,0,0:0:0:0:
323,369,34561,1,10,0:2:0:0:
206,317,34728,1,0,0:0:0:0:
304,185,34895,6,0,P|301:144|289:82,1,80,2|0,1:2|0:0,0:0:0:0:
119,182,35228,2,0,P|122:223|134:285,1,80,8|2,0:0|0:2,0:0:0:0:
196,83,35561,5,0,1:0:0:0:
196,83,35728,2,0,P|151:92|102:89,1,80,2|10,0:2|0:2,0:0:0:0:
228,304,36061,1,0,0:0:0:0:
228,304,36228,2,0,P|273:295|322:298,1,80,2|0,1:2|0:0,0:0:0:0:
119,182,36561,2,0,P|74:191|25:188,1,80,8|0,0:0|0:0,0:0:0:0:
284,35,36895,5,10,0:2:0:0:
396,191,37061,1,8,0:0:0:0:
377,13,37228,1,8,0:0:0:0:
292,167,37395,1,8,0:0:0:0:
292,167,37478,1,8,0:0:0:0:
256,192,37561,12,0,39561,0:0:0:0:
201,172,39895,5,8,0:0:0:0:
311,212,40061,1,8,0:0:0:0:
137,281,40228,6,0,P|193:267|228:266,1,88.000002685547,6|0,1:2|0:0,0:0:0:0:
440,350,40561,2,0,P|448:262|426:173,1,176.000005371094,8|0,0:0|1:0,0:0:0:0:
377,84,41061,1,0,0:0:0:0:
286,28,41228,2,0,P|242:31|199:43,1,88.000002685547,10|0,0:2|0:0,0:0:0:0:
38,165,41561,6,0,B|64:154|64:154|85:161|85:161|130:138|179:149,1,132.00000402832,0|0,1:0|0:0,0:0:0:0:
240,174,41895,2,0,P|258:209|257:292,1,88.000002685547,10|0,0:2|0:0,0:0:0:0:
214,376,42228,5,0,1:0:0:0:
124,347,42395,1,0,1:0:0:0:
266,288,42561,5,8,0:0:0:0:
373,269,42728,1,8,0:0:0:0:
498,343,42895,6,0,B|486:305|486:305|491:282|491:282|478:262|476:211,1,132.00000402832,2|0,1:2|0:0,0:0:0:0:
507,144,43228,2,0,P|510:100|499:50,1,88.000002685547,8|0,0:0|0:0,0:0:0:0:
378,25,43561,1,2,1:2:0:0:
345,132,43728,1,0,1:0:0:0:
423,103,43895,1,8,0:0:0:0:
293,49,44061,1,0,0:0:0:0:
192,199,44228,6,0,P|236:182|278:184,1,88.000002685547,2|0,1:2|0:0,0:0:0:0:
218,369,44561,2,0,P|262:370|303:354,1,88.000002685547,8|0,0:0|0:0,0:0:0:0:
112,286,44895,5,0,1:0:0:0:
74,383,45061,1,0,1:0:0:0:
1,229,45228,5,10,0:2:0:0:
19,310,45395,1,0,1:0:0:0:
124,139,45561,6,0,P|83:122|39:123,1,88.000002685547,4|2,1:0|0:2,0:0:0:0:
261,235,45895,2,0,P|277:194|276:150,1,88.000002685547,8|0,0:0|0:0,0:0:0:0:
426,15,46228,2,0,P|390:88|409:166,1,132.00000402832,2|0,1:2|0:0,0:0:0:0:
439,201,46561,1,8,0:0:0:0:
502,116,46728,1,0,0:0:0:0:
354,59,46895,6,0,B|316:47|316:47|291:57|291:57|263:42|199:44,1,132.00000402832,2|0,1:2|0:0,0:0:0:0:
154,65,47228,2,0,P|143:101|138:160,1,88.000002685547,8|0,0:0|0:0,0:0:0:0:
179,252,47561,5,2,1:2:0:0:
55,220,47728,1,0,1:0:0:0:
120,334,47895,5,8,0:0:0:0:
266,308,48061,1,10,0:2:0:0:
381,289,48228,6,0,P|369:331|368:375,1,88.000002685547,0|0,1:0|0:0,0:0:0:0:
277,206,48561,2,0,P|319:194|357:173,1,88.000002685547,8|2,0:0|0:2,0:0:0:0:
441,39,48895,1,2,1:2:0:0:
512,149,49061,1,0,0:0:0:0:
353,80,49228,1,8,0:0:0:0:
466,15,49395,1,0,0:0:0:0:
320,93,49561,6,0,B|291:82|291:82|268:83|268:83|244:61|181:60,1,132.00000402832,2|0,1:2|0:0,0:0:0:0:
123,91,49895,2,0,P|119:46|148:-6,1,88.000002685547,8|2,0:0|1:2,0:0:0:0:
237,183,50228,5,8,0:0:0:0:
74,262,50395,1,0,1:0:0:0:
127,118,50561,1,10,0:2:0:0:
182,323,50728,1,0,1:0:0:0:
325,292,50895,6,0,L|328:393,1,88.000002685547,6|0,1:2|0:0,0:0:0:0:
476,313,51228,2,0,P|499:216|467:133,1,176.000005371094,8|2,0:0|1:2,0:0:0:0:
399,62,51728,1,0,0:0:0:0:
330,189,51895,2,0,P|277:203|199:174,1,132.00000402832,8|0,0:0|0:0,0:0:0:0:
128,107,52228,6,0,P|130:58|103:3,1,88.000002685547,2|0,1:2|0:0,0:0:0:0:
0,192,52561,2,0,P|-2:241|25:296,1,88.000002685547,8|0,0:0|0:0,0:0:0:0:
135,331,52895,5,2,1:2:0:0:
41,384,53061,1,0,1:0:0:0:
153,309,53228,5,8,0:0:0:0:
265,369,53395,1,8,0:0:0:0:
384,282,53561,6,0,P|390:325|388:369,1,88.000002685547,2|0,1:2|0:0,0:0:0:0:
220,220,53895,2,0,P|272:214|323:199,1,88.000002685547,8|0,0:0|0:0,0:0:0:0:
494,161,54228,2,0,P|442:155|391:140,1,88.000002685547,2|0,1:2|0:0,0:0:0:0:
280,0,54561,2,0,B|267:41|267:41|272:60|272:60|255:89|257:138,1,132.00000402832,8|0,0:0|0:0,0:0:0:0:
196,239,54895,6,0,P|144:233|93:218,1,88.000002685547,2|0,1:2|0:0,0:0:0:0:
86,40,55228,2,0,P|34:46|-17:61,1,88.000002685547,8|0,0:0|0:0,0:0:0:0:
139,135,55561,5,2,1:2:0:0:
15,162,55728,1,0,0:0:0:0:
101,256,55895,1,8,0:0:0:0:
225,229,56061,1,0,0:0:0:0:
293,354,56228,6,0,P|255:352|188:361,1,88.000002685547,2|0,1:2|0:0,0:0:0:0:
415,221,56561,2,0,P|397:306|435:384,1,176.000005371094,8|2,0:0|1:2,0:0:0:0:
509,244,57061,1,0,0:0:0:0:
350,158,57228,2,0,P|416:135|490:163,1,132.00000402832,8|0,0:0|0:0,0:0:0:0:
354,63,57561,6,0,P|314:47|270:41,1,88.000002685547,2|0,1:2|0:0,0:0:0:0:
220,257,57895,2,0,P|260:273|304:279,1,88.000002685547,8|0,0:0|0:0,0:0:0:0:
109,135,58228,5,2,1:2:0:0:
3,155,58395,1,0,1:0:0:0:
132,162,58561,5,8,0:0:0:0:
111,23,58728,1,8,0:0:0:0:
262,79,58895,6,0,P|253:127|255:191,1,88.000002685547,4|0,1:0|0:0,0:0:0:0:
475,240,59228,2,0,P|421:162|335:147,1,176.000005371094,10|0,0:2|1:0,0:0:0:0:
233,252,59728,1,0,0:0:0:0:
381,384,59895,2,0,B|372:347|372:347|377:326|377:326|364:302|369:253,1,132.00000402832,8|0,0:0|0:0,0:0:0:0:
427,165,60228,6,0,P|490:148|528:147,1,88.000002685547,2|0,1:2|0:0,0:0:0:0:
273,42,60561,2,0,P|210:25|172:24,1,88.000002685547,8|0,0:0|0:0,0:0:0:0:
57,70,60895,5,2,1:2:0:0:
182,168,61061,1,0,1:0:0:0:
174,52,61228,5,8,0:0:0:0:
77,220,61395,1,0,1:0:0:0:
175,287,61561,5,14,0:2:0:0:
175,287,62061,5,0,1:0:0:0:
106,359,62228,1,8,0:0:0:0:
256,192,62895,5,0,1:0:0:0:
256,192,63061,1,0,1:0:0:0:
337,287,63395,5,0,1:0:0:0:
406,359,63561,1,8,0:0:0:0:
414,192,63895,5,0,1:0:0:0:
512,174,64061,1,8,0:0:0:0:
490,92,64228,1,0,1:0:0:0:
490,92,64728,5,0,1:0:0:0:
384,45,64894,1,8,0:0:0:0:
256,192,65562,5,0,1:0:0:0:
256,192,65728,1,0,1:0:0:0:
22,92,66061,5,0,1:0:0:0:
128,45,66227,1,8,0:0:0:0:
151,208,66562,5,0,1:0:0:0:
52,193,66728,1,8,0:0:0:0:
98,310,66895,6,0,P|149:293|218:292,1,120.000004577637,2|0,1:2|0:0,0:0:0:0:
151,208,67395,1,0,1:0:0:0:
214,291,67561,2,0,P|270:310|330:310,1,120.000004577637,8|0,0:0|0:0,0:0:0:0:
463,276,68228,5,0,1:0:0:0:
463,276,68395,1,8,0:0:0:0:
256,192,68728,5,0,1:0:0:0:
366,147,68895,1,8,0:0:0:0:
256,192,69228,5,0,1:0:0:0:
211,82,69395,1,8,0:0:0:0:
135,108,69561,1,2,1:2:0:0:
256,192,70061,5,0,1:0:0:0:
146,237,70228,1,8,0:0:0:0:
49,108,70895,5,0,1:0:0:0:
49,108,71061,1,0,1:0:0:0:
146,237,71395,5,0,1:0:0:0:
104,332,71561,1,8,0:0:0:0:
256,192,71895,5,10,0:2:0:0:
292,373,72061,1,8,0:0:0:0:
381,287,72228,6,0,B|463:273|437:317|523:306,1,136.000002593994,14|0,0:2|0:0,0:0:0:0:
441,203,72728,1,0,1:0:0:0:
504,125,72895,1,8,0:0:0:0:
504,125,73561,5,2,1:2:0:0:
436,63,73728,2,0,B|354:49|380:93|294:82,1,136.000002593994,0|0,1:0|1:0,0:0:0:0:
234,21,74228,1,8,0:0:0:0:
159,117,74561,5,2,1:2:0:0:
63,146,74728,1,8,0:0:0:0:
142,218,74895,2,0,P|94:225|59:310,1,136.000002593994,0|0,1:0|0:0,0:0:0:0:
100,378,75395,1,0,1:0:0:0:
201,335,75561,1,8,0:0:0:0:
256,192,76228,5,2,1:2:0:0:
256,192,76395,1,0,1:0:0:0:
175,128,76728,5,0,1:0:0:0:
148,235,76895,1,8,0:0:0:0:
337,128,77228,5,2,1:2:0:0:
364,235,77395,1,8,0:0:0:0:
481,207,77561,6,0,B|469:135|498:159|495:68,1,136.000002593994,0|0,1:0|0:0,0:0:0:0:
443,0,78061,1,0,1:0:0:0:
346,43,78228,1,8,0:0:0:0:
346,43,78895,5,2,1:2:0:0:
292,110,79061,2,0,B|285:185|318:171|306:243,1,136.000002593994,0|0,1:0|1:0,0:0:0:0:
247,327,79561,1,8,0:0:0:0:
118,382,79895,5,0,1:0:0:0:
111,276,80061,1,8,0:0:0:0:
12,290,80228,6,0,B|0:218|33:232|26:157,1,136.000002593994,2|0,1:2|0:0,0:0:0:0:
63,72,80728,1,0,1:0:0:0:
153,117,80895,1,8,0:0:0:0:
256,0,81561,5,2,1:2:0:0:
256,0,81728,1,0,1:0:0:0:
449,72,82061,5,0,1:0:0:0:
359,117,82228,1,8,0:0:0:0:
181,171,82561,5,8,0:0:0:0:
331,213,82728,1,8,0:0:0:0:
256,192,82895,5,2,2:0:0:0:
256,192,87895,5,8,0:0:0:0:
256,192,88061,1,8,0:0:0:0:
172,143,88228,5,0,1:0:0:0:
207,275,88561,1,8,0:0:0:0:
340,143,88895,1,0,1:0:0:0:
305,275,89228,1,8,0:0:0:0:
155,133,89561,5,0,1:0:0:0:
197,291,89894,1,8,0:0:0:0:
356,133,90228,1,0,1:0:0:0:
314,291,90561,1,8,0:0:0:0:
314,291,90728,1,8,0:0:0:0:
193,201,90895,5,0,1:0:0:0:
149,349,91228,1,8,0:0:0:0:
319,201,91561,1,0,1:0:0:0:
363,349,91895,1,8,0:0:0:0:
173,190,92228,5,0,1:0:0:0:
88,251,92561,1,8,0:0:0:0:
339,190,92894,1,0,1:0:0:0:
424,251,93228,1,8,0:0:0:0:
172,109,93561,5,0,1:0:0:0:
102,6,93895,1,8,0:0:0:0:
340,109,94228,1,0,1:0:0:0:
410,6,94561,1,8,0:0:0:0:
161,139,94895,5,0,1:0:0:0:
351,245,95228,1,8,0:0:0:0:
165,290,95562,1,0,1:0:0:0:
347,94,95895,1,8,0:0:0:0:
141,130,96228,5,0,1:0:0:0:
371,254,96561,1,8,0:0:0:0:
144,312,96895,1,0,1:0:0:0:
368,72,97228,1,8,0:0:0:0:
121,117,97561,5,0,1:0:0:0:
391,267,97895,1,8,0:0:0:0:
220,100,98228,5,8,0:0:0:0:
164,228,98395,1,8,0:0:0:0:
292,284,98561,1,8,0:0:0:0:
348,156,98728,1,0,1:0:0:0:
344,142,98811,1,0,1:0:0:0:
340,128,98895,6,0,P|345:82|429:37,1,132.00000402832,6|0,1:2|0:0,0:0:0:0:
480,71,99228,2,0,L|496:171,1,88.000002685547,8|0,0:0|0:0,0:0:0:0:
344,259,99561,2,0,B|459:254|403:317|521:314,1,176.000005371094,0|10,1:0|0:2,0:0:0:0:
504,313,100061,1,0,0:0:0:0:
360,351,100228,6,0,B|333:337|333:337|306:342|306:342|277:321|222:323,1,132.00000402832,2|0,1:2|0:0,0:0:0:0:
164,354,100562,2,0,P|160:309|179:265,1,88.000002685547,8|2,0:0|0:2,0:0:0:0:
238,169,100895,5,2,1:2:0:0:
116,197,101062,1,0,1:0:0:0:
270,100,101228,5,8,0:0:0:0:
383,139,101395,1,8,0:0:0:0:
218,42,101561,6,0,B|188:62|147:56|147:56|126:28|93:16,1,132.00000402832,2|0,1:2|0:0,0:0:0:0:
26,43,101895,2,0,P|15:75|11:133,1,88.000002685547,8|2,0:0|0:2,0:0:0:0:
116,197,102228,1,0,1:0:0:0:
78,314,102395,1,0,1:0:0:0:
29,228,102562,1,8,0:0:0:0:
169,276,102728,1,0,0:0:0:0:
263,169,102895,6,0,P|262:129|237:76,1,88.000002685547,2|0,1:2|0:0,0:0:0:0:
368,279,103228,2,0,P|335:277|282:296,1,88.000002685547,8|0,0:0|0:0,0:0:0:0:
435,157,103562,5,2,1:2:0:0:
512,225,103728,1,0,1:0:0:0:
424,127,103895,5,8,0:0:0:0:
512,81,104062,1,0,1:0:0:0:
315,33,104228,6,0,P|355:16|399:17,1,88.000002685547,6|0,1:2|0:0,0:0:0:0:
298,200,104561,2,0,P|254:200|213:184,1,88.000002685547,8|0,0:0|0:0,0:0:0:0:
157,42,104895,2,0,P|92:37|37:82,1,132.00000402832,2|0,1:2|0:0,0:0:0:0:
5,146,105228,1,8,0:0:0:0:
107,215,105395,1,0,0:0:0:0:
0,307,105562,6,0,B|75:284|58:346|155:308,1,132.00000402832,2|0,1:2|0:0,0:0:0:0:
206,297,105895,2,0,L|220:390,1,88.000002685547,8|0,0:0|0:0,0:0:0:0:
310,208,106228,5,2,1:2:0:0:
421,244,106395,1,0,1:0:0:0:
296,181,106562,5,10,0:2:0:0:
199,271,106728,1,8,0:0:0:0:
57,174,106895,6,0,P|45:216|44:260,1,88.000002685547,2|0,1:2|0:0,0:0:0:0:
200,75,107228,2,0,P|157:74|117:55,1,88.000002685547,10|0,0:2|0:0,0:0:0:0:
296,181,107562,1,0,1:0:0:0:
361,27,107728,1,0,0:0:0:0:
227,70,107895,1,10,0:2:0:0:
319,193,108061,1,0,1:0:0:0:
469,122,108228,6,0,B|460:158|460:158|464:176|464:176|443:209|449:267,1,132.00000402832,10|0,0:2|0:0,0:0:0:0:
401,309,108562,2,0,P|448:327|497:312,1,88.000002685547,8|0,0:0|1:0,0:0:0:0:
304,150,108895,5,10,0:2:0:0:
234,372,109062,1,0,1:0:0:0:
203,191,109228,1,10,0:2:0:0:
320,343,109395,1,0,1:0:0:0:
88,260,109561,6,0,P|80:294|80:346,1,88.000002685547,4|0,1:0|0:0,0:0:0:0:
194,164,109895,2,0,P|111:177|49:95,1,176.000005371094,10|0,0:2|1:0,0:0:0:0:
204,17,110395,1,2,0:2:0:0:
296,123,110561,2,0,B|286:162|286:162|291:182|291:182|271:209|269:262,1,132.00000402832,8|0,0:0|0:0,0:0:0:0:
335,355,110895,6,0,P|374:364|440:367,1,88.000002685547,2|0,1:2|0:0,0:0:0:0:
175,283,111228,2,0,P|166:322|163:388,1,88.000002685547,8|0,0:0|0:0,0:0:0:0:
337,199,111562,5,2,1:2:0:0:
196,149,111728,1,0,1:0:0:0:
351,220,111895,5,8,0:0:0:0:
404,80,112062,1,8,0:0:0:0:
370,244,112228,6,0,P|416:245|467:235,1,88.000002685547,2|0,1:2|0:0,0:0:0:0:
311,28,112562,2,0,P|309:74|296:114,1,88.000002685547,8|0,0:0|0:0,0:0:0:0:
69,123,112895,2,0,P|71:77|83:36,1,88.000002685547,2|0,1:2|0:0,0:0:0:0:
195,189,113228,2,0,B|186:225|186:225|193:246|193:246|171:277|178:332,1,132.00000402832,8|0,0:0|0:0,0:0:0:0:
234,384,113562,6,0,P|284:382|337:363,1,88.000002685547,2|0,1:2|0:0,0:0:0:0:
98,242,113895,2,0,P|54:242|11:254,1,88.000002685547,8|0,0:0|0:0,0:0:0:0:
231,151,114228,5,2,1:2:0:0:
131,94,114395,1,2,0:2:0:0:
224,29,114561,1,8,0:0:0:0:
324,86,114728,1,2,0:2:0:0:
453,18,114895,6,0,P|445:53|440:116,1,88.000002685547,2|0,1:2|0:0,0:0:0:0:
347,266,115228,2,0,P|427:300|515:282,1,176.000005371094,8|2,0:0|1:2,0:0:0:0:
338,370,115728,1,0,0:0:0:0:
282,210,115895,2,0,P|225:185|132:194,1,132.00000402832,8|0,0:0|0:0,0:0:0:0:
86,236,116228,6,0,P|74:194|78:148,1,88.000002685547,2|2,1:2|0:2,0:0:0:0:
244,354,116561,2,0,P|202:366|156:362,1,88.000002685547,8|2,0:0|0:2,0:0:0:0:
316,194,116895,5,2,1:2:0:0:
415,271,117062,1,0,1:0:0:0:
306,162,117228,5,8,0:0:0:0:
203,261,117395,1,8,0:0:0:0:
322,130,117562,6,0,P|323:85|312:42,1,88.000002685547,6|0,1:2|0:0,0:0:0:0:
54,129,117895,2,0,P|136:85|228:98,1,176.000005371094,8|2,0:0|1:2,0:0:0:0:
307,249,118395,1,0,0:0:0:0:
219,341,118562,2,0,B|182:332|182:332|161:337|161:337|137:324|88:329,1,132.00000402832,8|0,0:0|0:0,0:0:0:0:
0,365,118895,6,0,P|-4:318|10:277,1,88.000002685547,2|0,1:2|0:0,0:0:0:0:
339,229,119228,2,0,P|353:270|347:313,1,88.000002685547,8|0,0:0|0:0,0:0:0:0:
47,181,119562,5,2,1:2:0:0:
223,84,119728,1,0,1:0:0:0:
71,46,119895,5,8,0:0:0:0:
186,223,120062,1,0,1:0:0:0:
319,142,120228,6,0,B|407:124|370:193|477:172,1,143.999995605469,6|0,1:2|0:0,0:0:0:0:
509,127,120561,2,0,P|510:72|491:35,1,95.9999970703126,8|0,0:0|0:0,0:0:0:0:
331,9,120895,5,0,1:0:0:0:
304,120,121061,1,0,1:0:0:0:
331,9,121228,1,10,0:2:0:0:
304,120,121395,1,0,0:0:0:0:
178,38,121561,6,0,B|165:147|208:118|190:243,1,191.999994140625,2|8,1:2|0:0,0:0:0:0:
49,108,122061,1,0,0:0:0:0:
6,216,122228,2,0,P|89:207|120:190,1,95.9999970703126,2|0,1:2|0:0,0:0:0:0:
304,120,122561,5,8,0:0:0:0:
267,273,122728,1,8,0:0:0:0:
461,228,122895,6,0,P|415:213|367:214,1,95.9999970703126,2|0,1:2|0:0,0:0:0:0:
436,376,123228,2,0,P|388:377|343:363,1,95.9999970703126,8|0,0:0|0:0,0:0:0:0:
180,246,123561,5,2,1:2:0:0:
293,290,123728,1,0,1:0:0:0:
270,189,123895,1,8,0:0:0:0:
204,345,124061,1,0,0:0:0:0:
53,240,124228,6,0,P|39:281|40:340,1,95.9999970703126,2|0,1:2|0:0,0:0:0:0:
185,114,124561,2,0,P|139:99|91:99,1,95.9999970703126,8|0,0:0|0:0,0:0:0:0:
267,221,124895,5,2,1:2:0:0:
340,79,125061,1,0,1:0:0:0:
276,238,125228,1,8,0:0:0:0:
349,96,125394,1,0,1:0:0:0:
365,298,125561,6,0,B|386:344|448:332|448:332|458:310|483:284,1,143.999995605469,6|0,1:2|0:0,0:0:0:0:
512,230,125894,2,0,L|496:129,1,95.9999970703126,8|0,0:0|0:0,0:0:0:0:
394,9,126228,5,2,1:2:0:0:
341,131,126394,1,0,0:0:0:0:
394,9,126561,1,8,0:0:0:0:
341,131,126728,1,0,1:0:0:0:
214,22,126895,6,0,B|178:152|178:152|197:165|221:195,1,191.999994140625,2|8,1:2|0:0,0:0:0:0:
273,290,127394,1,0,0:0:0:0:
138,383,127561,2,0,P|125:325|136:278,1,95.9999970703126,2|0,1:2|0:0,0:0:0:0:
281,128,127894,5,8,0:0:0:0:
137,89,128061,1,8,0:0:0:0:
359,170,128228,6,0,P|365:122|352:76,1,95.9999970703126,2|0,1:2|0:0,0:0:0:0:
45,203,128561,2,0,P|38:155|51:109,1,95.9999970703126,8|0,0:0|0:0,0:0:0:0:
241,25,128894,5,2,1:2:0:0:
173,226,129061,1,0,0:0:0:0:
137,57,129228,1,8,0:0:0:0:
278,193,129394,1,0,0:0:0:0:
105,294,129561,6,0,P|72:284|-7:277,1,95.9999970703126,2|0,1:2|1:0,0:0:0:0:
321,364,129895,2,0,P|368:359|414:346,1,95.9999970703126,8|2,0:0|1:2,0:0:0:0:
191,188,130228,5,8,0:0:0:0:
436,85,130395,1,0,1:0:0:0:
214,65,130561,5,10,0:2:0:0:
429,220,130727,1,0,1:0:0:0:
296,276,130895,5,6,1:2:0:0:
