osu file format v14

[General]
AudioFilename: audio.mp3
AudioLeadIn: 0
PreviewTime: 98811
Countdown: 0
SampleSet: Soft
StackLeniency: 0.8
Mode: 0
LetterboxInBreaks: 0
WidescreenStoryboard: 1

[Editor]
Bookmarks: 29228
DistanceSpacing: 1
BeatDivisor: 4
GridSize: 32
TimelineZoom: 2.2

[Metadata]
Title:Get Jinxed
TitleUnicode:Get Jinxed
Artist:Agnete Kjolsrud
ArtistUnicode:Agnete Kjølsrud
Creator:Hishiro Chizuru
Version:Bot Diff
Source:League of Legends
Tags:amb1d3x malzahar nether grasp nocturne unspeakable horror brasse lasse deviouspanda english rock pop video game riot rito games djerv champion nunu jinx intro arcane powder
BeatmapID:3482943
BeatmapSetID:1704573

[Difficulty]
HPDrainRate:3
CircleSize:3.5
OverallDifficulty:4.5
ApproachRate:6
SliderMultiplier:0.999999999999999
SliderTickRate:1

[Events]
//Background and Video events
0,0,"its always jungle diff.png",0,0
//Break Periods
2,61761,71028
2,83095,86845
//Storyboard Layer 0 (Background)
//Storyboard Layer 1 (Fail)
//Storyboard Layer 2 (Pass)
//Storyboard Layer 3 (Foreground)
//Storyboard Layer 4 (Overlay)
//Storyboard Sound Samples

[TimingPoints]
5562,333.333333333333,4,2,69,60,1,0
16228,-100,4,2,69,70,0,0
26895,-100,4,2,69,75,0,0
40228,-100,4,2,69,80,0,0
61561,-100,4,2,69,65,0,0

[Colours]
Combo1 : 228,203,203
Combo2 : 128,255,249
Combo3 : 255,170,255
Combo4 : 149,255,149
Combo5 : 187,187,255

[HitObjects]
32,64,5561,6,0,P|131:62|242:97,1,200,2|0,0:0|0:0,0:0:0:0:
296,162,6561,1,0,0:0:0:0:
368,93,6895,2,0,P|460:97|449:196,1,200,2|0,0:0|0:0,0:0:0:0:
372,234,7895,1,0,0:0:0:0:
432,313,8228,5,2,0:0:0:0:
333,331,8561,2,0,P|281:308|128:298,1,200
59,356,9561,2,0,P|33:292|80:177,1,200,2|2,0:0|0:0,0:0:0:0:
170,132,10561,1,0,0:0:0:0:
97,62,10895,5,0,0:0:0:0:
181,8,11228,2,0,L|379:32,1,200,2|0,0:0|0:0,0:0:0:0:
449,104,12228,2,0,L|465:217,1,99.9999999999999,2|0,0:0|0:0,0:0:0:0:
388,270,12895,2,0,L|275:254,1,99.9999999999999,2|0,0:0|0:0,0:0:0:0:
216,186,13561,1,0,0:0:0:0:
131,240,13895,6,0,P|117:304|223:350,1,200,2|0,0:0|0:0,0:0:0:0:
299,287,14895,2,0,P|402:297|465:365,1,200,0|2,0:0|0:0,0:0:0:0:
464,364,15895,1,0,0:0:0:0:
506,273,16228,5,2,1:2:0:0:
448,81,16895,1,0,1:0:0:0:
249,103,17561,1,2,1:2:0:0:
51,132,18228,1,0,1:0:0:0:
51,132,18561,1,0,1:0:0:0:
51,132,18895,6,0,L|27:333,2,200,2|0|2,1:2|1:0|1:2,0:0:0:0:
249,103,20895,1,0,1:0:0:0:
249,103,21228,1,0,1:0:0:0:
249,103,21561,2,0,L|234:0,1,99.9999999999999,2|0,1:2|3:0,0:0:0:0:
234,4,22228,1,0,1:0:0:0:
342,172,22895,5,2,1:2:0:0:
260,354,23561,1,0,1:0:0:0:
260,354,23895,1,0,1:0:0:0:
260,354,24228,1,2,1:2:0:0:
60,337,24895,1,0,1:0:0:0:
76,137,25561,6,0,L|188:127,1,99.9999999999999,2|0,1:2|3:0,0:0:0:0:
275,118,26228,2,0,L|381:108,1,99.9999999999999,2|8,1:2|0:0,0:0:0:0:
424,105,26728,1,8,0:0:0:0:
475,101,26895,5,2,1:2:0:0:
446,196,27228,1,8,0:0:0:0:
498,280,27561,1,0,1:0:0:0:
432,355,27895,1,10,0:2:0:0:
356,287,28228,6,0,P|323:251|275:240,1,99.9999999999999,2|8,1:2|0:0,0:0:0:0:
190,293,28895,2,0,P|156:329|108:340,1,99.9999999999999,0|8,1:0|0:0,0:0:0:0:
72,304,29395,1,8,0:0:0:0:
52,258,29561,5,2,1:2:0:0:
97,168,29895,1,8,0:0:0:0:
31,93,30228,1,2,1:2:0:0:
93,14,30561,1,10,0:2:0:0:
180,62,30895,6,0,P|218:122|222:154,1,99.9999999999999,2|8,1:2|0:0,0:0:0:0:
316,116,31561,2,0,P|304:67|274:28,1,99.9999999999999,2|8,1:2|0:0,0:0:0:0:
374,26,32228,1,2,1:2:0:0:
450,90,32561,1,8,0:0:0:0:
443,189,32895,1,2,1:2:0:0:
352,231,33228,1,8,0:0:0:0:
332,329,33561,6,0,P|251:314|214:316,1,99.9999999999999,2|8,1:2|0:0,0:0:0:0:
148,261,34228,2,0,P|67:246|30:248,1,99.9999999999999,0|10,1:0|0:2,0:0:0:0:
80,341,34895,5,2,1:2:0:0:
49,246,35228,1,8,0:0:0:0:
88,154,35561,1,0,1:0:0:0:
33,69,35895,1,10,0:2:0:0:
125,31,36228,6,0,P|231:42|241:44,1,99.9999999999999,2|8,1:2|0:0,0:0:0:0:
316,81,36895,2,0,L|328:22,2,50,10|8|8,0:2|0:0|0:0,0:0:0:0:
335,127,37395,1,8,0:0:0:0:
256,192,39895,5,8,0:0:0:0:
305,183,40061,1,8,0:0:0:0:
354,177,40228,2,0,P|389:86|399:67,2,99.9999999999999,6|8|0,1:2|0:0|1:0,0:0:0:0:
424,248,41228,1,10,0:2:0:0:
356,321,41561,2,0,P|310:335|258:311,1,99.9999999999999,0|10,1:0|0:2,0:0:0:0:
182,273,42228,2,0,L|191:216,2,50,0|0|8,1:0|1:0|0:0,0:0:0:0:
148,310,42728,1,8,0:0:0:0:
98,305,42895,5,2,1:2:0:0:
62,211,43228,1,8,0:0:0:0:
115,126,43561,1,2,1:2:0:0:
139,82,43728,1,0,1:0:0:0:
187,68,43895,1,8,0:0:0:0:
208,162,44228,6,0,L|323:137,1,99.9999999999999,2|8,1:2|0:0,0:0:0:0:
388,83,44895,2,0,L|405:141,2,50,0|0|10,1:0|1:0|0:2,0:0:0:0:
348,51,45395,1,0,1:0:0:0:
300,37,45561,1,4,1:0:0:0:
202,16,45895,1,8,0:0:0:0:
138,93,46228,2,0,L|157:210,1,99.9999999999999,2|8,1:2|0:0,0:0:0:0:
122,286,46895,6,0,L|230:270,1,99.9999999999999,2|8,1:2|0:0,0:0:0:0:
311,230,47561,1,2,1:2:0:0:
360,238,47728,1,0,1:0:0:0:
409,247,47895,2,0,L|419:195,2,50,8|10|0,0:0|0:2|1:0,0:0:0:0:
466,328,48561,1,8,0:0:0:0:
374,367,48895,1,2,1:2:0:0:
286,318,49228,1,8,0:0:0:0:
195,359,49561,5,2,1:2:0:0:
112,302,49895,1,8,0:0:0:0:
158,213,50228,2,0,L|148:144,1,50,8|0,0:0|1:0,0:0:0:0:
142,114,50561,1,10,0:2:0:0:
133,64,50728,1,0,1:0:0:0:
181,52,50895,5,6,1:2:0:0:
271,94,51228,1,8,0:0:0:0:
362,53,51561,1,2,1:2:0:0:
447,105,51895,1,8,0:0:0:0:
369,164,52228,2,0,P|360:217|368:263,1,99.9999999999999,2|8,1:2|0:0,0:0:0:0:
417,348,52895,2,0,L|347:368,1,50,2|0,1:2|1:0,0:0:0:0:
319,370,53228,2,0,L|249:350,1,50,8|8,0:0|0:0,0:0:0:0:
223,371,53561,5,2,1:2:0:0:
248,274,53895,1,8,0:0:0:0:
323,208,54228,1,2,1:2:0:0:
422,212,54561,1,8,0:0:0:0:
473,125,54895,2,0,P|453:46|446:24,1,99.9999999999999,2|8,1:2|0:0,0:0:0:0:
348,16,55561,2,0,P|303:66|284:109,1,99.9999999999999,2|8,1:2|0:0,0:0:0:0:
197,137,56228,5,2,1:2:0:0:
107,92,56561,1,8,0:0:0:0:
70,185,56895,1,2,1:2:0:0:
133,261,57228,1,8,0:0:0:0:
73,340,57561,2,0,P|113:368|177:365,1,99.9999999999999,2|8,1:2|0:0,0:0:0:0:
237,302,58228,2,0,L|307:307,1,50,2|0,1:2|1:0,0:0:0:0:
336,311,58561,2,0,L|406:316,1,50,8|8,0:0|0:0,0:0:0:0:
436,319,58895,5,4,1:0:0:0:
475,227,59228,1,10,0:2:0:0:
418,144,59561,1,0,1:0:0:0:
332,91,59895,1,8,0:0:0:0:
266,166,60228,2,0,L|162:151,1,99.9999999999999,2|8,1:2|0:0,0:0:0:0:
84,94,60895,2,0,L|69:192,1,99.9999999999999,2|8,1:2|0:0,0:0:0:0:
141,262,61561,5,14,0:2:0:0:
256,192,72228,5,14,0:2:0:0:
334,253,72561,2,0,P|391:219|523:169,1,200
440,104,73561,2,0,P|358:87|278:51,1,150,2|0,1:2|1:0,0:0:0:0:
270,18,74228,1,8,0:0:0:0:
173,42,74561,1,2,1:2:0:0:
74,22,74895,5,0,1:0:0:0:
8,97,75228,2,0,P|51:186|69:287,1,200
11,367,76228,2,0,L|181:365,1,150,2|0,1:2|1:0,0:0:0:0:
204,340,76895,1,8,0:0:0:0:
300,366,77228,1,2,1:2:0:0:
355,282,77561,6,0,P|343:223|306:190,1,99.9999999999999,0|0,1:0|0:0,0:0:0:0:
240,129,78228,2,0,P|256:74|295:52,1,99.9999999999999,8|0,0:0|0:0,0:0:0:0:
388,74,78895,2,0,P|434:128|451:262,1,200,2|8,1:2|0:0,0:0:0:0:
365,300,79895,1,0,1:0:0:0:
272,263,80228,5,2,1:2:0:0:
193,324,80561,2,0,P|135:303|106:254,2,99.9999999999999,0|8|0,0:0|0:0|0:0,0:0:0:0:
272,263,81561,2,0,B|305:170|221:154|263:68,1,200,2|8,1:2|0:0,0:0:0:0:
347,18,82561,1,8,0:0:0:0:
394,33,82728,1,8,0:0:0:0:
441,48,82895,1,2,2:0:0:0:
96,96,87895,5,8,0:0:0:0:
88,145,88061,1,8,0:0:0:0:
78,194,88228,2,0,L|195:189,1,99.9999999999999,0|8,1:0|0:0,0:0:0:0:
267,233,88895,2,0,L|384:249,1,99.9999999999999,0|8,1:0|0:0,0:0:0:0:
406,155,89561,6,0,L|394:46,2,99.9999999999999,0|8|0,1:0|0:0|1:0,0:0:0:0:
484,216,90561,1,8,0:0:0:0:
475,265,90728,1,8,0:0:0:0:
464,313,90895,2,0,L|358:325,1,99.9999999999999,0|8,1:0|0:0,0:0:0:0:
269,354,91561,2,0,L|155:336,1,99.9999999999999,0|8,1:0|0:0,0:0:0:0:
98,268,92228,6,0,P|70:348|71:378,2,99.9999999999999,0|8|0,1:0|0:0|1:0,0:0:0:0:
46,182,93228,1,8,0:0:0:0:
109,104,93561,2,0,P|174:123|218:126,1,99.9999999999999,0|8,1:0|0:0,0:0:0:0:
289,70,94228,1,0,1:0:0:0:
386,91,94561,1,8,0:0:0:0:
456,162,94895,6,0,P|438:235|441:275,1,99.9999999999999,0|8,1:0|0:0,0:0:0:0:
382,341,95561,2,0,P|347:282|316:245,1,99.9999999999999,0|8,1:0|0:0,0:0:0:0:
245,316,96228,2,0,P|198:301|156:275,1,99.9999999999999,0|8,1:0|0:0,0:0:0:0:
126,179,96895,2,0,P|82:211|34:211,1,99.9999999999999,0|8,1:0|0:0,0:0:0:0:
2,305,97561,5,0,1:0:0:0:
91,349,97895,1,8,0:0:0:0:
156,275,98228,2,0,L|219:282,1,50,8|8,0:0|0:0,0:0:0:0:
255,288,98561,2,0,L|318:295,1,50,8|0,0:0|1:0,0:0:0:0:
354,301,98895,5,6,1:2:0:0:
403,214,99228,1,8,0:0:0:0:
345,132,99561,2,0,P|271:152|235:151,1,99.9999999999999,0|10,1:0|0:2,0:0:0:0:
167,91,100228,1,2,1:2:0:0:
83,145,100561,1,8,0:0:0:0:
146,222,100895,2,0,L|210:237,1,50,2|0,1:2|1:0,0:0:0:0:
242,247,101228,2,0,L|299:234,1,50,8|8,0:0|0:0,0:0:0:0:
337,254,101561,5,2,1:2:0:0:
435,235,101895,1,8,0:0:0:0:
470,141,102228,1,0,1:0:0:0:
461,91,102395,1,0,1:0:0:0:
454,41,102561,1,8,0:0:0:0:
355,25,102895,2,0,L|243:18,1,99.9999999999999,2|8,1:2|0:0,0:0:0:0:
180,89,103561,2,0,L|190:139,1,50,2|0,1:2|1:0,0:0:0:0:
154,173,103895,2,0,L|144:223,1,50,8|0,0:0|1:0,0:0:0:0:
178,258,104228,6,0,P|242:264|283:272,1,99.9999999999999,6|8,1:2|0:0,0:0:0:0:
358,329,104895,2,0,P|372:268|381:227,1,99.9999999999999,2|8,1:2|0:0,0:0:0:0:
454,298,105561,1,2,1:2:0:0:
358,329,105895,1,8,0:0:0:0:
261,355,106228,2,0,L|193:346,1,50,2|0,1:2|1:0,0:0:0:0:
161,340,106561,2,0,L|93:331,1,50,10|8,0:2|0:0,0:0:0:0:
61,325,106895,5,2,1:2:0:0:
99,232,107228,2,0,P|93:159|75:131,1,99.9999999999999,10|0,0:2|1:0,0:0:0:0:
151,67,107895,1,10,0:2:0:0:
228,129,108228,2,0,P|310:137|336:117,1,99.9999999999999,10|8,0:2|0:0,0:0:0:0:
389,56,108895,2,0,L|404:104,1,50,10|0,0:2|1:0,0:0:0:0:
443,134,109228,2,0,L|428:182,1,50,10|0,0:2|1:0,0:0:0:0:
386,210,109561,6,0,P|347:211|292:258,1,99.9999999999999,4|10,1:0|0:2,0:0:0:0:
379,305,110228,1,0,1:0:0:0:
468,261,110561,1,8,0:0:0:0:
480,160,110895,2,0,P|482:111|461:67,1,99.9999999999999,2|8,1:2|0:0,0:0:0:0:
383,4,111561,2,0,L|319:11,1,50,2|0,1:2|1:0,0:0:0:0:
283,17,111895,2,0,L|219:24,1,50,8|8,0:0|0:0,0:0:0:0:
183,27,112228,5,2,1:2:0:0:
133,114,112561,1,8,0:0:0:0:
219,165,112895,2,0,P|258:222|252:255,1,99.9999999999999,2|8,1:2|0:0,0:0:0:0:
170,303,113561,1,2,1:2:0:0:
84,251,113895,1,8,0:0:0:0:
31,335,114228,2,0,P|71:349|122:383,1,99.9999999999999,2|8,1:2|0:0,0:0:0:0:
219,375,114895,5,2,1:2:0:0:
303,321,115228,1,8,0:0:0:0:
398,351,115561,1,2,1:2:0:0:
435,258,115895,1,8,0:0:0:0:
398,164,116228,2,0,P|352:181|329:225,1,99.9999999999999,2|8,1:2|0:0,0:0:0:0:
237,264,116895,2,0,L|178:256,1,50,2|0,1:2|1:0,0:0:0:0:
137,250,117228,2,0,L|76:237,1,50,8|8,0:0|0:0,0:0:0:0:
38,232,117561,6,0,P|26:172|63:132,1,99.9999999999999,6|8,1:2|0:0,0:0:0:0:
111,66,118228,2,0,L|213:88,1,99.9999999999999,2|8,1:2|0:0,0:0:0:0:
282,154,118895,2,0,L|384:127,1,99.9999999999999,2|8,1:2|0:0,0:0:0:0:
463,75,119561,2,0,L|477:137,1,50,2|0,1:2|1:0,0:0:0:0:
471,174,119895,2,0,L|465:226,1,50,8|0,0:0|1:0,0:0:0:0:
485,269,120228,6,0,P|411:272|376:286,1,99.9999999999999,6|8,1:2|0:0,0:0:0:0:
349,313,120728,1,0,0:0:0:0:
305,338,120895,2,0,P|264:337|211:298,1,99.9999999999999,0|10,1:0|0:2,0:0:0:0:
116,314,121561,2,0,L|81:199,1,99.9999999999999,2|8,1:2|0:0,0:0:0:0:
124,185,122061,1,0,0:0:0:0:
156,146,122228,2,0,L|267:159,1,99.9999999999999,2|8,1:2|0:0,0:0:0:0:
365,127,122895,6,0,P|391:72|406:15,2,99.9999999999999,2|8|2,1:2|0:0|1:2,0:0:0:0:
353,235,123895,1,8,0:0:0:0:
457,251,124228,2,0,P|459:324|426:340,1,99.9999999999999,2|8,1:2|0:0,0:0:0:0:
347,362,124895,2,0,P|313:343|293:337,1,50,2|0,1:2|1:0,0:0:0:0:
255,356,125228,2,0,P|221:360|201:352,1,50,8|0,0:0|1:0,0:0:0:0:
165,327,125561,6,0,P|140:272|147:217,1,99.9999999999999,6|8,1:2|0:0,0:0:0:0:
179,200,126061,1,0,0:0:0:0:
216,167,126228,2,0,P|215:129|176:81,1,99.9999999999999,2|8,1:2|0:0,0:0:0:0:
79,101,126895,2,0,P|41:144|31:188,1,99.9999999999999,2|8,1:2|0:0,0:0:0:0:
51,230,127395,1,0,0:0:0:0:
80,271,127561,2,0,L|141:262,1,50,2|0,1:2|0:0,0:0:0:0:
179,257,127895,2,0,L|240:248,1,50,8|8,0:0|0:0,0:0:0:0:
278,245,128228,6,0,L|307:146,1,99.9999999999999,2|8,1:2|0:0,0:0:0:0:
376,78,128895,2,0,L|404:173,1,99.9999999999999,2|8,1:2|0:0,0:0:0:0:
451,190,129395,1,0,0:0:0:0:
491,219,129561,2,0,L|476:323,1,99.9999999999999,2|8,1:2|0:0,0:0:0:0:
436,347,130061,1,2,1:2:0:0:
393,320,130228,2,0,L|334:325,1,50,8|0,0:0|1:0,0:0:0:0:
299,306,130561,2,0,L|235:309,1,50,10|0,0:0|1:0,0:0:0:0:
200,293,130895,5,6,1:2:0:0:
