osu file format v14

[General]
AudioFilename: Get Jinxed.mp3
AudioLeadIn: 0
PreviewTime: 39997
Countdown: 0
SampleSet: Normal
StackLeniency: 0.7
Mode: 1
LetterboxInBreaks: 0
WidescreenStoryboard: 0

[Editor]
DistanceSpacing: 0.5
BeatDivisor: 4
GridSize: 4
TimelineZoom: 2.799999

[Metadata]
Title:Get Jinxed
TitleUnicode:Get Jinxed
Artist:Agnete Kjolsrud
ArtistUnicode:Agnete Kjølsrud
Creator:Hanjamon
Version:Muzukashii
Source:League of Legends
Tags:riot games intro jinx djerv champion LZD Kurokami Xinely QHideaki13
BeatmapID:944976
BeatmapSetID:122279

[Difficulty]
HPDrainRate:7
CircleSize:6
OverallDifficulty:4
ApproachRate:5
SliderMultiplier:1.4
SliderTickRate:1

[Events]
//Background and Video events
0,0,"championjinx.jpg",0,90
//Break Periods
//Storyboard Layer 0 (Background)
//Storyboard Layer 1 (Fail)
//Storyboard Layer 2 (Pass)
//Storyboard Layer 3 (Foreground)
//Storyboard Sound Samples

[TimingPoints]
339,333.333333333333,4,1,0,60,1,0
40338,-100,4,1,0,70,0,1
61672,-100,4,1,0,50,0,0
72338,-100,4,1,0,60,0,0
83005,-100,4,1,0,50,0,0
83672,-100,4,1,0,48,0,0
84338,-100,4,1,0,46,0,0
85005,-100,4,1,0,44,0,0
85672,-100,4,1,0,42,0,0
88005,-100,4,1,0,50,0,0
99005,-100,4,1,0,70,0,1
131005,-100,4,1,0,70,0,0

[Colours]
Combo1 : 185,81,219
Combo2 : 0,202,0
Combo3 : 18,124,255
Combo4 : 242,24,57
Combo5 : 255,192,0

[HitObjects]
160,156,339,5,0,0:0:0:0:
160,156,505,1,0,0:0:0:0:
160,156,672,1,8,0:0:0:0:
160,156,838,1,8,0:0:0:0:
196,160,1005,1,0,0:0:0:0:
272,184,1338,5,8,0:0:0:0:
304,176,1505,1,0,0:0:0:0:
388,160,1838,1,0,0:0:0:0:
388,160,2005,1,8,0:0:0:0:
388,160,2172,1,0,0:0:0:0:
388,160,2338,1,8,0:0:0:0:
324,152,2672,1,8,0:0:0:0:
388,160,3005,1,0,0:0:0:0:
356,156,3172,1,8,0:0:0:0:
388,160,3338,1,0,0:0:0:0:
320,152,3672,1,8,0:0:0:0:
284,148,4005,1,8,0:0:0:0:
284,148,4338,1,0,0:0:0:0:
284,148,4505,1,8,0:0:0:0:
140,176,5005,2,2,L|436:208,1,280
316,164,6005,1,0,0:0:0:0:
264,212,6172,1,8,0:0:0:0:
252,244,6338,1,0,0:0:0:0:
328,236,6672,1,8,0:0:0:0:
392,232,7005,1,0,0:0:0:0:
460,228,7338,1,8,0:0:0:0:
428,220,7505,1,8,0:0:0:0:
396,212,7672,1,0,0:0:0:0:
332,196,8005,1,8,0:0:0:0:
300,188,8338,1,4,0:0:0:0:
300,188,8672,1,0,0:0:0:0:
300,188,8838,1,8,0:0:0:0:
268,180,9005,1,0,0:0:0:0:
204,168,9338,1,8,0:0:0:0:
204,168,9672,1,0,0:0:0:0:
204,168,10005,1,0,0:0:0:0:
204,168,10172,1,0,0:0:0:0:
204,168,10338,1,0,0:0:0:0:
204,168,10672,1,0,0:0:0:0:
204,168,11005,1,4,0:0:0:0:
276,172,11338,1,0,0:0:0:0:
276,172,11505,1,8,0:0:0:0:
276,172,11672,1,0,0:0:0:0:
276,172,12005,1,0,0:0:0:0:
276,172,12338,1,0,0:0:0:0:
268,244,12672,1,8,0:0:0:0:
272,212,12838,1,8,0:0:0:0:
272,212,13005,1,0,0:0:0:0:
272,212,13338,1,8,0:0:0:0:
272,212,13672,1,4,0:0:0:0:
272,212,14005,1,0,0:0:0:0:
272,212,14172,1,8,0:0:0:0:
272,212,14338,1,0,0:0:0:0:
272,212,14672,1,0,0:0:0:0:
272,212,15005,1,4,0:0:0:0:
296,224,15672,1,8,0:0:0:0:
320,236,15838,1,8,0:0:0:0:
352,256,16005,1,8,0:0:0:0:
376,272,16172,1,8,0:0:0:0:
272,212,16338,1,4,0:0:0:0:
244,196,16672,1,8,0:0:0:0:
244,196,17005,1,4,0:0:0:0:
244,196,17338,1,8,0:0:0:0:
244,196,17505,1,0,0:0:0:0:
244,196,17672,1,4,0:0:0:0:
244,196,18005,1,8,0:0:0:0:
244,196,18338,1,4,0:0:0:0:
244,196,18672,1,4,0:0:0:0:
244,196,19005,1,4,0:0:0:0:
244,196,19338,1,8,0:0:0:0:
244,196,19672,1,4,0:0:0:0:
244,196,20005,1,8,0:0:0:0:
244,196,20172,1,0,0:0:0:0:
244,196,20338,1,4,0:0:0:0:
244,196,20672,1,8,0:0:0:0:
244,196,21005,1,4,0:0:0:0:
244,196,21338,1,4,0:0:0:0:
244,196,21672,1,4,0:0:0:0:
244,196,22005,1,8,0:0:0:0:
244,196,22338,1,4,0:0:0:0:
244,196,22672,1,8,0:0:0:0:
244,196,22838,1,0,0:0:0:0:
244,196,23005,1,4,0:0:0:0:
244,196,23338,1,8,0:0:0:0:
244,196,23672,1,4,0:0:0:0:
244,196,24005,1,4,0:0:0:0:
244,196,24338,1,4,0:0:0:0:
244,196,24672,1,8,0:0:0:0:
244,196,25005,1,4,0:0:0:0:
244,196,25338,1,8,0:0:0:0:
244,196,25505,1,0,0:0:0:0:
244,196,25672,1,4,0:0:0:0:
244,196,26005,1,8,0:0:0:0:
176,172,26338,1,0,0:0:0:0:
200,180,27005,1,4,0:0:0:0:
200,180,27338,1,8,0:0:0:0:
200,180,27672,1,0,0:0:0:0:
200,180,27838,1,0,0:0:0:0:
200,180,28005,1,8,0:0:0:0:
200,180,28338,1,0,0:0:0:0:
200,180,28672,1,8,0:0:0:0:
200,180,29005,1,0,0:0:0:0:
200,180,29172,1,8,0:0:0:0:
200,180,29338,1,8,0:0:0:0:
200,180,29505,1,8,0:0:0:0:
200,180,29672,1,4,0:0:0:0:
248,132,30005,1,8,0:0:0:0:
248,132,30338,1,0,0:0:0:0:
248,132,30505,1,0,0:0:0:0:
248,132,30672,1,8,0:0:0:0:
248,132,31005,1,0,0:0:0:0:
248,132,31172,1,0,0:0:0:0:
248,132,31338,1,8,0:0:0:0:
248,132,31672,1,0,0:0:0:0:
248,132,32338,1,4,0:0:0:0:
312,160,32672,1,8,0:0:0:0:
300,156,33005,1,0,0:0:0:0:
300,156,33172,1,0,0:0:0:0:
300,156,33338,1,8,0:0:0:0:
300,156,33672,1,0,0:0:0:0:
300,156,34005,1,8,0:0:0:0:
300,156,34338,1,0,0:0:0:0:
300,156,34505,1,8,0:0:0:0:
300,156,34672,1,8,0:0:0:0:
300,156,34838,1,0,0:0:0:0:
300,156,35005,1,4,0:0:0:0:
300,156,35338,1,8,0:0:0:0:
300,156,35505,1,0,0:0:0:0:
300,156,35672,1,0,0:0:0:0:
300,156,36005,1,8,0:0:0:0:
300,156,36172,1,0,0:0:0:0:
300,156,36338,1,0,0:0:0:0:
300,156,36505,1,0,0:0:0:0:
300,156,36672,1,8,0:0:0:0:
300,156,37005,1,8,0:0:0:0:
300,156,37172,1,8,0:0:0:0:
300,156,37338,1,8,0:0:0:0:
300,156,37505,1,8,0:0:0:0:
424,268,40005,1,8,0:0:0:0:
368,228,40338,1,4,0:0:0:0:
308,184,40672,1,8,0:0:0:0:
308,184,41005,1,0,0:0:0:0:
316,144,41172,1,0,0:0:0:0:
316,144,41338,1,8,0:0:0:0:
348,192,41672,1,0,0:0:0:0:
332,188,42005,1,8,0:0:0:0:
332,188,42338,1,0,0:0:0:0:
332,188,42505,1,0,0:0:0:0:
332,188,42672,1,8,0:0:0:0:
332,188,42838,1,8,0:0:0:0:
336,160,43005,1,4,0:0:0:0:
280,212,43338,1,8,0:0:0:0:
280,212,43672,1,0,0:0:0:0:
280,212,43838,1,0,0:0:0:0:
280,212,44005,1,8,0:0:0:0:
224,144,44088,1,8,0:0:0:0:
280,212,44172,1,8,0:0:0:0:
280,212,44338,1,4,0:0:0:0:
280,212,44672,1,12,0:0:0:0:
280,212,45005,1,4,0:0:0:0:
280,212,45338,1,12,0:0:0:0:
280,212,45672,1,4,0:0:0:0:
344,256,46005,1,8,0:0:0:0:
364,268,46172,1,8,0:0:0:0:
364,268,46338,1,0,0:0:0:0:
364,268,46672,1,8,0:0:0:0:
364,268,47005,1,0,0:0:0:0:
364,268,47338,1,8,0:0:0:0:
364,268,47505,1,8,0:0:0:0:
364,268,47672,1,0,0:0:0:0:
364,268,47838,1,8,0:0:0:0:
364,268,48172,1,8,0:0:0:0:
312,220,48672,1,8,0:0:0:0:
288,196,48838,1,8,0:0:0:0:
264,168,49005,1,0,0:0:0:0:
264,168,49338,1,8,0:0:0:0:
264,168,49505,1,0,0:0:0:0:
264,168,49672,1,4,0:0:0:0:
264,168,50005,1,12,0:0:0:0:
264,168,50338,1,8,0:0:0:0:
276,168,50505,1,0,0:0:0:0:
276,168,50672,1,8,0:0:0:0:
276,168,50838,1,8,0:0:0:0:
276,168,51005,1,4,0:0:0:0:
288,236,51338,1,8,0:0:0:0:
232,112,51672,1,0,0:0:0:0:
236,120,51838,1,0,0:0:0:0:
236,120,52005,1,8,0:0:0:0:
236,120,52338,1,0,0:0:0:0:
236,120,52672,1,8,0:0:0:0:
236,120,53005,1,0,0:0:0:0:
236,120,53172,1,0,0:0:0:0:
236,120,53338,1,0,0:0:0:0:
236,120,53505,1,0,0:0:0:0:
192,200,53672,1,4,0:0:0:0:
252,200,54005,1,8,0:0:0:0:
252,200,54338,1,0,0:0:0:0:
304,208,54672,1,8,0:0:0:0:
160,152,54755,1,8,0:0:0:0:
312,192,54838,1,8,0:0:0:0:
312,204,55005,1,4,0:0:0:0:
252,200,55338,1,12,0:0:0:0:
320,204,55672,1,4,0:0:0:0:
392,156,56338,1,4,0:0:0:0:
288,236,56672,1,8,0:0:0:0:
232,112,57005,1,0,0:0:0:0:
236,120,57172,1,8,0:0:0:0:
236,120,57338,1,8,0:0:0:0:
236,120,57672,1,0,0:0:0:0:
236,120,58005,1,8,0:0:0:0:
236,120,58338,1,0,0:0:0:0:
236,120,58505,1,0,0:0:0:0:
236,120,58672,1,0,0:0:0:0:
236,120,58838,1,0,0:0:0:0:
192,200,59005,1,4,0:0:0:0:
252,200,59338,1,8,0:0:0:0:
252,200,59672,1,0,0:0:0:0:
304,208,60005,1,8,0:0:0:0:
208,152,60088,1,8,0:0:0:0:
312,192,60172,1,8,0:0:0:0:
312,204,60338,1,4,0:0:0:0:
252,200,60672,1,12,0:0:0:0:
320,204,61005,1,4,0:0:0:0:
320,204,61338,1,8,0:0:0:0:
392,156,61672,1,4,0:0:0:0:
304,188,62172,1,0,0:0:0:0:
304,188,62338,1,8,0:0:0:0:
292,184,63005,1,0,0:0:0:0:
292,184,63172,1,0,0:0:0:0:
292,184,63505,1,0,0:0:0:0:
292,184,63672,1,8,0:0:0:0:
408,272,64005,1,0,0:0:0:0:
400,260,64172,1,8,0:0:0:0:
400,260,64338,1,0,0:0:0:0:
400,260,64838,1,0,0:0:0:0:
304,196,65005,1,8,0:0:0:0:
316,196,65672,1,0,0:0:0:0:
404,272,65838,1,0,0:0:0:0:
344,200,66172,1,0,0:0:0:0:
344,200,66338,1,8,0:0:0:0:
276,224,66672,1,0,0:0:0:0:
276,224,66838,1,8,0:0:0:0:
276,224,67005,1,0,0:0:0:0:
276,224,67505,1,0,0:0:0:0:
276,224,67672,1,8,0:0:0:0:
304,224,68338,1,0,0:0:0:0:
304,224,68505,1,0,0:0:0:0:
256,192,68838,1,0,0:0:0:0:
256,192,69005,1,8,0:0:0:0:
256,192,69338,1,0,0:0:0:0:
256,192,69505,1,8,0:0:0:0:
320,200,69672,1,0,0:0:0:0:
320,192,70172,1,0,0:0:0:0:
320,192,70338,1,8,0:0:0:0:
296,124,71005,1,0,0:0:0:0:
296,124,71172,1,0,0:0:0:0:
296,124,71505,1,0,0:0:0:0:
296,124,71672,1,8,0:0:0:0:
384,248,72005,5,8,0:0:0:0:
384,248,72338,1,4,0:0:0:0:
264,176,72838,1,0,0:0:0:0:
264,176,73005,1,8,0:0:0:0:
304,252,73338,1,8,0:0:0:0:
304,252,73672,1,0,0:0:0:0:
304,252,73838,1,0,0:0:0:0:
304,252,74172,1,0,0:0:0:0:
304,252,74338,1,8,0:0:0:0:
376,236,74672,1,0,0:0:0:0:
376,236,74838,1,8,0:0:0:0:
376,236,75005,1,0,0:0:0:0:
376,236,75505,1,0,0:0:0:0:
376,236,75672,1,8,0:0:0:0:
376,236,76005,1,0,0:0:0:0:
356,172,76338,1,0,0:0:0:0:
356,172,76505,1,0,0:0:0:0:
304,168,76838,1,0,0:0:0:0:
304,168,77005,1,8,0:0:0:0:
304,168,77338,1,0,0:0:0:0:
304,168,77505,1,8,0:0:0:0:
304,168,77672,1,4,0:0:0:0:
304,168,78172,1,0,0:0:0:0:
304,168,78338,1,8,0:0:0:0:
304,168,78672,1,8,0:0:0:0:
420,248,79005,1,0,0:0:0:0:
420,248,79172,1,0,0:0:0:0:
420,248,79505,1,0,0:0:0:0:
432,248,79672,1,8,0:0:0:0:
464,264,80005,1,0,0:0:0:0:
420,224,80172,1,8,0:0:0:0:
420,224,80338,1,0,0:0:0:0:
464,248,80838,1,0,0:0:0:0:
464,248,81005,1,8,0:0:0:0:
472,252,81338,1,0,0:0:0:0:
496,316,81672,1,0,0:0:0:0:
448,296,81838,1,0,0:0:0:0:
468,296,82172,1,0,0:0:0:0:
468,296,82338,1,8,0:0:0:0:
468,296,82672,1,8,0:0:0:0:
468,296,83005,1,4,0:0:0:0:
276,208,83672,1,8,0:0:0:0:
276,208,84338,1,0,0:0:0:0:
276,208,85005,1,8,0:0:0:0:
64,152,85672,1,0,0:0:0:0:
292,204,87672,1,8,0:0:0:0:
332,200,88005,1,8,0:0:0:0:
336,192,88338,1,4,0:0:0:0:
424,240,88672,1,8,0:0:0:0:
380,216,89005,1,0,0:0:0:0:
200,168,89672,1,0,0:0:0:0:
200,168,90005,1,8,0:0:0:0:
200,168,90338,1,0,0:0:0:0:
200,168,90672,1,8,0:0:0:0:
200,168,91005,1,0,0:0:0:0:
280,160,91672,1,0,0:0:0:0:
296,204,92338,1,0,0:0:0:0:
336,200,92672,1,8,0:0:0:0:
368,232,93005,1,0,0:0:0:0:
368,232,93338,1,8,0:0:0:0:
368,232,93505,1,8,0:0:0:0:
368,232,93672,1,4,0:0:0:0:
348,252,94005,1,8,0:0:0:0:
288,196,94338,1,0,0:0:0:0:
200,168,95005,1,0,0:0:0:0:
200,168,95338,1,8,0:0:0:0:
200,168,95672,1,0,0:0:0:0:
200,168,96005,1,8,0:0:0:0:
200,168,96338,1,0,0:0:0:0:
280,160,97005,1,0,0:0:0:0:
356,148,97672,1,0,0:0:0:0:
344,216,98005,1,8,0:0:0:0:
404,296,98338,1,8,0:0:0:0:
408,240,98505,1,8,0:0:0:0:
360,216,98672,1,8,0:0:0:0:
360,216,99005,1,4,0:0:0:0:
308,184,99338,1,8,0:0:0:0:
308,184,99672,1,0,0:0:0:0:
316,144,99838,1,0,0:0:0:0:
316,144,100005,1,8,0:0:0:0:
308,184,100172,1,0,0:0:0:0:
348,192,100338,1,0,0:0:0:0:
332,188,100672,1,8,0:0:0:0:
332,188,101005,1,0,0:0:0:0:
332,188,101172,1,0,0:0:0:0:
332,188,101338,1,8,0:0:0:0:
332,188,101505,1,8,0:0:0:0:
336,160,101672,1,4,0:0:0:0:
280,212,102005,1,8,0:0:0:0:
280,212,102338,1,0,0:0:0:0:
280,212,102505,1,0,0:0:0:0:
280,212,102672,1,8,0:0:0:0:
224,144,102755,1,8,0:0:0:0:
280,212,102838,1,8,0:0:0:0:
280,212,103005,1,4,0:0:0:0:
280,212,103338,1,12,0:0:0:0:
280,212,103672,1,4,0:0:0:0:
280,212,104005,1,12,0:0:0:0:
280,212,104338,1,4,0:0:0:0:
284,200,104505,1,8,0:0:0:0:
344,256,104672,1,8,0:0:0:0:
364,268,104838,1,8,0:0:0:0:
364,268,105005,1,0,0:0:0:0:
364,268,105338,1,8,0:0:0:0:
364,268,105672,1,0,0:0:0:0:
364,268,106005,1,8,0:0:0:0:
364,268,106172,1,0,0:0:0:0:
364,268,106338,1,0,0:0:0:0:
364,268,106505,1,8,0:0:0:0:
364,268,106838,1,8,0:0:0:0:
320,208,107005,1,4,0:0:0:0:
312,220,107338,1,8,0:0:0:0:
288,196,107505,1,8,0:0:0:0:
264,168,107672,1,0,0:0:0:0:
264,168,108005,1,8,0:0:0:0:
264,168,108172,1,0,0:0:0:0:
264,168,108338,1,4,0:0:0:0:
264,168,108672,1,12,0:0:0:0:
264,168,109005,1,8,0:0:0:0:
276,168,109172,1,0,0:0:0:0:
276,168,109338,1,8,0:0:0:0:
276,168,109505,1,8,0:0:0:0:
276,168,109672,1,4,0:0:0:0:
288,236,110005,1,8,0:0:0:0:
232,112,110338,1,0,0:0:0:0:
236,120,110505,1,0,0:0:0:0:
236,120,110672,1,8,0:0:0:0:
236,120,110838,1,0,0:0:0:0:
236,120,111005,1,0,0:0:0:0:
236,120,111338,1,8,0:0:0:0:
236,120,111672,1,0,0:0:0:0:
236,120,111838,1,0,0:0:0:0:
236,120,112005,1,0,0:0:0:0:
236,120,112172,1,0,0:0:0:0:
192,200,112338,1,4,0:0:0:0:
252,200,112672,1,8,0:0:0:0:
252,200,113005,1,0,0:0:0:0:
304,208,113338,1,8,0:0:0:0:
312,192,113422,1,8,0:0:0:0:
312,192,113505,1,8,0:0:0:0:
312,204,113672,1,4,0:0:0:0:
252,200,114005,1,12,0:0:0:0:
320,204,114338,1,4,0:0:0:0:
392,156,115005,1,4,0:0:0:0:
288,236,115338,1,8,0:0:0:0:
232,112,115672,1,0,0:0:0:0:
236,120,115838,1,8,0:0:0:0:
236,120,116005,1,8,0:0:0:0:
236,120,116172,1,0,0:0:0:0:
236,120,116338,1,0,0:0:0:0:
236,120,116672,1,8,0:0:0:0:
236,120,117005,1,0,0:0:0:0:
236,120,117172,1,0,0:0:0:0:
236,120,117338,1,0,0:0:0:0:
236,120,117505,1,0,0:0:0:0:
192,200,117672,1,4,0:0:0:0:
252,200,118005,1,8,0:0:0:0:
252,200,118338,1,0,0:0:0:0:
304,208,118672,1,8,0:0:0:0:
312,192,118755,1,8,0:0:0:0:
312,192,118838,1,8,0:0:0:0:
312,204,119005,1,4,0:0:0:0:
252,200,119338,5,12,0:0:0:0:
320,204,119672,1,4,0:0:0:0:
320,204,120005,1,12,0:0:0:0:
208,212,120338,5,4,0:0:0:0:
364,240,121005,1,0,0:0:0:0:
368,240,121172,1,0,0:0:0:0:
368,240,121338,1,8,0:0:0:0:
368,240,121505,1,8,0:0:0:0:
380,252,121672,1,0,0:0:0:0:
456,304,122005,1,8,0:0:0:0:
464,272,122338,1,0,0:0:0:0:
464,272,122672,1,8,0:0:0:0:
356,248,123005,1,0,0:0:0:0:
340,248,123172,1,8,0:0:0:0:
340,248,123338,1,8,0:0:0:0:
340,248,123505,1,8,0:0:0:0:
340,248,123672,1,0,0:0:0:0:
340,248,124005,1,8,0:0:0:0:
340,248,124338,1,0,0:0:0:0:
340,248,124505,1,8,0:0:0:0:
340,248,124672,1,8,0:0:0:0:
412,256,124838,1,0,0:0:0:0:
412,256,125005,1,0,0:0:0:0:
412,276,125338,1,8,0:0:0:0:
340,248,125672,1,4,0:0:0:0:
384,200,126338,1,0,0:0:0:0:
376,204,126505,1,0,0:0:0:0:
376,204,126672,1,8,0:0:0:0:
376,204,126838,1,8,0:0:0:0:
376,204,127005,1,0,0:0:0:0:
352,220,127338,5,8,0:0:0:0:
344,220,127672,1,0,0:0:0:0:
344,220,128005,1,8,0:0:0:0:
344,220,128172,1,8,0:0:0:0:
304,268,128338,5,0,0:0:0:0:
304,268,128505,1,8,0:0:0:0:
304,268,128672,1,8,0:0:0:0:
304,268,128838,1,8,0:0:0:0:
304,268,129005,1,0,0:0:0:0:
304,268,129338,1,8,0:0:0:0:
304,268,129672,1,0,0:0:0:0:
404,216,129838,1,8,0:0:0:0:
404,216,130005,1,8,0:0:0:0:
404,216,130172,1,0,0:0:0:0:
408,260,130338,1,8,0:0:0:0:
408,260,130672,1,8,0:0:0:0:
408,260,131005,1,4,0:0:0:0:
