osu file format v14

[General]
AudioFilename: Get Jinxed.mp3
AudioLeadIn: 0
PreviewTime: 39997
Countdown: 0
SampleSet: Normal
StackLeniency: 0.7
Mode: 1
LetterboxInBreaks: 0
WidescreenStoryboard: 0

[Editor]
DistanceSpacing: 0.5
BeatDivisor: 4
GridSize: 4
TimelineZoom: 2.799999

[Metadata]
Title:Get Jinxed
TitleUnicode:Get Jinxed
Artist:Agnete Kjolsrud
ArtistUnicode:Agnete Kjølsrud
Creator:Hanjamon
Version:Kantan
Source:League of Legends
Tags:riot games intro jinx djerv champion LZD Kurokami Xinely QHideaki13
BeatmapID:944975
BeatmapSetID:122279

[Difficulty]
HPDrainRate:8
CircleSize:6
OverallDifficulty:3.5
ApproachRate:5
SliderMultiplier:1.4
SliderTickRate:1

[Events]
//Background and Video events
0,0,"championjinx.jpg",0,90
//Break Periods
//Storyboard Layer 0 (Background)
//Storyboard Layer 1 (Fail)
//Storyboard Layer 2 (Pass)
//Storyboard Layer 3 (Foreground)
//Storyboard Sound Samples

[TimingPoints]
339,333.333333333333,4,1,0,60,1,0
40338,-100,4,1,0,70,0,1
61672,-100,4,1,0,50,0,0
72338,-100,4,1,0,60,0,0
83005,-100,4,1,0,50,0,0
83672,-100,4,1,0,48,0,0
84338,-100,4,1,0,46,0,0
85005,-100,4,1,0,44,0,0
85672,-100,4,1,0,42,0,0
88005,-100,4,1,0,50,0,0
99005,-100,4,1,0,70,0,1
131005,-100,4,1,0,70,0,0

[Colours]
Combo1 : 185,81,219
Combo2 : 0,202,0
Combo3 : 18,124,255
Combo4 : 242,24,57
Combo5 : 255,192,0

[HitObjects]
160,156,339,5,0,0:0:0:0:
196,160,1005,1,0,0:0:0:0:
272,184,1338,5,8,0:0:0:0:
388,160,2338,1,0,0:0:0:0:
388,160,3005,1,0,0:0:0:0:
320,152,3672,1,8,0:0:0:0:
140,176,5005,2,2,L|436:208,1,280
392,232,7005,1,0,0:0:0:0:
396,212,7672,1,0,0:0:0:0:
300,188,8338,1,4,0:0:0:0:
204,168,9672,1,0,0:0:0:0:
204,168,10338,1,8,0:0:0:0:
204,168,11005,1,4,0:0:0:0:
276,172,12338,1,0,0:0:0:0:
272,212,13005,1,0,0:0:0:0:
272,212,13672,1,4,0:0:0:0:
272,212,15005,1,4,0:0:0:0:
296,224,15672,1,8,0:0:0:0:
272,212,16338,1,4,0:0:0:0:
232,164,17005,1,4,0:0:0:0:
244,196,17672,1,4,0:0:0:0:
244,196,19005,1,4,0:0:0:0:
244,196,19672,1,4,0:0:0:0:
244,196,20338,1,4,0:0:0:0:
244,196,21672,1,4,0:0:0:0:
244,196,22338,1,4,0:0:0:0:
244,196,23005,1,4,0:0:0:0:
244,196,24338,1,4,0:0:0:0:
244,196,25005,1,4,0:0:0:0:
244,196,25672,1,4,0:0:0:0:
200,180,27005,1,4,0:0:0:0:
200,180,27672,1,8,0:0:0:0:
200,180,28338,1,0,0:0:0:0:
200,180,29005,1,8,0:0:0:0:
200,180,29338,1,8,0:0:0:0:
200,180,29672,1,4,0:0:0:0:
248,132,30338,1,8,0:0:0:0:
248,132,31005,1,0,0:0:0:0:
248,132,32338,1,4,0:0:0:0:
248,164,33005,1,8,0:0:0:0:
300,156,33672,1,0,0:0:0:0:
300,156,34338,1,8,0:0:0:0:
300,156,34672,1,8,0:0:0:0:
300,156,35005,1,4,0:0:0:0:
300,156,35672,1,8,0:0:0:0:
300,156,36338,1,0,0:0:0:0:
300,156,37005,1,8,0:0:0:0:
300,156,37338,1,8,0:0:0:0:
368,228,40338,1,4,0:0:0:0:
308,184,41005,1,8,0:0:0:0:
348,192,41672,1,0,0:0:0:0:
332,188,42338,1,8,0:0:0:0:
332,188,42672,1,8,0:0:0:0:
336,160,43005,1,4,0:0:0:0:
280,212,43672,1,8,0:0:0:0:
280,212,44005,1,8,0:0:0:0:
280,212,44338,1,4,0:0:0:0:
280,212,45005,1,12,0:0:0:0:
280,212,45672,1,4,0:0:0:0:
364,268,46338,1,8,0:0:0:0:
364,268,47005,1,0,0:0:0:0:
364,268,47338,1,8,0:0:0:0:
364,268,47672,1,0,0:0:0:0:
248,168,48338,1,4,0:0:0:0:
264,168,49005,1,0,0:0:0:0:
264,168,49338,1,8,0:0:0:0:
264,168,49672,1,4,0:0:0:0:
276,168,51005,1,4,0:0:0:0:
232,112,51672,1,8,0:0:0:0:
236,120,52338,1,0,0:0:0:0:
236,120,53005,1,0,0:0:0:0:
236,120,53338,1,0,0:0:0:0:
192,200,53672,1,4,0:0:0:0:
252,200,54338,1,0,0:0:0:0:
304,208,54672,1,8,0:0:0:0:
312,204,55005,1,4,0:0:0:0:
392,156,56338,1,4,0:0:0:0:
232,112,57005,1,8,0:0:0:0:
236,120,57672,1,0,0:0:0:0:
236,120,58338,1,0,0:0:0:0:
236,120,58672,1,0,0:0:0:0:
192,200,59005,1,4,0:0:0:0:
252,200,59672,1,0,0:0:0:0:
304,208,60005,1,8,0:0:0:0:
312,204,60338,1,4,0:0:0:0:
392,156,61672,1,4,0:0:0:0:
292,184,63672,1,8,0:0:0:0:
400,260,64338,1,0,0:0:0:0:
316,196,65672,1,0,0:0:0:0:
344,200,66338,1,8,0:0:0:0:
276,224,67005,1,0,0:0:0:0:
256,192,69005,1,8,0:0:0:0:
320,200,69672,1,0,0:0:0:0:
296,124,71005,1,0,0:0:0:0:
296,124,71672,1,8,0:0:0:0:
384,248,72338,1,4,0:0:0:0:
304,252,73672,1,0,0:0:0:0:
304,252,74338,1,8,0:0:0:0:
376,236,75005,1,0,0:0:0:0:
356,172,76338,1,0,0:0:0:0:
304,168,77005,1,8,0:0:0:0:
304,168,77672,1,4,0:0:0:0:
420,248,79005,1,0,0:0:0:0:
432,248,79672,1,8,0:0:0:0:
420,224,80338,1,0,0:0:0:0:
496,316,81672,1,0,0:0:0:0:
468,296,82338,1,8,0:0:0:0:
468,296,83005,1,4,0:0:0:0:
276,208,84338,1,0,0:0:0:0:
64,152,85672,1,0,0:0:0:0:
336,192,88338,1,4,0:0:0:0:
200,168,89672,1,0,0:0:0:0:
200,168,90672,1,8,0:0:0:0:
200,168,91005,1,0,0:0:0:0:
368,232,93005,1,0,0:0:0:0:
368,232,93672,1,4,0:0:0:0:
200,168,95005,1,0,0:0:0:0:
200,168,96005,1,8,0:0:0:0:
200,168,96338,1,0,0:0:0:0:
404,296,98338,1,8,0:0:0:0:
368,228,99005,1,4,0:0:0:0:
308,184,99672,1,8,0:0:0:0:
348,192,100338,1,0,0:0:0:0:
332,188,101005,1,8,0:0:0:0:
332,188,101338,1,8,0:0:0:0:
336,160,101672,1,4,0:0:0:0:
280,212,102338,1,8,0:0:0:0:
280,212,102672,1,8,0:0:0:0:
280,212,103005,1,4,0:0:0:0:
280,212,103672,1,12,0:0:0:0:
280,212,104338,1,4,0:0:0:0:
364,268,105005,1,8,0:0:0:0:
364,268,105672,1,0,0:0:0:0:
364,268,106005,1,8,0:0:0:0:
364,268,106338,1,0,0:0:0:0:
248,168,107005,1,4,0:0:0:0:
264,168,107672,1,0,0:0:0:0:
264,168,108005,1,8,0:0:0:0:
264,168,108338,1,4,0:0:0:0:
276,168,109672,5,4,0:0:0:0:
232,112,110338,1,8,0:0:0:0:
236,120,111005,1,0,0:0:0:0:
236,120,111672,1,0,0:0:0:0:
236,120,112005,1,0,0:0:0:0:
192,200,112338,1,4,0:0:0:0:
252,200,113005,1,0,0:0:0:0:
304,208,113338,1,8,0:0:0:0:
312,204,113672,1,4,0:0:0:0:
392,156,115005,1,4,0:0:0:0:
232,112,115672,1,8,0:0:0:0:
236,120,116338,1,0,0:0:0:0:
236,120,117005,1,0,0:0:0:0:
236,120,117338,1,0,0:0:0:0:
192,200,117672,1,4,0:0:0:0:
252,200,118338,1,0,0:0:0:0:
304,208,118672,1,8,0:0:0:0:
312,204,119005,1,4,0:0:0:0:
392,156,120338,5,4,0:0:0:0:
364,240,121005,5,0,0:0:0:0:
368,240,121338,1,8,0:0:0:0:
380,252,121672,1,0,0:0:0:0:
356,248,123005,1,0,0:0:0:0:
340,248,123338,1,8,0:0:0:0:
340,248,123672,1,0,0:0:0:0:
340,248,124338,1,0,0:0:0:0:
340,248,124672,1,8,0:0:0:0:
412,256,125005,1,0,0:0:0:0:
340,248,125672,1,4,0:0:0:0:
384,200,126338,1,0,0:0:0:0:
376,204,126672,1,8,0:0:0:0:
376,204,127005,1,0,0:0:0:0:
304,268,128338,5,0,0:0:0:0:
280,172,128672,1,8,0:0:0:0:
304,268,129005,1,0,0:0:0:0:
304,268,129672,1,0,0:0:0:0:
404,216,130005,1,8,0:0:0:0:
408,260,130338,1,8,0:0:0:0:
408,260,131005,1,4,0:0:0:0:
