osu file format v14

[General]
AudioFilename: Get Jinxed.mp3
AudioLeadIn: 0
PreviewTime: 39997
Countdown: 0
SampleSet: Normal
StackLeniency: 0.7
Mode: 1
LetterboxInBreaks: 0
WidescreenStoryboard: 0

[Editor]
DistanceSpacing: 0.5
BeatDivisor: 4
GridSize: 4
TimelineZoom: 2.799999

[Metadata]
Title:Get Jinxed
TitleUnicode:Get Jinxed
Artist:Agnete Kjolsrud
ArtistUnicode:Agnete Kjølsrud
Creator:Hanjamon
Version:Inner Oni
Source:League of Legends
Tags:riot games intro jinx djerv champion LZD Kurokami Xinely QHideaki13
BeatmapID:944742
BeatmapSetID:122279

[Difficulty]
HPDrainRate:6
CircleSize:6
OverallDifficulty:6
ApproachRate:5
SliderMultiplier:1.4
SliderTickRate:1

[Events]
//Background and Video events
0,0,"championjinx.jpg",0,90
//Break Periods
//Storyboard Layer 0 (Background)
//Storyboard Layer 1 (Fail)
//Storyboard Layer 2 (Pass)
//Storyboard Layer 3 (Foreground)
//Storyboard Sound Samples

[TimingPoints]
339,333.333333333333,4,1,0,60,1,0
38005,-125,4,1,0,30,0,0
40005,-100,4,1,0,60,0,0
40172,-95.2380952380952,4,1,0,60,0,0
40338,-90.9090909090909,4,1,0,70,0,1
61672,-90.9090909090909,4,1,0,70,0,0
62172,-117.647058823529,4,1,0,50,0,0
72005,-111.111111111111,4,1,0,60,0,0
72172,-105.263157894737,4,1,0,60,0,0
72338,-100,4,1,0,60,0,0
83005,-100,4,1,0,50,0,0
83672,-111.111111111111,4,1,0,48,0,0
84338,-125,4,1,0,46,0,0
85005,-142.857142857143,4,1,0,44,0,0
85672,-166.666666666667,4,1,0,42,0,0
87672,-125,4,1,0,42,0,0
88005,-111.111111111111,4,1,0,50,0,0
88172,-105.263157894737,4,1,0,50,0,0
88338,-100,4,1,0,50,0,0
98672,-98.0392156862745,4,1,0,50,0,0
98838,-95.2380952380952,4,1,0,50,0,0
98922,-93.4579439252336,4,1,0,50,0,0
99005,-90.9090909090909,4,1,0,70,0,1
120172,-89.2857142857143,4,1,0,70,0,1
120338,-86.9565217391304,4,1,0,70,0,1
131005,-86.9565217391304,4,1,0,70,0,0

[Colours]
Combo1 : 185,81,219
Combo2 : 0,202,0
Combo3 : 18,124,255
Combo4 : 242,24,57
Combo5 : 255,192,0

[HitObjects]
160,156,339,5,0,0:0:0:0:
160,156,422,1,0,0:0:0:0:
160,156,505,1,0,0:0:0:0:
160,156,588,1,0,0:0:0:0:
160,156,672,1,8,0:0:0:0:
160,156,838,1,8,0:0:0:0:
196,160,1005,1,0,0:0:0:0:
272,184,1338,5,8,0:0:0:0:
304,176,1505,1,0,0:0:0:0:
336,168,1672,1,0,0:0:0:0:
388,160,1838,1,0,0:0:0:0:
388,160,1922,1,0,0:0:0:0:
388,160,2005,1,8,0:0:0:0:
388,160,2172,1,0,0:0:0:0:
388,160,2338,1,8,0:0:0:0:
372,156,2422,1,8,0:0:0:0:
356,156,2505,1,0,0:0:0:0:
324,152,2672,1,8,0:0:0:0:
388,160,3005,1,0,0:0:0:0:
388,160,3088,1,0,0:0:0:0:
388,160,3172,1,8,0:0:0:0:
388,160,3255,1,8,0:0:0:0:
388,160,3338,1,0,0:0:0:0:
356,156,3505,1,8,0:0:0:0:
320,152,3672,1,8,0:0:0:0:
308,160,3755,1,8,0:0:0:0:
292,168,3838,1,0,0:0:0:0:
284,148,4005,1,8,0:0:0:0:
284,148,4172,1,0,0:0:0:0:
284,148,4255,1,8,0:0:0:0:
284,148,4338,1,0,0:0:0:0:
284,148,4505,1,8,0:0:0:0:
284,148,4672,1,8,0:0:0:0:
284,148,4755,1,8,0:0:0:0:
284,148,4838,1,0,0:0:0:0:
284,148,5005,1,8,0:0:0:0:
284,148,5088,1,8,0:0:0:0:
284,148,5172,1,8,0:0:0:0:
284,148,5255,1,8,0:0:0:0:
284,148,5338,1,0,0:0:0:0:
284,148,5422,1,0,0:0:0:0:
284,148,5505,1,0,0:0:0:0:
300,156,5588,1,0,0:0:0:0:
316,164,5672,1,8,0:0:0:0:
316,164,6005,1,0,0:0:0:0:
328,172,6088,1,0,0:0:0:0:
264,212,6172,1,8,0:0:0:0:
252,244,6338,1,0,0:0:0:0:
296,240,6505,1,8,0:0:0:0:
304,240,6588,1,0,0:0:0:0:
328,236,6672,1,8,0:0:0:0:
360,236,6838,1,8,0:0:0:0:
392,232,7005,1,0,0:0:0:0:
460,228,7338,1,8,0:0:0:0:
428,220,7505,1,8,0:0:0:0:
440,232,7588,1,0,0:0:0:0:
396,212,7672,1,0,0:0:0:0:
364,204,7838,1,8,0:0:0:0:
332,196,8005,1,8,0:0:0:0:
300,188,8172,1,8,0:0:0:0:
300,188,8338,1,4,0:0:0:0:
300,188,8672,1,0,0:0:0:0:
316,196,8755,1,0,0:0:0:0:
300,188,8838,1,8,0:0:0:0:
268,180,9005,1,0,0:0:0:0:
236,172,9172,1,8,0:0:0:0:
236,172,9255,1,0,0:0:0:0:
204,168,9338,1,8,0:0:0:0:
204,168,9505,1,8,0:0:0:0:
204,168,9672,1,0,0:0:0:0:
204,168,10005,1,0,0:0:0:0:
204,168,10172,1,0,0:0:0:0:
236,172,10255,1,8,0:0:0:0:
204,168,10338,1,0,0:0:0:0:
204,168,10505,1,8,0:0:0:0:
204,168,10672,1,0,0:0:0:0:
204,168,10838,1,8,0:0:0:0:
204,168,11005,1,4,0:0:0:0:
276,172,11338,1,0,0:0:0:0:
276,172,11422,1,0,0:0:0:0:
276,172,11505,1,8,0:0:0:0:
276,172,11672,1,0,0:0:0:0:
276,172,11838,1,8,0:0:0:0:
276,172,11922,1,8,0:0:0:0:
276,172,12005,1,0,0:0:0:0:
276,172,12172,1,8,0:0:0:0:
276,172,12338,1,0,0:0:0:0:
268,244,12672,1,8,0:0:0:0:
272,212,12838,1,8,0:0:0:0:
272,212,12922,1,8,0:0:0:0:
272,212,13005,1,0,0:0:0:0:
272,212,13172,1,8,0:0:0:0:
272,212,13338,1,8,0:0:0:0:
272,212,13505,1,8,0:0:0:0:
272,212,13672,1,4,0:0:0:0:
272,212,14005,1,0,0:0:0:0:
272,212,14088,1,0,0:0:0:0:
272,212,14172,1,8,0:0:0:0:
272,212,14338,1,0,0:0:0:0:
272,212,14505,1,8,0:0:0:0:
272,212,14588,1,8,0:0:0:0:
272,212,14672,1,0,0:0:0:0:
272,212,14838,1,8,0:0:0:0:
272,212,15005,1,4,0:0:0:0:
244,192,15172,1,8,0:0:0:0:
232,184,15255,1,8,0:0:0:0:
272,212,15338,1,0,0:0:0:0:
276,192,15422,1,0,0:0:0:0:
272,212,15505,1,8,0:0:0:0:
284,220,15588,1,0,0:0:0:0:
296,224,15672,1,8,0:0:0:0:
304,228,15755,1,0,0:0:0:0:
320,236,15838,1,8,0:0:0:0:
336,248,15922,1,0,0:0:0:0:
352,256,16005,1,8,0:0:0:0:
376,272,16172,1,8,0:0:0:0:
272,212,16338,1,4,0:0:0:0:
244,196,16505,1,0,0:0:0:0:
244,196,16672,1,8,0:0:0:0:
244,196,16838,1,0,0:0:0:0:
244,196,17005,1,4,0:0:0:0:
244,196,17172,1,8,0:0:0:0:
236,180,17255,1,0,0:0:0:0:
244,196,17338,1,8,0:0:0:0:
244,196,17505,1,0,0:0:0:0:
244,196,17672,1,4,0:0:0:0:
244,196,17838,1,0,0:0:0:0:
244,196,18005,1,8,0:0:0:0:
244,196,18172,1,0,0:0:0:0:
244,196,18338,1,4,0:0:0:0:
244,196,18505,1,8,0:0:0:0:
244,196,18672,1,4,0:0:0:0:
244,196,18838,1,8,0:0:0:0:
244,196,19005,1,4,0:0:0:0:
244,196,19172,1,0,0:0:0:0:
244,196,19338,1,8,0:0:0:0:
244,196,19505,1,0,0:0:0:0:
244,196,19672,1,4,0:0:0:0:
244,196,19838,1,0,0:0:0:0:
232,184,19922,1,0,0:0:0:0:
244,196,20005,1,8,0:0:0:0:
244,196,20172,1,0,0:0:0:0:
244,196,20338,1,4,0:0:0:0:
244,196,20505,1,0,0:0:0:0:
244,196,20672,1,8,0:0:0:0:
244,196,20838,1,0,0:0:0:0:
244,196,21005,1,4,0:0:0:0:
244,196,21172,1,8,0:0:0:0:
244,196,21338,1,4,0:0:0:0:
244,196,21505,1,8,0:0:0:0:
244,196,21672,1,4,0:0:0:0:
244,196,21838,1,8,0:0:0:0:
228,188,21922,1,8,0:0:0:0:
244,196,22005,1,8,0:0:0:0:
244,196,22172,1,0,0:0:0:0:
244,196,22338,1,4,0:0:0:0:
244,196,22505,1,8,0:0:0:0:
252,180,22588,1,0,0:0:0:0:
244,196,22672,1,8,0:0:0:0:
244,196,22838,1,0,0:0:0:0:
244,196,23005,1,4,0:0:0:0:
244,196,23172,1,0,0:0:0:0:
252,180,23255,1,0,0:0:0:0:
244,196,23338,1,8,0:0:0:0:
244,196,23505,1,0,0:0:0:0:
244,196,23672,1,4,0:0:0:0:
244,196,23838,1,8,0:0:0:0:
244,196,24005,1,4,0:0:0:0:
244,196,24172,1,8,0:0:0:0:
244,196,24338,1,4,0:0:0:0:
244,196,24505,1,0,0:0:0:0:
236,180,24588,1,0,0:0:0:0:
244,196,24672,1,8,0:0:0:0:
244,196,24838,1,0,0:0:0:0:
244,196,25005,1,4,0:0:0:0:
244,196,25172,1,8,0:0:0:0:
260,176,25255,1,0,0:0:0:0:
244,196,25338,1,8,0:0:0:0:
244,196,25505,1,0,0:0:0:0:
244,196,25672,1,4,0:0:0:0:
244,196,26005,1,8,0:0:0:0:
176,172,26338,1,0,0:0:0:0:
200,180,26422,1,0,0:0:0:0:
200,180,26505,1,0,0:0:0:0:
200,180,26588,1,0,0:0:0:0:
200,180,26672,1,8,0:0:0:0:
200,180,26755,1,0,0:0:0:0:
200,180,26838,1,8,0:0:0:0:
200,180,27005,1,4,0:0:0:0:
200,180,27338,1,8,0:0:0:0:
200,180,27422,1,8,0:0:0:0:
200,180,27505,1,0,0:0:0:0:
200,180,27672,1,0,0:0:0:0:
200,180,27838,1,0,0:0:0:0:
200,180,27922,1,0,0:0:0:0:
200,180,28005,1,8,0:0:0:0:
200,180,28172,1,8,0:0:0:0:
200,180,28338,1,0,0:0:0:0:
200,180,28422,1,8,0:0:0:0:
200,180,28505,1,0,0:0:0:0:
200,180,28588,1,0,0:0:0:0:
200,180,28672,1,8,0:0:0:0:
200,180,28838,1,0,0:0:0:0:
200,180,29005,1,0,0:0:0:0:
216,184,29088,1,0,0:0:0:0:
200,180,29172,1,8,0:0:0:0:
204,160,29255,1,0,0:0:0:0:
200,180,29338,1,8,0:0:0:0:
200,180,29505,1,8,0:0:0:0:
200,180,29672,1,4,0:0:0:0:
236,184,29838,1,8,0:0:0:0:
248,132,30005,1,8,0:0:0:0:
248,132,30088,1,8,0:0:0:0:
248,132,30172,1,0,0:0:0:0:
248,132,30338,1,0,0:0:0:0:
248,132,30505,1,0,0:0:0:0:
248,132,30588,1,0,0:0:0:0:
248,132,30672,1,8,0:0:0:0:
248,132,30838,1,8,0:0:0:0:
248,132,31005,1,0,0:0:0:0:
248,132,31088,1,0,0:0:0:0:
248,132,31172,1,0,0:0:0:0:
248,132,31255,1,0,0:0:0:0:
248,132,31338,1,8,0:0:0:0:
248,132,31505,1,0,0:0:0:0:
248,132,31672,1,0,0:0:0:0:
260,144,31755,1,0,0:0:0:0:
248,132,31838,1,8,0:0:0:0:
260,144,31922,1,0,0:0:0:0:
248,132,32005,1,8,0:0:0:0:
248,132,32172,1,0,0:0:0:0:
248,132,32338,1,4,0:0:0:0:
312,160,32672,1,8,0:0:0:0:
300,156,32755,1,8,0:0:0:0:
300,156,32838,1,0,0:0:0:0:
300,156,33005,1,0,0:0:0:0:
300,156,33172,1,0,0:0:0:0:
300,156,33255,1,0,0:0:0:0:
300,156,33338,1,8,0:0:0:0:
300,156,33505,1,8,0:0:0:0:
300,156,33672,1,0,0:0:0:0:
300,156,33755,1,0,0:0:0:0:
300,156,33838,1,0,0:0:0:0:
300,156,33922,1,0,0:0:0:0:
300,156,34005,1,8,0:0:0:0:
300,156,34172,1,0,0:0:0:0:
300,156,34338,1,0,0:0:0:0:
300,156,34422,1,0,0:0:0:0:
300,156,34505,1,8,0:0:0:0:
300,156,34588,1,0,0:0:0:0:
300,156,34672,1,8,0:0:0:0:
300,156,34838,1,0,0:0:0:0:
300,156,35005,1,4,0:0:0:0:
324,180,35172,1,0,0:0:0:0:
332,164,35255,1,0,0:0:0:0:
300,156,35338,1,8,0:0:0:0:
300,156,35422,1,8,0:0:0:0:
300,156,35505,1,0,0:0:0:0:
300,156,35672,1,0,0:0:0:0:
300,156,35755,1,8,0:0:0:0:
300,156,35838,1,8,0:0:0:0:
300,156,35922,1,0,0:0:0:0:
300,156,36005,1,8,0:0:0:0:
300,156,36172,1,0,0:0:0:0:
300,156,36338,1,0,0:0:0:0:
300,156,36422,1,0,0:0:0:0:
300,156,36505,1,0,0:0:0:0:
300,156,36588,1,0,0:0:0:0:
300,156,36672,1,8,0:0:0:0:
300,156,36755,1,0,0:0:0:0:
300,156,36838,1,0,0:0:0:0:
300,156,36922,1,0,0:0:0:0:
300,156,37005,1,8,0:0:0:0:
300,156,37088,1,0,0:0:0:0:
300,156,37172,1,8,0:0:0:0:
300,156,37255,1,0,0:0:0:0:
300,156,37338,1,8,0:0:0:0:
300,156,37422,1,0,0:0:0:0:
300,156,37505,1,8,0:0:0:0:
300,156,37588,1,8,0:0:0:0:
468,324,39005,2,0,L|472:288,8,28
424,268,40005,1,8,0:0:0:0:
396,248,40172,1,8,0:0:0:0:
368,228,40338,1,4,0:0:0:0:
308,184,40672,1,8,0:0:0:0:
312,168,40755,1,8,0:0:0:0:
316,148,40838,1,0,0:0:0:0:
308,184,41005,1,0,0:0:0:0:
312,164,41088,1,0,0:0:0:0:
316,144,41172,1,0,0:0:0:0:
316,144,41255,1,0,0:0:0:0:
316,144,41338,1,8,0:0:0:0:
308,184,41505,1,0,0:0:0:0:
348,192,41672,1,0,0:0:0:0:
332,188,41755,1,8,0:0:0:0:
332,188,41838,1,0,0:0:0:0:
332,188,42005,1,8,0:0:0:0:
332,188,42088,1,8,0:0:0:0:
332,188,42172,1,8,0:0:0:0:
332,188,42255,1,8,0:0:0:0:
332,188,42338,1,0,0:0:0:0:
332,188,42505,1,0,0:0:0:0:
332,188,42672,1,8,0:0:0:0:
332,188,42755,1,0,0:0:0:0:
332,188,42838,1,8,0:0:0:0:
336,160,43005,1,4,0:0:0:0:
252,176,43172,1,8,0:0:0:0:
280,212,43338,1,8,0:0:0:0:
280,212,43422,1,8,0:0:0:0:
280,212,43505,1,0,0:0:0:0:
280,212,43672,1,0,0:0:0:0:
280,212,43755,1,0,0:0:0:0:
280,212,43838,1,0,0:0:0:0:
280,212,43922,1,0,0:0:0:0:
280,212,44005,1,8,0:0:0:0:
280,212,44172,1,0,0:0:0:0:
280,212,44338,1,4,0:0:0:0:
184,176,44505,1,0,0:0:0:0:
280,212,44672,1,12,0:0:0:0:
200,144,44838,1,8,0:0:0:0:
280,212,45005,1,4,0:0:0:0:
280,212,45172,1,0,0:0:0:0:
280,212,45338,1,8,0:0:0:0:
280,212,45422,1,8,0:0:0:0:
280,212,45505,1,0,0:0:0:0:
280,212,45672,1,4,0:0:0:0:
284,200,45838,1,8,0:0:0:0:
344,256,46005,1,8,0:0:0:0:
364,268,46088,1,0,0:0:0:0:
364,268,46172,1,8,0:0:0:0:
364,268,46338,1,0,0:0:0:0:
364,268,46422,1,0,0:0:0:0:
364,268,46505,1,0,0:0:0:0:
364,268,46588,1,0,0:0:0:0:
364,268,46672,1,8,0:0:0:0:
364,268,46838,1,0,0:0:0:0:
364,268,47005,1,0,0:0:0:0:
364,268,47088,1,0,0:0:0:0:
364,268,47172,1,8,0:0:0:0:
364,268,47338,1,8,0:0:0:0:
364,268,47422,1,8,0:0:0:0:
364,268,47505,1,0,0:0:0:0:
364,268,47672,1,0,0:0:0:0:
364,268,47755,1,0,0:0:0:0:
364,268,47838,1,8,0:0:0:0:
364,268,47922,1,0,0:0:0:0:
364,268,48005,1,8,0:0:0:0:
364,268,48172,1,8,0:0:0:0:
364,268,48338,1,4,0:0:0:0:
320,208,48505,1,8,0:0:0:0:
312,220,48672,1,8,0:0:0:0:
300,208,48755,1,0,0:0:0:0:
288,196,48838,1,8,0:0:0:0:
264,168,49005,1,0,0:0:0:0:
264,168,49088,1,0,0:0:0:0:
264,168,49172,1,8,0:0:0:0:
264,168,49255,1,0,0:0:0:0:
264,168,49338,1,8,0:0:0:0:
264,168,49505,1,0,0:0:0:0:
264,168,49672,1,4,0:0:0:0:
128,176,49838,1,0,0:0:0:0:
264,168,50005,1,12,0:0:0:0:
264,168,50172,1,0,0:0:0:0:
264,168,50338,1,8,0:0:0:0:
276,168,50422,1,8,0:0:0:0:
276,168,50505,1,0,0:0:0:0:
276,168,50588,1,0,0:0:0:0:
276,168,50672,1,8,0:0:0:0:
276,168,50755,1,0,0:0:0:0:
276,168,50838,1,8,0:0:0:0:
276,168,51005,1,4,0:0:0:0:
288,236,51338,1,8,0:0:0:0:
160,172,51422,1,8,0:0:0:0:
288,236,51505,1,0,0:0:0:0:
232,112,51672,1,0,0:0:0:0:
200,176,51755,1,0,0:0:0:0:
236,120,51838,1,0,0:0:0:0:
236,120,52005,1,8,0:0:0:0:
236,120,52172,1,0,0:0:0:0:
236,120,52338,1,0,0:0:0:0:
236,168,52422,1,0,0:0:0:0:
236,120,52505,1,8,0:0:0:0:
236,120,52672,1,8,0:0:0:0:
236,168,52755,1,8,0:0:0:0:
236,120,52838,1,8,0:0:0:0:
236,120,53005,1,0,0:0:0:0:
236,120,53172,1,8,0:0:0:0:
236,120,53338,1,0,0:0:0:0:
236,120,53505,1,8,0:0:0:0:
192,200,53672,1,4,0:0:0:0:
252,200,54005,1,8,0:0:0:0:
252,200,54172,1,0,0:0:0:0:
252,200,54255,1,0,0:0:0:0:
252,200,54338,1,0,0:0:0:0:
252,200,54505,1,8,0:0:0:0:
304,208,54672,1,8,0:0:0:0:
312,192,54755,1,8,0:0:0:0:
312,192,54838,1,0,0:0:0:0:
312,204,55005,1,0,0:0:0:0:
252,200,55088,1,0,0:0:0:0:
252,200,55172,1,8,0:0:0:0:
252,200,55338,1,8,0:0:0:0:
288,216,55422,1,8,0:0:0:0:
252,200,55505,1,0,0:0:0:0:
320,204,55672,1,0,0:0:0:0:
320,204,55755,1,0,0:0:0:0:
320,204,55838,1,8,0:0:0:0:
320,204,55922,1,0,0:0:0:0:
320,204,56005,1,8,0:0:0:0:
320,204,56172,1,0,0:0:0:0:
392,156,56338,1,4,0:0:0:0:
288,236,56672,1,8,0:0:0:0:
160,172,56755,1,8,0:0:0:0:
288,236,56838,1,8,0:0:0:0:
232,112,57005,1,0,0:0:0:0:
200,176,57088,1,0,0:0:0:0:
236,120,57172,1,8,0:0:0:0:
236,120,57338,1,8,0:0:0:0:
236,120,57505,1,0,0:0:0:0:
236,120,57672,1,0,0:0:0:0:
236,168,57755,1,0,0:0:0:0:
236,120,57838,1,0,0:0:0:0:
236,120,58005,1,8,0:0:0:0:
236,168,58088,1,8,0:0:0:0:
236,120,58172,1,0,0:0:0:0:
236,120,58338,1,0,0:0:0:0:
236,120,58505,1,8,0:0:0:0:
236,120,58672,1,0,0:0:0:0:
236,120,58838,1,8,0:0:0:0:
192,200,59005,1,4,0:0:0:0:
252,200,59338,1,8,0:0:0:0:
252,200,59505,1,8,0:0:0:0:
252,200,59588,1,8,0:0:0:0:
252,200,59672,1,0,0:0:0:0:
252,200,59838,1,8,0:0:0:0:
304,208,60005,1,8,0:0:0:0:
312,192,60088,1,8,0:0:0:0:
312,192,60172,1,8,0:0:0:0:
312,204,60338,1,0,0:0:0:0:
252,200,60422,1,0,0:0:0:0:
252,200,60505,1,8,0:0:0:0:
252,200,60672,1,8,0:0:0:0:
288,216,60755,1,8,0:0:0:0:
252,200,60838,1,0,0:0:0:0:
320,204,61005,1,0,0:0:0:0:
320,204,61088,1,0,0:0:0:0:
320,204,61172,1,8,0:0:0:0:
320,204,61255,1,8,0:0:0:0:
320,204,61338,1,8,0:0:0:0:
320,204,61505,1,0,0:0:0:0:
392,156,61672,1,4,0:0:0:0:
304,188,62172,1,0,0:0:0:0:
304,188,62338,1,8,0:0:0:0:
292,184,62672,1,8,0:0:0:0:
292,184,62838,1,8,0:0:0:0:
292,184,62922,1,8,0:0:0:0:
292,184,63005,1,0,0:0:0:0:
292,184,63172,1,0,0:0:0:0:
292,184,63505,1,0,0:0:0:0:
292,184,63672,1,8,0:0:0:0:
408,272,64005,1,0,0:0:0:0:
400,260,64172,1,8,0:0:0:0:
400,260,64338,1,0,0:0:0:0:
400,260,64505,1,8,0:0:0:0:
400,260,64672,1,8,0:0:0:0:
400,260,64838,1,0,0:0:0:0:
304,196,65005,1,8,0:0:0:0:
308,196,65338,1,8,0:0:0:0:
316,196,65505,1,8,0:0:0:0:
316,196,65588,1,0,0:0:0:0:
316,196,65672,1,0,0:0:0:0:
404,272,65838,1,0,0:0:0:0:
344,200,66172,1,0,0:0:0:0:
344,200,66338,1,8,0:0:0:0:
276,224,66672,1,0,0:0:0:0:
276,224,66838,1,8,0:0:0:0:
276,224,67005,1,0,0:0:0:0:
276,224,67172,1,0,0:0:0:0:
276,224,67338,1,8,0:0:0:0:
276,224,67505,1,0,0:0:0:0:
276,224,67672,1,8,0:0:0:0:
276,224,68005,1,8,0:0:0:0:
304,224,68172,1,8,0:0:0:0:
304,224,68255,1,8,0:0:0:0:
304,224,68338,1,0,0:0:0:0:
304,224,68505,1,0,0:0:0:0:
256,192,68838,1,0,0:0:0:0:
256,192,69005,1,8,0:0:0:0:
256,192,69338,1,0,0:0:0:0:
256,192,69505,1,8,0:0:0:0:
320,200,69672,1,0,0:0:0:0:
320,200,69838,1,8,0:0:0:0:
320,200,70005,1,8,0:0:0:0:
320,192,70172,1,0,0:0:0:0:
320,192,70338,1,8,0:0:0:0:
296,124,70672,1,8,0:0:0:0:
296,124,70838,1,8,0:0:0:0:
296,124,70922,1,0,0:0:0:0:
296,124,71005,1,0,0:0:0:0:
296,124,71172,1,0,0:0:0:0:
296,124,71505,1,0,0:0:0:0:
296,124,71672,1,8,0:0:0:0:
384,248,72005,5,8,0:0:0:0:
384,248,72172,1,8,0:0:0:0:
384,248,72338,1,4,0:0:0:0:
264,176,72838,1,0,0:0:0:0:
264,176,73005,1,8,0:0:0:0:
304,252,73338,1,8,0:0:0:0:
304,252,73505,1,8,0:0:0:0:
304,252,73588,1,8,0:0:0:0:
304,252,73672,1,0,0:0:0:0:
304,252,73838,1,0,0:0:0:0:
304,196,74005,5,8,0:0:0:0:
304,252,74172,1,0,0:0:0:0:
304,252,74338,1,8,0:0:0:0:
376,236,74672,1,0,0:0:0:0:
376,236,74838,1,8,0:0:0:0:
376,236,75005,1,0,0:0:0:0:
376,236,75505,1,0,0:0:0:0:
376,236,75672,1,8,0:0:0:0:
376,236,76005,1,8,0:0:0:0:
376,236,76172,1,8,0:0:0:0:
356,172,76255,1,0,0:0:0:0:
356,172,76338,1,0,0:0:0:0:
356,172,76505,1,0,0:0:0:0:
284,136,76672,1,8,0:0:0:0:
304,168,76838,1,0,0:0:0:0:
304,168,77005,1,8,0:0:0:0:
304,168,77338,1,0,0:0:0:0:
304,168,77505,1,8,0:0:0:0:
304,168,77672,1,4,0:0:0:0:
304,168,78172,1,0,0:0:0:0:
304,168,78338,1,8,0:0:0:0:
304,168,78672,1,8,0:0:0:0:
420,248,78838,1,8,0:0:0:0:
420,248,78922,1,8,0:0:0:0:
420,248,79005,1,0,0:0:0:0:
420,248,79172,1,0,0:0:0:0:
420,248,79338,1,8,0:0:0:0:
420,248,79505,1,0,0:0:0:0:
432,248,79672,1,8,0:0:0:0:
464,264,80005,1,0,0:0:0:0:
420,224,80172,1,8,0:0:0:0:
420,224,80338,1,0,0:0:0:0:
464,248,80838,1,0,0:0:0:0:
464,248,81005,1,8,0:0:0:0:
472,252,81338,1,8,0:0:0:0:
448,296,81505,1,8,0:0:0:0:
464,296,81588,1,0,0:0:0:0:
496,316,81672,1,0,0:0:0:0:
448,296,81838,1,0,0:0:0:0:
468,296,82172,1,0,0:0:0:0:
468,296,82338,1,8,0:0:0:0:
468,296,82672,1,8,0:0:0:0:
468,296,82838,1,8,0:0:0:0:
468,296,83005,1,4,0:0:0:0:
276,208,83672,1,8,0:0:0:0:
276,208,84338,1,0,0:0:0:0:
276,208,85005,1,8,0:0:0:0:
208,192,85672,2,0,L|264:200,4,41.9999987182618
220,224,86672,1,8,0:0:0:0:
220,224,87005,1,0,0:0:0:0:
292,204,87672,1,8,0:0:0:0:
332,200,88005,1,8,0:0:0:0:
332,200,88172,1,8,0:0:0:0:
336,192,88338,1,4,0:0:0:0:
392,232,88505,1,0,0:0:0:0:
424,240,88672,1,8,0:0:0:0:
380,216,89005,1,0,0:0:0:0:
380,216,89338,1,8,0:0:0:0:
336,152,89505,1,0,0:0:0:0:
336,152,89588,1,8,0:0:0:0:
200,168,89672,1,0,0:0:0:0:
200,168,89838,1,0,0:0:0:0:
200,168,90005,1,8,0:0:0:0:
200,168,90338,1,0,0:0:0:0:
200,168,90505,1,0,0:0:0:0:
200,168,90672,1,8,0:0:0:0:
200,168,90838,1,8,0:0:0:0:
200,168,91005,1,0,0:0:0:0:
188,152,91338,1,8,0:0:0:0:
280,160,91672,1,0,0:0:0:0:
200,152,92005,1,8,0:0:0:0:
200,152,92172,1,8,0:0:0:0:
200,152,92255,1,8,0:0:0:0:
296,204,92338,1,0,0:0:0:0:
336,200,92505,1,0,0:0:0:0:
336,200,92672,1,8,0:0:0:0:
368,232,93005,1,0,0:0:0:0:
368,232,93172,1,8,0:0:0:0:
368,232,93338,1,8,0:0:0:0:
368,232,93505,1,8,0:0:0:0:
368,232,93672,1,4,0:0:0:0:
348,252,93838,1,0,0:0:0:0:
348,252,94005,1,8,0:0:0:0:
288,196,94338,1,0,0:0:0:0:
380,216,94672,1,8,0:0:0:0:
336,152,94838,1,8,0:0:0:0:
336,152,94922,1,8,0:0:0:0:
200,168,95005,1,0,0:0:0:0:
200,168,95172,1,0,0:0:0:0:
200,168,95338,1,8,0:0:0:0:
200,168,95672,1,0,0:0:0:0:
200,168,95838,1,8,0:0:0:0:
200,168,96005,1,8,0:0:0:0:
200,168,96172,1,8,0:0:0:0:
200,168,96338,1,0,0:0:0:0:
188,152,96672,1,8,0:0:0:0:
280,160,97005,1,0,0:0:0:0:
432,160,97338,1,8,0:0:0:0:
204,148,97505,1,8,0:0:0:0:
204,148,97588,1,0,0:0:0:0:
356,148,97672,1,0,0:0:0:0:
204,148,97838,1,0,0:0:0:0:
344,216,98005,1,8,0:0:0:0:
404,296,98338,1,8,0:0:0:0:
408,240,98505,1,8,0:0:0:0:
360,216,98672,1,8,0:0:0:0:
360,216,98838,1,8,0:0:0:0:
360,216,98922,1,8,0:0:0:0:
360,216,99005,1,0,0:0:0:0:
308,184,99338,1,8,0:0:0:0:
312,168,99422,1,8,0:0:0:0:
316,148,99505,1,0,0:0:0:0:
308,184,99672,1,0,0:0:0:0:
312,164,99755,1,0,0:0:0:0:
316,144,99838,1,0,0:0:0:0:
316,144,99922,1,0,0:0:0:0:
316,144,100005,1,8,0:0:0:0:
308,184,100172,1,0,0:0:0:0:
348,192,100338,1,0,0:0:0:0:
332,188,100422,1,8,0:0:0:0:
332,188,100505,1,0,0:0:0:0:
332,188,100672,1,8,0:0:0:0:
332,188,100755,1,8,0:0:0:0:
332,188,100838,1,8,0:0:0:0:
332,188,100922,1,8,0:0:0:0:
332,188,101005,1,0,0:0:0:0:
332,188,101172,1,0,0:0:0:0:
332,188,101338,1,8,0:0:0:0:
332,188,101422,1,0,0:0:0:0:
332,188,101505,1,8,0:0:0:0:
336,160,101672,1,4,0:0:0:0:
252,176,101838,1,8,0:0:0:0:
280,212,102005,1,8,0:0:0:0:
280,212,102088,1,8,0:0:0:0:
280,212,102172,1,0,0:0:0:0:
280,212,102338,1,0,0:0:0:0:
280,212,102422,1,0,0:0:0:0:
280,212,102505,1,8,0:0:0:0:
280,212,102588,1,0,0:0:0:0:
280,212,102672,1,8,0:0:0:0:
280,212,102838,1,0,0:0:0:0:
280,212,103005,1,4,0:0:0:0:
280,212,103172,1,0,0:0:0:0:
280,212,103338,1,12,0:0:0:0:
280,212,103505,1,8,0:0:0:0:
280,212,103672,1,4,0:0:0:0:
280,212,103838,1,0,0:0:0:0:
280,212,104005,1,8,0:0:0:0:
280,212,104088,1,8,0:0:0:0:
280,212,104172,1,0,0:0:0:0:
280,212,104338,1,4,0:0:0:0:
284,200,104505,1,8,0:0:0:0:
344,256,104672,1,8,0:0:0:0:
364,268,104755,1,0,0:0:0:0:
364,268,104838,1,8,0:0:0:0:
364,268,105005,1,0,0:0:0:0:
364,268,105088,1,0,0:0:0:0:
364,268,105172,1,0,0:0:0:0:
364,268,105255,1,0,0:0:0:0:
364,268,105338,1,8,0:0:0:0:
364,268,105505,1,0,0:0:0:0:
364,268,105672,1,0,0:0:0:0:
364,268,105755,1,0,0:0:0:0:
364,268,105838,1,8,0:0:0:0:
364,268,106005,1,8,0:0:0:0:
364,268,106088,1,8,0:0:0:0:
364,268,106172,1,0,0:0:0:0:
364,268,106338,1,0,0:0:0:0:
364,268,106422,1,0,0:0:0:0:
364,268,106505,1,8,0:0:0:0:
364,268,106588,1,8,0:0:0:0:
364,268,106672,1,8,0:0:0:0:
364,268,106838,1,8,0:0:0:0:
364,268,107005,1,4,0:0:0:0:
320,208,107172,1,8,0:0:0:0:
312,220,107338,1,8,0:0:0:0:
300,208,107422,1,0,0:0:0:0:
288,196,107505,1,8,0:0:0:0:
264,168,107672,1,0,0:0:0:0:
264,168,107755,1,0,0:0:0:0:
264,168,107838,1,8,0:0:0:0:
264,168,107922,1,8,0:0:0:0:
264,168,108005,1,8,0:0:0:0:
264,168,108172,1,0,0:0:0:0:
264,168,108338,1,4,0:0:0:0:
264,168,108505,1,0,0:0:0:0:
264,168,108672,1,12,0:0:0:0:
264,168,108838,1,0,0:0:0:0:
264,168,109005,1,8,0:0:0:0:
276,168,109088,1,0,0:0:0:0:
276,168,109172,1,0,0:0:0:0:
276,168,109255,1,0,0:0:0:0:
276,168,109338,1,8,0:0:0:0:
276,168,109422,1,0,0:0:0:0:
276,168,109505,1,8,0:0:0:0:
276,168,109672,1,4,0:0:0:0:
288,236,110005,1,8,0:0:0:0:
160,172,110088,1,8,0:0:0:0:
288,236,110172,1,0,0:0:0:0:
232,112,110338,1,0,0:0:0:0:
200,176,110422,1,0,0:0:0:0:
236,120,110505,1,0,0:0:0:0:
244,152,110588,1,0,0:0:0:0:
236,120,110672,1,8,0:0:0:0:
236,120,110838,1,0,0:0:0:0:
236,120,111005,1,0,0:0:0:0:
236,168,111088,1,0,0:0:0:0:
236,120,111172,1,8,0:0:0:0:
236,120,111338,1,8,0:0:0:0:
236,168,111422,1,8,0:0:0:0:
236,120,111505,1,8,0:0:0:0:
256,144,111588,1,8,0:0:0:0:
236,120,111672,1,0,0:0:0:0:
236,120,111838,1,8,0:0:0:0:
236,152,111922,1,8,0:0:0:0:
236,120,112005,1,0,0:0:0:0:
236,120,112172,1,8,0:0:0:0:
192,200,112338,1,4,0:0:0:0:
252,200,112672,1,8,0:0:0:0:
312,116,112755,1,8,0:0:0:0:
252,200,112838,1,0,0:0:0:0:
252,200,112922,1,0,0:0:0:0:
252,200,113005,1,0,0:0:0:0:
252,200,113172,1,8,0:0:0:0:
304,208,113338,1,8,0:0:0:0:
312,192,113422,1,8,0:0:0:0:
312,192,113505,1,0,0:0:0:0:
312,204,113672,1,0,0:0:0:0:
252,200,113755,1,0,0:0:0:0:
252,200,113838,1,8,0:0:0:0:
252,200,114005,1,8,0:0:0:0:
288,216,114088,1,8,0:0:0:0:
252,200,114172,1,0,0:0:0:0:
320,204,114338,1,0,0:0:0:0:
320,204,114422,1,0,0:0:0:0:
320,204,114505,1,8,0:0:0:0:
320,204,114588,1,0,0:0:0:0:
320,204,114672,1,8,0:0:0:0:
320,204,114838,1,0,0:0:0:0:
392,156,115005,1,4,0:0:0:0:
288,236,115338,1,8,0:0:0:0:
160,172,115422,1,8,0:0:0:0:
288,236,115505,1,8,0:0:0:0:
232,112,115672,1,0,0:0:0:0:
200,176,115755,1,0,0:0:0:0:
236,120,115838,1,8,0:0:0:0:
204,168,115922,1,0,0:0:0:0:
236,120,116005,1,8,0:0:0:0:
236,120,116172,1,0,0:0:0:0:
236,120,116338,1,0,0:0:0:0:
236,168,116422,1,0,0:0:0:0:
236,120,116505,1,0,0:0:0:0:
236,120,116672,1,8,0:0:0:0:
236,168,116755,1,8,0:0:0:0:
236,120,116838,1,0,0:0:0:0:
248,148,116922,1,8,0:0:0:0:
236,120,117005,1,0,0:0:0:0:
236,120,117172,1,8,0:0:0:0:
288,204,117255,1,0,0:0:0:0:
236,120,117338,1,0,0:0:0:0:
236,120,117505,1,8,0:0:0:0:
192,200,117672,1,4,0:0:0:0:
252,200,118005,1,8,0:0:0:0:
96,156,118088,1,8,0:0:0:0:
252,200,118172,1,8,0:0:0:0:
252,200,118255,1,8,0:0:0:0:
252,200,118338,1,0,0:0:0:0:
252,200,118505,1,8,0:0:0:0:
304,208,118672,1,8,0:0:0:0:
312,192,118755,1,8,0:0:0:0:
312,192,118838,1,8,0:0:0:0:
312,204,119005,1,0,0:0:0:0:
252,200,119088,1,0,0:0:0:0:
252,200,119172,5,8,0:0:0:0:
252,200,119338,1,8,0:0:0:0:
288,216,119422,1,8,0:0:0:0:
252,200,119505,1,0,0:0:0:0:
320,204,119672,1,0,0:0:0:0:
320,204,119755,1,0,0:0:0:0:
320,204,119838,1,8,0:0:0:0:
320,204,119922,1,8,0:0:0:0:
320,204,120005,1,8,0:0:0:0:
320,204,120172,1,0,0:0:0:0:
208,212,120338,5,4,0:0:0:0:
288,192,120505,1,0,0:0:0:0:
352,228,120672,1,8,0:0:0:0:
288,192,120838,1,8,0:0:0:0:
364,240,121005,1,0,0:0:0:0:
368,240,121172,1,0,0:0:0:0:
396,236,121255,1,0,0:0:0:0:
368,240,121338,1,8,0:0:0:0:
368,240,121505,1,8,0:0:0:0:
380,252,121672,1,0,0:0:0:0:
384,216,121838,1,8,0:0:0:0:
456,304,122005,1,8,0:0:0:0:
384,216,122172,1,8,0:0:0:0:
464,272,122338,1,0,0:0:0:0:
464,272,122505,1,0,0:0:0:0:
464,272,122588,1,0,0:0:0:0:
464,272,122672,1,8,0:0:0:0:
464,272,122838,1,8,0:0:0:0:
356,248,123005,1,0,0:0:0:0:
340,248,123088,1,0,0:0:0:0:
340,248,123172,1,8,0:0:0:0:
340,248,123255,1,0,0:0:0:0:
340,248,123338,1,8,0:0:0:0:
340,248,123422,1,8,0:0:0:0:
340,248,123505,1,8,0:0:0:0:
340,248,123588,1,0,0:0:0:0:
340,248,123672,1,0,0:0:0:0:
340,248,123755,1,0,0:0:0:0:
340,248,123838,1,8,0:0:0:0:
340,248,123922,1,0,0:0:0:0:
340,248,124005,1,8,0:0:0:0:
340,248,124088,1,8,0:0:0:0:
340,248,124172,1,8,0:0:0:0:
340,248,124255,1,0,0:0:0:0:
340,248,124338,1,0,0:0:0:0:
340,248,124422,1,0,0:0:0:0:
340,248,124505,1,8,0:0:0:0:
412,256,124588,1,0,0:0:0:0:
340,248,124672,1,8,0:0:0:0:
340,248,124755,1,8,0:0:0:0:
412,256,124838,1,0,0:0:0:0:
412,256,124922,1,8,0:0:0:0:
412,256,125005,1,0,0:0:0:0:
268,160,125088,1,8,0:0:0:0:
200,152,125172,1,0,0:0:0:0:
268,160,125255,1,0,0:0:0:0:
412,276,125338,1,8,0:0:0:0:
224,152,125422,1,8,0:0:0:0:
412,276,125505,1,0,0:0:0:0:
340,248,125672,1,4,0:0:0:0:
336,232,125838,1,0,0:0:0:0:
416,176,126005,1,8,0:0:0:0:
348,232,126172,1,8,0:0:0:0:
384,200,126338,1,0,0:0:0:0:
376,204,126505,1,0,0:0:0:0:
240,212,126588,1,0,0:0:0:0:
376,204,126672,1,8,0:0:0:0:
376,204,126838,1,8,0:0:0:0:
376,204,127005,1,0,0:0:0:0:
280,164,127172,1,8,0:0:0:0:
352,220,127338,5,8,0:0:0:0:
280,164,127505,1,8,0:0:0:0:
344,220,127672,1,0,0:0:0:0:
344,220,127838,1,0,0:0:0:0:
344,220,127922,1,0,0:0:0:0:
344,220,128005,1,8,0:0:0:0:
344,220,128172,1,8,0:0:0:0:
304,268,128338,5,0,0:0:0:0:
304,268,128422,1,0,0:0:0:0:
304,268,128505,1,8,0:0:0:0:
304,268,128588,1,0,0:0:0:0:
304,268,128672,1,8,0:0:0:0:
304,268,128755,1,8,0:0:0:0:
304,268,128838,1,8,0:0:0:0:
304,268,128922,1,0,0:0:0:0:
304,268,129005,1,0,0:0:0:0:
304,268,129088,1,0,0:0:0:0:
304,268,129172,1,8,0:0:0:0:
304,268,129255,1,0,0:0:0:0:
304,268,129338,1,8,0:0:0:0:
304,268,129422,1,8,0:0:0:0:
304,268,129505,1,8,0:0:0:0:
304,268,129588,1,0,0:0:0:0:
304,268,129672,1,0,0:0:0:0:
404,216,129755,1,0,0:0:0:0:
404,216,129838,1,8,0:0:0:0:
404,216,129922,1,0,0:0:0:0:
404,216,130005,1,8,0:0:0:0:
404,216,130088,1,8,0:0:0:0:
404,216,130172,1,0,0:0:0:0:
404,216,130255,1,0,0:0:0:0:
408,260,130338,1,8,0:0:0:0:
228,168,130505,1,0,0:0:0:0:
408,260,130672,1,8,0:0:0:0:
448,192,130838,1,8,0:0:0:0:
408,260,131005,1,4,0:0:0:0:
