osu file format v14

[General]
AudioFilename: 05. .mp3
AudioLeadIn: 2000
PreviewTime: 172760
Countdown: 0
SampleSet: Soft
StackLeniency: 0.3
Mode: 0
LetterboxInBreaks: 0
WidescreenStoryboard: 0

[Editor]
Bookmarks: 55340,87901,146188,206187,261043,288471,315900,343328,347614
DistanceSpacing: 1.2
BeatDivisor: 6
GridSize: 16
TimelineZoom: 3.899998

[Metadata]
Title:Towa ni
TitleUnicode:永久に
Artist:Agematsu Noriyasu
ArtistUnicode:上松範康
Creator:Ametrin
Version:Dancing around you ~Eternity~
Source:うたわれるもの
Tags:Pure -AQUAPLUS LEGEND OF ACOUSTICS- Suara 元田恵美 Emi Motoda Uta wareru mono Elements Garden Leaf/AQUAPLUS
BeatmapID:1525241
BeatmapSetID:722463

[Difficulty]
HPDrainRate:5.5
CircleSize:4.2
OverallDifficulty:8.5
ApproachRate:9.4
SliderMultiplier:1.8
SliderTickRate:1

[Events]
//Background and Video events
0,0,"bg.jpg",0,0
//Break Periods
2,14189,26533
//Storyboard Layer 0 (Background)
//Storyboard Layer 1 (Fail)
//Storyboard Layer 2 (Pass)
//Storyboard Layer 3 (Foreground)
//Storyboard Sound Samples

[TimingPoints]
483,882.352941176471,4,2,1,15,1,0
483,-133.333333333333,4,2,1,15,0,0
2247,815.217391304348,4,2,1,15,1,0
3877,927.357032457496,4,2,1,15,1,0
4804,863.309352517986,4,2,1,15,1,0
4804,-133.333333333333,4,2,1,15,0,0
5667,828.729281767956,4,2,1,15,1,0
7324,884.955752212389,4,2,1,15,1,0
7324,-133.333333333333,4,2,1,15,0,0
9093,829.875518672199,4,2,1,15,1,0
10752,892.857142857143,4,2,1,15,1,0
11645,869.565217391304,4,2,1,15,1,0
11645,-133.333333333333,4,2,1,15,0,0
12514,837.988826815642,4,2,1,15,1,0
14189,873.362445414847,4,2,1,15,1,0
15935,841.514726507714,4,2,1,15,1,0
17618,874.63556851312,4,2,1,15,1,0
19367,836.820083682008,4,2,1,15,1,0
21040,862.068965517241,4,2,1,15,1,0
22764,851.063829787234,4,2,1,15,1,0
24466,877.19298245614,4,2,1,15,1,0
26220,853.48506401138,4,2,1,15,1,0
27073,1000,4,2,1,15,1,0
27073,-133.333333333333,4,2,1,15,0,0
27573,666.666666666667,4,2,1,15,1,0
27907,853.48506401138,4,2,1,15,1,0
27907,-133.333333333333,4,2,1,15,0,0
29187,943.396226415094,4,2,1,15,1,0
29658,818.553888130969,4,2,1,15,1,0
29658,-133.333333333333,4,2,1,15,0,0
30885,927.357032457496,4,2,1,15,1,0
31348,816.326530612245,4,2,1,15,1,0
31348,-133.333333333333,4,2,1,15,0,0
31756,988.467874794069,4,2,1,15,1,0
32249,786.369593709043,4,2,1,15,1,0
32249,-133.333333333333,4,2,1,15,0,0
32642,892.857142857143,4,2,1,15,1,0
33088,909.090909090909,4,2,1,15,1,0
33088,-133.333333333333,4,2,1,15,0,0
33997,735.294117647059,4,2,1,15,1,0
34364,797.872340425532,4,2,1,15,1,0
34762,857.142857142857,4,2,1,15,1,0
34762,-133.333333333333,4,2,1,15,0,0
35619,847.457627118644,4,2,1,15,1,0
36042,869.565217391304,4,2,1,15,1,0
36476,886.262924667651,4,2,1,15,1,0
36476,-133.333333333333,4,2,1,15,0,0
37362,847.457627118644,4,2,1,15,1,0
37785,810.810810810811,4,2,1,15,1,0
38190,859.598853868195,4,2,1,15,1,0
38190,-133.333333333333,4,2,1,15,0,0
40768,911.854103343465,4,2,1,15,1,0
41223,782.268578878748,4,2,1,15,1,0
41614,862.068965517241,4,2,1,15,1,0
41614,-133.333333333333,4,2,1,15,0,0
42907,963.081861958266,4,2,1,15,1,0
43388,761.421319796954,4,2,1,15,1,0
43388,-133.333333333333,4,2,1,15,0,0
44530,560.747663551402,4,2,1,15,1,0
44810,491.400491400491,4,2,1,15,1,0
45055,891.530460624071,4,2,1,15,1,0
45055,-133.333333333333,4,2,1,15,0,0
45500,839.160839160839,4,2,1,15,1,0
45919,882.352941176471,4,2,1,15,1,0
45919,-133.333333333333,4,2,1,15,0,0
46360,841.514726507714,4,2,1,15,1,0
46780,843.881856540084,4,2,1,15,1,0
46780,-133.333333333333,4,2,1,15,0,0
47623,877.19298245614,4,2,1,15,1,0
48061,818.553888130969,4,2,1,15,1,0
48470,867.052023121387,4,2,1,15,1,0
48470,-133.333333333333,4,2,1,15,0,0
49770,882.352941176471,4,2,1,15,1,0
50211,857.142857142857,4,2,1,15,1,0
50211,-133.333333333333,4,2,1,15,0,0
51496,749.063670411985,4,2,1,15,1,0
51870,847.457627118644,4,2,1,15,1,0
51870,-133.333333333333,4,2,1,15,0,0
53141,925.925925925926,4,2,1,15,1,0
53603,874.63556851312,4,2,1,15,1,0
53603,-133.333333333333,4,2,1,15,0,0
54477,900.900900900901,4,2,1,15,1,0
54927,826.446280991736,4,2,1,15,1,0
55340,827.586206896552,4,2,2,15,1,0
55340,-133.333333333333,4,2,2,15,0,0
55960,890.207715133531,4,2,2,15,1,0
56182,903.614457831325,4,2,2,15,1,0
56633,852.272727272727,4,2,2,15,1,0
57272,824.175824175824,4,2,2,15,1,0
57272,-133.333333333333,4,2,2,15,0,0
57684,916.030534351145,4,2,2,15,1,0
57913,884.955752212389,4,2,2,15,1,0
58355,859.598853868195,4,2,2,15,1,0
58784,810.810810810811,4,2,2,15,1,0
58784,-133.333333333333,4,2,2,15,0,0
59189,909.090909090909,4,2,2,15,1,0
59643,887.573964497042,4,2,2,15,1,0
59643,-133.333333333333,4,2,2,15,0,0
60086,814.111261872456,4,2,2,15,1,0
60493,857.142857142857,4,2,2,15,1,0
60493,-133.333333333333,4,2,2,15,0,0
60921,872.093023255814,4,2,2,15,1,0
60921,-133.333333333333,4,2,2,15,0,0
61793,847.457627118644,4,2,2,15,1,0
62216,820.793433652531,4,2,2,15,1,0
62216,-133.333333333333,4,2,2,15,0,0
63036,930.232558139535,4,2,2,15,1,0
63501,894.187779433681,4,2,2,15,1,0
63948,769.230769230769,4,2,2,15,1,0
63948,-133.333333333333,4,2,2,15,0,0
64332,896.860986547085,4,2,2,15,1,0
64556,820.793433652531,4,2,2,15,1,0
64761,869.565217391304,4,2,2,15,1,0
64761,-133.333333333333,4,2,2,15,0,0
65195,860.832137733142,4,2,2,15,1,0
65625,839.160839160839,4,2,2,15,1,0
65625,-133.333333333333,4,2,2,15,0,0
66464,881.057268722467,4,2,2,15,1,0
67345,833.333333333333,4,2,2,15,1,0
67345,-133.333333333333,4,2,2,15,0,0
67970,864.553314121037,4,2,2,15,1,0
68186,923.076923076923,4,2,2,15,1,0
68647,796.812749003984,4,2,2,15,1,0
69045,835.654596100279,4,2,2,15,1,0
69045,-133.333333333333,4,2,2,15,0,0
69880,868.306801736614,4,2,2,15,1,0
70314,900.900900900901,4,2,2,15,1,0
70764,843.881856540084,4,2,2,15,1,0
70764,-133.333333333333,4,2,2,15,0,0
71827,909.090909090909,4,2,2,15,1,0
71827,-133.333333333333,4,2,2,15,0,0
72054,878.477306002928,4,2,2,15,1,0
72492,849.85835694051,4,2,2,15,1,0
72492,-133.333333333333,4,2,2,15,0,0
73341,983.606557377049,4,2,2,15,1,0
73832,796.812749003984,4,2,2,15,1,0
74230,775.193798449612,4,2,2,15,1,0
74230,-133.333333333333,4,2,2,15,0,0
74811,928.792569659443,4,2,2,15,1,0
75043,870.827285921626,4,2,2,15,1,0
75478,849.85835694051,4,2,2,15,1,0
75902,869.565217391304,4,2,2,15,1,0
75902,-133.333333333333,4,2,2,15,0,0
77641,845.070422535211,4,2,2,15,1,0
77641,-133.333333333333,4,2,2,15,0,0
78486,819.672131147541,4,2,2,15,1,0
78895,902.255639097744,4,2,2,15,1,0
79346,824.175824175824,4,2,2,15,1,0
79552,857.142857142857,4,2,2,15,1,0
79552,-133.333333333333,4,2,2,15,0,0
80623,882.352941176471,4,2,2,15,1,0
81061,852.272727272727,4,2,2,15,1,0
81061,-133.333333333333,4,2,2,15,0,0
82765,874.63556851312,4,2,2,15,1,0
83202,877.19298245614,4,2,2,15,1,0
83202,-133.333333333333,4,2,2,15,0,0
84079,833.333333333333,4,2,2,15,1,0
84495,851.063829787234,4,2,2,15,1,0
87925,428.571428571429,4,2,2,30,1,0
87925,-66.6666666666667,4,2,2,30,0,0
89617,428.571428571429,4,2,2,30,1,0
89617,-66.6666666666667,4,2,2,30,0,0
90688,-66.6666666666667,4,2,2,5,0,0
90759,-66.6666666666667,4,2,2,30,0,0
94117,-66.6666666666667,4,2,2,5,0,0
94188,-66.6666666666667,4,2,2,30,0,0
97545,-66.6666666666667,4,2,2,5,0,0
97617,-66.6666666666667,4,2,2,30,0,0
99831,-66.6666666666667,4,2,2,5,0,0
99902,-66.6666666666667,4,2,2,30,0,0
104402,-66.6666666666667,4,2,2,5,0,0
104474,-66.6666666666667,4,2,2,30,0,0
106974,-66.6666666666667,4,2,2,5,0,0
107045,-66.6666666666667,4,2,2,30,0,0
112974,-66.6666666666667,4,2,2,5,0,0
113045,-66.6666666666667,4,2,2,30,0,0
115331,-66.6666666666667,4,2,2,35,0,0
118117,-66.6666666666667,4,2,2,5,0,0
118188,-66.6666666666667,4,2,2,35,0,0
124974,-66.6666666666667,4,2,2,5,0,0
125045,-66.6666666666667,4,2,2,35,0,0
126688,-66.6666666666667,4,2,2,5,0,0
126759,-66.6666666666667,4,2,2,35,0,0
131831,-66.6666666666667,4,2,2,5,0,0
131902,-66.6666666666667,4,2,2,35,0,0
138688,-66.6666666666667,4,2,2,5,0,0
138759,-66.6666666666667,4,2,2,35,0,0
146188,845.070422535211,4,2,2,15,1,0
146188,-133.333333333333,4,2,2,15,0,0
147244,802.139037433155,4,2,2,15,1,0
147244,-133.333333333333,4,2,2,15,0,0
147645,960,4,2,2,15,1,0
147885,869.565217391304,4,2,2,15,1,0
147885,-133.333333333333,4,2,2,15,0,0
148319,845.070422535211,4,2,2,15,1,0
148741,849.85835694051,4,2,2,15,1,0
149165,888.888888888889,4,2,2,15,1,0
149609,857.142857142857,4,2,2,15,1,0
151324,878.477306002928,4,2,2,15,1,0
151324,-133.333333333333,4,2,2,15,0,0
151763,793.650793650794,4,2,2,15,1,0
151961,833.333333333333,4,2,2,15,1,0
152169,878.477306002928,4,2,2,15,1,0
152169,-133.333333333333,4,2,2,15,0,0
153047,837.988826815642,4,2,2,15,1,0
153884,940.438871473354,4,2,2,15,1,0
154119,771.20822622108,4,2,2,15,1,0
154119,-133.333333333333,4,2,2,15,0,0
154504,1048.95104895105,4,2,2,15,1,0
154766,840.336134453781,4,2,2,15,1,0
155396,833.333333333333,4,2,2,15,1,0
155396,-133.333333333333,4,2,2,15,0,0
156021,892.857142857143,4,2,2,15,1,0
156467,857.142857142857,4,2,2,15,1,0
158181,833.333333333333,4,2,2,15,1,0
158181,-133.333333333333,4,2,2,15,0,0
158597,886.262924667651,4,2,2,15,1,0
159040,833.333333333333,4,2,2,15,1,0
159040,-133.333333333333,4,2,2,15,0,0
159456,865.800865800866,4,2,2,15,1,0
159888,857.142857142857,4,2,2,15,1,0
159888,-133.333333333333,4,2,2,15,0,0
160745,877.19298245614,4,2,2,15,1,0
161622,824.175824175824,4,2,2,15,1,0
161622,-133.333333333333,4,2,2,15,0,0
162034,819.672131147541,4,2,2,15,1,0
162443,890.207715133531,4,2,2,15,1,0
162443,-133.333333333333,4,2,2,15,0,0
163333,857.142857142857,4,2,2,15,1,0
163333,-133.333333333333,4,2,2,15,0,0
164190,867.052023121387,4,2,2,15,1,0
165057,884.955752212389,4,2,2,15,1,0
165057,-133.333333333333,4,2,2,15,0,0
165499,804.289544235925,4,2,2,15,1,0
165700,824.175824175824,4,2,2,15,1,0
165906,849.85835694051,4,2,2,15,1,0
165906,-133.333333333333,4,2,2,15,0,0
166330,865.800865800866,4,2,2,15,1,0
166762,857.142857142857,4,2,2,15,1,0
166762,-133.333333333333,4,2,2,15,0,0
167619,835.654596100279,4,2,2,15,1,0
168036,878.477306002928,4,2,2,15,1,0
168475,821.917808219178,4,2,2,15,1,0
168475,-133.333333333333,4,2,2,15,0,0
168680,845.070422535211,4,2,2,15,1,0
168891,892.857142857143,4,2,2,15,1,0
168891,-133.333333333333,4,2,2,15,0,0
169114,886.262924667651,4,2,2,15,1,0
169335,800,4,2,2,15,1,0
169335,-133.333333333333,4,2,2,15,0,0
169535,916.030534351145,4,2,2,15,1,0
169764,852.272727272727,4,2,2,15,1,0
170190,837.988826815642,4,2,2,15,1,0
170190,-133.333333333333,4,2,2,15,0,0
170818,928.792569659443,4,2,2,15,1,0
171050,857.142857142857,4,2,2,15,1,0
171050,-133.333333333333,4,2,2,15,0,0
172121,842.696629213483,4,2,2,15,1,0
172121,-133.333333333333,4,2,2,15,0,0
172542,874.63556851312,4,2,2,15,1,0
172760,946.372239747634,4,2,2,15,1,0
172760,-133.333333333333,4,2,2,15,0,0
173233,764.331210191083,4,2,2,15,1,0
173615,845.070422535211,4,2,2,15,1,0
173615,-133.333333333333,4,2,2,15,0,0
174460,869.565217391304,4,2,2,15,1,0
174460,-133.333333333333,4,2,2,15,0,0
175329,835.654596100279,4,2,2,15,1,0
175537,849.85835694051,4,2,2,15,1,0
175537,-133.333333333333,4,2,2,15,0,0
175961,909.090909090909,4,2,2,15,1,0
176188,857.142857142857,4,2,2,15,1,0
176188,-133.333333333333,4,2,2,15,0,0
176616,877.19298245614,4,2,2,15,1,0
177054,845.070422535211,4,2,2,15,1,0
177054,-133.333333333333,4,2,2,15,0,0
177899,869.565217391304,4,2,2,15,1,0
178768,857.142857142857,4,2,2,15,1,0
178768,-133.333333333333,4,2,2,15,0,0
178982,845.070422535211,4,2,2,15,1,0
178982,-133.333333333333,4,2,2,15,0,0
179404,895.522388059701,4,2,2,15,1,0
179628,833.333333333333,4,2,2,15,1,0
179628,-133.333333333333,4,2,2,15,0,0
180044,894.187779433681,4,2,2,15,1,0
180267,821.917808219178,4,2,2,15,1,0
180472,846.262341325811,4,2,2,15,1,0
180472,-133.333333333333,4,2,2,15,0,0
181741,900.900900900901,4,2,2,15,1,0
182191,851.063829787234,4,2,2,15,1,0
182191,-133.333333333333,4,2,2,15,0,0
183467,903.614457831325,4,2,2,15,1,0
183918,828.729281767956,4,2,2,15,1,0
183918,-133.333333333333,4,2,2,15,0,0
184540,857.142857142857,4,2,2,15,1,0
184754,857.142857142857,4,2,2,15,1,0
186896,879.765395894428,4,2,2,15,1,0
187335,857.142857142857,4,2,2,15,1,0
187335,-133.333333333333,4,2,2,15,0,0
189049,810.810810810811,4,2,2,15,1,0
189251,859.598853868195,4,2,2,15,1,0
189251,-133.333333333333,4,2,2,15,0,0
189680,903.614457831325,4,2,2,15,1,0
189905,849.85835694051,4,2,2,15,1,0
189905,-133.333333333333,4,2,2,15,0,0
190329,882.352941176471,4,2,2,15,1,0
190770,837.988826815642,4,2,2,15,1,0
190770,-133.333333333333,4,2,2,15,0,0
191607,869.565217391304,4,2,2,15,1,0
192476,740.740740740741,4,2,2,15,1,0
192661,898.203592814371,4,2,2,15,1,0
192661,-133.333333333333,4,2,2,15,0,0
193334,867.052023121387,4,2,2,15,1,0
193334,-133.333333333333,4,2,2,15,0,0
193767,847.457627118644,4,2,2,15,1,0
194190,857.142857142857,4,2,2,15,1,0
194190,-133.333333333333,4,2,2,15,0,0
196761,826.446280991736,4,2,2,15,1,0
197174,895.522388059701,4,2,2,15,1,0
197621,746.268656716418,4,2,2,15,1,0
197807,882.352941176471,4,2,2,15,1,0
197807,-133.333333333333,4,2,2,15,0,0
198248,917.43119266055,4,2,2,15,1,0
198477,869.565217391304,4,2,2,15,1,0
198911,848.656294200849,4,2,2,15,1,0
199335,865.800865800866,4,2,2,15,1,0
199335,-133.333333333333,4,2,2,15,0,0
200200,815.217391304348,4,2,2,15,1,0
200607,859.598853868195,4,2,2,15,1,0
201036,781.25,4,2,2,15,1,0
201036,-133.333333333333,4,2,2,15,0,0
201231,986.842105263158,4,2,2,15,1,0
201477,836.820083682008,4,2,2,15,1,0
201895,882.352941176471,4,2,2,15,1,0
201895,-133.333333333333,4,2,2,15,0,0
206192,428.571428571429,4,2,2,40,1,0
206192,-66.6666666666667,4,2,2,40,0,0
208977,-66.6666666666667,4,2,2,5,0,0
209049,-66.6666666666667,4,2,2,40,0,0
212406,-66.6666666666667,4,2,2,5,0,0
212477,-66.6666666666667,4,2,2,40,0,0
227834,-66.6666666666667,4,2,2,5,0,0
227906,-66.6666666666667,4,2,2,40,0,0
229549,-66.6666666666667,4,2,2,5,0,0
229620,-66.6666666666667,4,2,2,40,0,0
232120,-66.6666666666667,4,2,2,5,0,0
232192,-66.6666666666667,4,2,2,40,0,0
233620,-66.6666666666667,4,2,2,45,0,0
238120,-66.6666666666667,4,2,2,5,0,0
238192,-66.6666666666667,4,2,2,45,0,0
241549,-66.6666666666667,4,2,2,5,0,0
241620,-66.6666666666667,4,2,2,45,0,0
250120,-66.6666666666667,4,2,2,5,0,0
250192,-66.6666666666667,4,2,2,45,0,0
255906,-66.6666666666667,4,2,2,50,0,0
256763,-66.6666666666667,4,2,2,55,0,0
257620,-66.6666666666667,4,2,2,50,0,0
258477,-62.5,4,2,2,55,0,0
259334,-62.5,4,2,2,50,0,0
260192,-62.5,4,2,2,55,0,0
261049,-58.8235294117647,4,2,2,60,0,1
262738,434.782608695652,4,2,2,60,1,1
262738,-58.8235294117647,4,2,2,60,0,1
264477,428.571428571429,4,2,2,60,1,1
264477,-58.8235294117647,4,2,2,60,0,1
265548,-58.8235294117647,4,2,2,5,0,1
265619,-58.8235294117647,4,2,2,60,0,1
271334,414.9377593361,4,2,2,60,1,1
271334,-58.8235294117647,4,2,2,60,0,1
272993,444.444444444444,4,2,2,60,1,1
272993,-58.8235294117647,4,2,2,60,0,1
274770,428.571428571429,4,2,2,60,1,1
274770,-58.8235294117647,4,2,2,60,0,1
275841,-58.8235294117647,4,2,2,5,0,1
275912,-58.8235294117647,4,2,2,60,0,1
277555,-58.8235294117647,4,2,2,5,0,1
277627,-58.8235294117647,4,2,2,60,0,1
280127,-58.8235294117647,4,2,2,5,0,1
280198,-58.8235294117647,4,2,2,60,0,1
280555,-58.8235294117647,4,2,2,5,0,1
280627,-58.8235294117647,4,2,2,60,0,1
280984,-58.8235294117647,4,2,2,5,0,1
281055,-58.8235294117647,4,2,2,60,0,1
281412,-58.8235294117647,4,2,2,5,0,1
281484,-58.8235294117647,4,2,2,60,0,1
282698,-58.8235294117647,4,2,2,5,0,1
282770,-58.8235294117647,4,2,2,60,0,1
287627,-66.6666666666667,4,2,2,65,0,0
287912,-62.5,4,2,2,65,0,0
288198,-58.8235294117647,4,2,2,65,0,0
288484,419.58041958042,4,2,2,65,1,1
288484,-58.8235294117647,4,2,2,65,0,1
289532,-58.8235294117647,4,2,2,5,0,1
289602,-58.8235294117647,4,2,2,65,0,1
290162,428.571428571429,4,2,2,65,1,1
290162,-58.8235294117647,4,2,2,65,0,1
292947,-58.8235294117647,4,2,2,5,0,1
293019,-58.8235294117647,4,2,2,65,0,1
296376,-58.8235294117647,4,2,2,5,0,1
296447,-58.8235294117647,4,2,2,65,0,1
296804,-58.8235294117647,4,2,2,5,0,1
296876,-58.8235294117647,4,2,2,65,0,1
297019,436.681222707424,4,2,2,65,1,1
297019,-58.8235294117647,4,2,2,65,0,1
298765,428.571428571429,4,2,2,65,1,1
298765,-58.8235294117647,4,2,2,65,0,1
299836,-58.8235294117647,4,2,2,5,0,1
299907,-58.8235294117647,4,2,2,65,0,1
300479,416.666666666667,4,2,2,65,1,1
300479,-58.8235294117647,4,2,2,65,0,1
301520,-58.8235294117647,4,2,2,5,0,1
301590,-58.8235294117647,4,2,2,65,0,1
302162,428.571428571429,4,2,2,65,1,1
302162,-58.8235294117647,4,2,2,65,0,1
303233,-58.8235294117647,4,2,2,5,0,1
303304,-58.8235294117647,4,2,2,65,0,1
307519,-58.8235294117647,4,2,2,5,0,1
307590,-58.8235294117647,4,2,2,65,0,1
310090,-58.8235294117647,4,2,2,5,0,1
310162,-58.8235294117647,4,2,2,65,0,1
314162,434.782608695652,4,2,2,65,1,1
314162,-58.8235294117647,4,2,2,65,0,1
315031,-58.8235294117647,4,2,2,65,0,0
315901,422.535211267606,4,2,2,70,1,1
315901,-58.8235294117647,4,2,2,70,0,1
316957,-58.8235294117647,4,2,2,5,0,1
317027,-58.8235294117647,4,2,2,70,0,1
317610,422.535211267606,4,2,2,70,1,1
317610,-58.8235294117647,4,2,2,70,0,1
318666,-58.8235294117647,4,2,2,5,0,1
318736,-58.8235294117647,4,2,2,70,0,1
319324,422.535211267606,4,2,2,70,1,1
319324,-58.8235294117647,4,2,2,70,0,1
320380,-58.8235294117647,4,2,2,5,0,1
320450,-58.8235294117647,4,2,2,70,0,1
320802,-58.8235294117647,4,2,2,5,0,1
320873,-58.8235294117647,4,2,2,70,0,1
321036,422.535211267606,4,2,2,70,1,1
321036,-58.8235294117647,4,2,2,70,0,1
322733,422.535211267606,4,2,2,70,1,1
322733,-58.8235294117647,4,2,2,70,0,1
323789,-58.8235294117647,4,2,2,5,0,1
323859,-58.8235294117647,4,2,2,70,0,1
324447,422.535211267606,4,2,2,70,1,1
324447,-58.8235294117647,4,2,2,70,0,1
325503,-58.8235294117647,4,2,2,5,0,1
325573,-58.8235294117647,4,2,2,70,0,1
326162,428.571428571429,4,2,2,70,1,1
326162,-58.8235294117647,4,2,2,70,0,1
327876,434.782608695652,4,2,2,70,1,1
327876,-58.8235294117647,4,2,2,70,0,1
329615,422.535211267606,4,2,2,70,1,1
329615,-58.8235294117647,4,2,2,70,0,1
330671,-58.8235294117647,4,2,2,5,0,1
330741,-58.8235294117647,4,2,2,70,0,1
331335,416.666666666667,4,2,2,70,1,1
331335,-58.8235294117647,4,2,2,70,0,1
333016,434.782608695652,4,2,2,70,1,1
333016,-58.8235294117647,4,2,2,70,0,1
333450,428.571428571429,4,2,2,70,1,1
333450,-58.8235294117647,4,2,2,70,0,1
333872,434.782608695652,4,2,2,70,1,1
333872,-58.8235294117647,4,2,2,70,0,1
334744,431.654676258993,4,2,2,70,1,1
334744,-58.8235294117647,4,2,2,70,0,1
336470,451.127819548872,4,2,2,70,1,1
336470,-58.8235294117647,4,2,2,70,0,1
337071,444.444444444444,4,2,2,70,1,1
337071,-58.8235294117647,4,2,2,70,0,1
337325,422.535211267606,4,2,2,70,1,1
337325,-58.8235294117647,4,2,2,70,0,1
338165,428.571428571429,4,2,2,70,1,1
338165,-58.8235294117647,4,2,2,70,0,1
339020,434.782608695652,4,2,2,70,1,1
339020,-58.8235294117647,4,2,2,70,0,1
339885,428.571428571429,4,2,2,70,1,1
340313,439.56043956044,4,2,2,70,1,1
340751,-58.8235294117647,4,2,2,75,0,1
340752,431.654676258993,4,2,2,70,1,1
341614,428.571428571429,4,2,2,75,1,1
342042,-58.8235294117647,4,2,2,78,0,1
342471,-58.8235294117647,4,2,2,81,0,1
342899,-58.8235294117647,4,2,2,85,0,1
343328,-58.8235294117647,4,2,2,100,0,0
343399,-58.8235294117647,4,2,2,100,0,0
344185,-58.8235294117647,4,2,2,80,0,0
345042,-58.8235294117647,4,2,2,60,0,0
345899,-58.8235294117647,4,2,2,40,0,0
346756,-58.8235294117647,4,2,2,20,0,0
347614,-58.8235294117647,4,2,2,5,0,0

[Colours]
Combo1 : 255,117,51
Combo2 : 255,192,120
Combo3 : 255,146,36
Combo4 : 123,62,0
Combo5 : 185,92,0
Combo6 : 255,228,202

[HitObjects]
272,203,483,6,0,P|379:206|336:336,1,270.000010299683
485,324,3877,1,2,0:2:0:0:
354,332,4804,2,0,B|435:351|409:303|497:327,1,135.000005149842,0|2,0:0|0:2,0:0:0:0:
75,71,7325,6,0,P|43:150|187:156,1,270.000010299683
188,35,10752,1,2,0:2:0:0:
179,169,11645,2,0,L|188:35,1,135.000005149842
137,226,27073,70,0,P|134:192|126:160,1,67.5000025749208
138,227,27907,2,0,B|266:244|221:176|352:192,1,202.500007724762,4|0,0:1|0:0,0:0:0:0:
424,231,29658,2,0,P|442:329|346:328,1,202.500007724762
333,192,31348,6,0,P|343:160|363:113,1,67.5000025749208,2|0,0:0|0:0,0:0:0:0:
451,76,32249,2,0,P|463:107|473:139,1,67.5000025749208,2|0,0:0|0:0,0:0:0:0:
434,249,33088,2,0,B|362:268|381:216|294:237,1,135.000005149842,2|0,0:0|0:0,0:0:0:0:
233,272,34363,1,0,0:0:0:0:
134,377,34762,70,0,P|128:311|106:241,1,135.000005149842,4|0,0:1|0:0,0:0:0:0:
29,225,36042,1,0,0:0:0:0:
123,102,36476,2,0,P|177:132|168:205,1,135.000005149842
107,245,37785,1,0,0:0:0:0:
74,95,38190,6,0,B|155:25|268:70|236:133|365:189|447:88,1,405.000015449525
384,36,41223,1,0,0:0:0:0:
295,115,41614,70,0,P|286:213|281:334,1,202.500007724762,4|0,0:1|0:0,0:0:0:0:
209,355,43388,2,0,P|118:341|135:243,1,202.500007724762
156,162,44810,1,0,0:0:0:0:
156,162,45055,2,0,P|123:160|77:168,1,67.5000025749208
15,80,45919,2,0,P|49:78|83:83,1,67.5000025749208
156,162,46780,6,0,P|185:112|176:31,1,135.000005149842,2|0,0:0|0:0,0:0:0:0:
83,83,48061,1,0,0:0:0:0:
224,118,48470,70,0,P|301:97|442:87,1,202.500007724762,4|0,0:1|0:0,0:0:0:0:
497,230,50211,2,0,P|396:223|298:198,1,202.500007724762,4|0,0:1|0:0,0:0:0:0:
127,107,51870,2,0,B|150:204|94:219|129:312,1,202.500007724762
240,252,53603,2,0,P|278:213|352:235,1,135.000005149842,2|0,0:0|0:0,0:0:0:0:
386,303,54927,1,0,0:0:0:0:
477,214,55340,6,0,P|463:163|455:97,1,101.250003862381,2|2,0:1|0:1,0:1:0:0:
460,33,56182,1,8,0:1:0:0:
299,9,56633,1,2,0:1:0:0:
370,161,57059,1,2,0:1:0:0:
370,161,57272,2,0,L|362:245,1,67.5000025749208,8|2,0:1|0:1,0:1:0:0:
354,308,57913,1,8,0:1:0:0:
204,370,58355,1,2,0:1:0:0:
52,225,58784,70,0,P|41:187|41:153,1,67.5000025749208,2|2,0:1|0:1,0:1:0:0:
165,56,59643,2,0,P|163:89|153:121,1,67.5000025749208,8|2,0:1|0:1,0:1:0:0:
52,225,60493,1,2,0:1:0:0:
52,225,60707,1,2,0:1:0:0:
52,225,60921,2,0,L|166:209,1,101.250003862381,2|8,0:1|0:1,0:1:0:0:
233,202,61794,1,2,0:1:0:0:
233,202,62216,6,0,L|84:177,1,135.000005149842,2|8,0:1|0:1,0:1:0:0:
55,92,63502,1,2,0:1:0:0:
179,22,63948,2,0,L|174:89,1,67.5000025749208,2|8,0:1|0:1,0:1:0:0:
233,202,64556,1,2,0:1:0:0:
233,202,64761,2,0,L|238:269,1,67.5000025749208,8|2,0:1|0:1,0:1:0:0:
415,384,65625,70,0,P|421:307|430:240,1,135.000005149842,2|8,0:1|0:1,0:1:0:0:
465,119,67345,2,0,P|427:149|352:128,1,101.250003862381,2|2,0:1|0:1,0:1:0:0:
307,101,68186,1,8,0:1:0:0:
396,36,68647,1,2,0:1:0:0:
206,32,69045,6,0,P|215:89|221:176,1,135.000005149842,2|8,0:1|0:1,0:1:0:0:
119,240,70314,1,2,0:1:0:0:
38,110,70764,2,0,P|72:118|116:120,1,67.5000025749208,2|2,0:1|0:1,0:1:0:0:
249,193,71607,1,8,0:1:0:0:
249,193,71827,2,0,L|256:240,1,33.7500012874604,8|2,0:1|0:1,0:1:0:0:
376,52,72492,70,0,L|372:205,1,135.000005149842,2|8,0:1|0:1,0:1:0:0:
470,352,74230,2,0,P|480:298|479:238,1,101.250003862381,2|2,0:2|0:1,0:1:0:0:
460,172,75043,1,8,0:1:0:0:
304,216,75478,1,2,0:1:0:0:
134,129,75902,6,0,L|149:264,1,135.000005149842,4|2,0:1|0:1,0:1:0:0:
275,48,77641,2,0,L|260:182,1,135.000005149842,4|8,0:1|0:1,0:1:0:0:
149,264,78895,1,2,0:1:0:0:
294,357,79346,69,2,0:1:0:0:
294,357,79552,2,0,L|382:347,1,67.5000025749208,2|2,0:1|0:1,0:1:0:0:
441,337,80195,1,8,0:1:0:0:
356,174,80623,1,2,0:1:0:0:
445,39,81061,2,0,P|372:22|336:70,1,135.000005149842,2|8,0:1|0:1,0:1:0:0:
468,157,82339,1,2,0:1:0:0:
370,286,82765,5,2,0:2:0:0:
239,189,83202,2,0,L|233:142,1,33.7500012874604,2|2,0:1|0:1,0:1:0:0:
224,75,83640,1,8,0:1:0:0:
31,32,84079,1,8,0:1:0:0:
81,222,84495,1,4,0:1:0:0:
256,192,84707,12,0,87473,0:1:0:0:
3,45,87925,22,0,P|85:59|207:75,1,180.000006866455,4|2,0:1|0:1,0:1:0:0:
210,179,88353,1,8,0:1:0:0:
87,238,88496,2,0,P|75:202|79:141,1,90.0000034332277,2|2,0:1|0:1,0:1:0:0:
317,96,88782,2,0,P|299:183|286:280,1,180.000006866455,2|2,0:1|0:1,0:1:0:0:
314,378,89210,1,8,0:1:0:0:
464,203,89353,2,0,P|468:248|476:298,1,90.0000034332277,2|2,0:1|0:1,0:1:0:0:
316,95,89617,22,0,B|419:112|384:50|489:68,1,180.000006866455,2|2,0:1|0:1,0:1:0:0:
215,35,90045,1,8,0:1:0:0:
280,186,90188,2,0,P|292:242|294:298,1,90.0000034332277,2|2,0:1|0:1,0:1:0:0:
129,384,90474,2,0,P|137:315|139:249,1,135.000005149842,8|0,0:1|0:1,0:1:0:0:
159,198,90759,2,0,P|114:203|75:182,1,90.0000034332277,8|2,0:1|0:1,0:1:0:0:
100,55,91045,2,0,P|144:49|183:70,1,90.0000034332277,2|2,0:1|0:1,0:1:0:0:
32,291,91331,54,0,P|21:202|4:114,1,180.000006866455,4|2,0:1|0:1,0:1:0:0:
35,11,91759,1,8,0:1:0:0:
182,69,91902,2,0,P|174:113|162:156,1,90.0000034332277,2|2,0:1|0:1,0:1:0:0:
32,291,92188,2,0,P|81:355|181:331,1,180.000006866455,2|2,0:1|0:1,0:1:0:0:
231,255,92617,1,8,0:1:0:0:
348,369,92759,2,0,P|353:324|356:279,1,90.0000034332277,2|2,0:1|0:1,0:1:0:0:
471,108,93045,22,0,P|482:197|490:286,1,180.000006866455,8|2,0:1|0:1,0:1:0:0:
356,279,93474,1,8,0:1:0:0:
457,202,93617,1,2,0:1:0:0:
448,382,93759,1,2,0:1:0:0:
243,339,93902,2,0,P|174:322|103:315,1,135.000005149842,8|0,0:1|0:1,0:1:0:0:
57,326,94188,2,0,P|77:278|80:227,1,90.0000034332277,8|2,0:1|0:1,0:1:0:0:
98,67,94474,1,8,0:1:0:0:
109,47,94759,54,0,P|20:66|18:157,1,180.000006866455,4|2,0:1|0:1,0:1:0:0:
104,222,95188,1,8,0:1:0:0:
217,112,95331,2,0,P|221:67|229:22,1,90.0000034332277,2|2,0:1|0:1,0:1:0:0:
300,196,95617,2,0,P|316:288|326:386,1,180.000006866455,2|2,0:1|0:1,0:1:0:0:
397,129,96045,1,8,0:1:0:0:
512,205,96188,2,0,P|466:217|421:224,1,90.0000034332277,2|2,0:1|0:1,0:1:0:0:
358,30,96474,22,0,P|460:38|474:118,1,180.000006866455,2|2,0:1|0:1,0:1:0:0:
319,168,96902,1,8,0:1:0:0:
195,67,97045,2,0,P|202:111|207:156,1,90.0000034332277,2|2,0:1|0:1,0:1:0:0:
43,263,97331,2,0,P|99:302|170:275,1,135.000005149842,8|0,0:1|0:1,0:1:0:0:
208,261,97617,2,0,P|200:305|195:350,1,90.0000034332277,8|2,0:1|0:1,0:1:0:0:
330,256,97902,2,0,P|325:211|318:167,1,90.0000034332277,2|2,0:1|0:1,0:1:0:0:
307,373,98188,54,0,P|400:351|484:347,1,180.000006866455,4|2,0:1|0:1,0:1:0:0:
330,256,98617,1,8,0:1:0:0:
444,204,98759,1,2,0:1:0:0:
389,350,98902,1,2,0:1:0:0:
208,261,99045,2,0,P|199:209|198:157,1,90.0000034332277,8|2,0:1|0:1,0:1:0:0:
331,257,99331,1,8,0:1:0:0:
195,371,99474,1,2,0:1:0:0:
195,371,99545,1,2,0:1:0:0:
195,371,99617,2,0,P|115:359|40:352,1,135.000005149842,2|0,0:1|0:1,0:1:0:0:
15,323,99902,22,0,P|-3:282|0:237,1,90.0000034332277,2|2,0:1|0:1,0:1:0:0:
107,118,100188,2,0,P|125:158|122:203,1,90.0000034332277,2|2,0:1|0:1,0:1:0:0:
0,89,100474,1,8,0:1:0:0:
122,203,100617,1,2,0:1:0:0:
244,37,100759,2,0,P|197:22|140:32,1,90.0000034332277,8|2,0:1|0:1,0:1:0:0:
319,140,101045,1,8,0:1:0:0:
404,14,101188,1,2,0:1:0:0:
211,142,101331,2,0,P|216:209|218:248,1,90.0000034332277,8|2,0:1|0:1,0:1:0:0:
391,383,101617,54,0,P|399:291|407:200,1,180.000006866455,4|2,0:1|0:1,0:1:0:0:
508,166,102045,1,8,0:1:0:0:
492,4,102188,2,0,P|447:11|403:13,1,90.0000034332277,2|2,0:1|0:1,0:1:0:0:
319,140,102474,2,0,P|232:112|134:104,1,180.000006866455,2|2,0:1|0:1,0:1:0:0:
173,0,102902,1,8,0:1:0:0:
29,135,103045,2,0,P|21:91|9:48,1,90.0000034332277,2|2,0:1|0:1,0:1:0:0:
191,204,103331,22,0,P|218:284|151:336,1,180.000006866455,2|2,0:1|0:1,0:1:0:0:
76,236,103759,1,8,0:1:0:0:
191,204,103902,1,2,0:1:0:0:
29,135,104045,1,2,0:1:0:0:
62,340,104188,2,0,P|130:324|198:319,1,135.000005149842,8|0,0:1|0:1,0:1:0:0:
243,295,104474,2,0,P|233:363|231:409,1,90.0000034332277,8|2,0:1|0:1,0:1:0:0:
191,204,104759,1,2,0:1:0:0:
191,204,104902,1,2,0:1:0:0:
317,88,105045,54,0,P|397:85|436:168,1,180.000006866455,4|2,0:1|0:1,0:1:0:0:
355,251,105474,1,8,0:1:0:0:
426,374,105617,2,0,P|471:376|519:356,1,90.0000034332277,2|2,0:1|0:1,0:1:0:0:
243,295,105902,2,0,P|249:341|255:410,1,90.0000034332277,8|2,0:1|0:1,0:1:0:0:
116,186,106188,2,0,P|109:230|105:275,1,90.0000034332277,2|2,0:1|0:1,0:1:0:0:
203,121,106474,1,8,0:1:0:0:
40,65,106617,1,8,0:1:0:0:
290,41,106759,22,0,P|303:121|309:207,1,135.000005149842,4|0,0:1|0:1,0:1:0:0:
306,228,107045,2,0,P|348:249|396:245,1,90.0000034332277,2|8,0:1|0:1,0:1:0:0:
504,90,107331,2,0,L|411:106,1,90.0000034332277,2|2,0:1|0:1,0:1:0:0:
490,204,107617,1,8,0:1:0:0:
403,24,107760,1,8,0:1:0:0:
307,174,107902,1,2,0:1:0:0:
504,90,108045,1,2,0:1:0:0:
301,83,108188,1,2,0:1:0:0:
390,246,108331,1,2,0:1:0:0:
159,367,108474,54,0,P|168:272|180:175,1,180.000006866455,4|2,0:1|0:1,0:1:0:0:
213,78,108902,1,8,0:1:0:0:
46,120,109045,2,0,P|51:165|55:219,1,90.0000034332277,2|2,0:1|0:1,0:1:0:0:
159,367,109331,2,0,P|97:298|19:326,1,180.000006866455,8|2,0:1|0:1,0:1:0:0:
81,374,109759,1,8,0:1:0:0:
221,280,109902,1,2,0:1:0:0:
54,209,110045,1,2,0:1:0:0:
318,186,110188,22,0,P|310:275|307:365,1,180.000006866455,4|2,0:1|0:1,0:1:0:0:
414,381,110617,1,8,0:1:0:0:
493,239,110759,2,0,P|480:180|472:126,1,90.0000034332277,2|2,0:1|0:1,0:1:0:0:
338,35,111045,2,0,B|399:60|399:60|515:24,1,180.000006866455,8|8,0:1|0:1,0:1:0:0:
261,115,111474,1,2,0:1:0:0:
475,150,111617,1,8,0:1:0:0:
350,232,111759,1,2,0:1:0:0:
338,35,111902,54,0,P|352:116|364:225,1,180.000006866455,4|2,0:1|0:1,0:1:0:0:
306,365,112331,1,8,0:1:0:0:
468,260,112474,1,2,0:1:0:0:
468,260,112545,1,2,0:1:0:0:
468,260,112617,1,2,0:1:0:0:
261,115,112759,2,0,P|186:131|170:189,1,135.000005149842,8|0,0:1|0:1,0:1:0:0:
176,233,113045,2,0,P|130:260|80:252,1,90.0000034332277,8|2,0:1|0:1,0:1:0:0:
44,236,113259,1,2,0:1:0:0:
44,236,113331,1,2,0:1:0:0:
104,134,113474,1,8,0:1:0:0:
166,340,113617,22,0,P|215:341|261:346,1,90.0000034332277,2|2,0:1|0:1,0:1:0:0:
385,233,113902,1,8,0:1:0:0:
266,237,114045,1,2,0:1:0:0:
456,384,114188,2,0,P|471:341|478:278,1,90.0000034332277,2|2,0:1|0:1,0:1:0:0:
372,143,114474,2,0,L|386:246,1,90.0000034332277,8|2,0:1|0:1,0:1:0:0:
505,7,114759,2,0,L|491:110,1,90.0000034332277,8|2,0:1|0:1,0:1:0:0:
492,96,114974,1,2,0:1:0:0:
492,96,115045,1,8,0:1:0:0:
342,35,115188,1,2,0:1:0:0:
256,196,115331,54,0,B|152:219|180:156|74:181,1,180.000006866455,6|2,0:1|0:1,0:1:0:0:
9,260,115759,1,8,0:1:0:0:
118,371,115902,2,0,L|113:281,1,90.0000034332277,2|2,0:1|0:1,0:1:0:0:
241,115,116188,2,0,P|329:155|325:241,1,180.000006866455,8|8,0:1|0:1,0:1:0:0:
249,300,116617,1,8,0:1:0:0:
381,373,116759,2,0,P|425:364|484:363,1,90.0000034332277,2|2,0:1|0:1,0:1:0:0:
509,249,117045,22,0,P|416:245|325:226,1,180.000006866455,4|2,0:1|0:1,0:1:0:0:
299,123,117474,1,8,0:1:0:0:
171,181,117617,2,0,P|165:226|167:271,1,90.0000034332277,2|2,0:1|0:1,0:1:0:0:
210,46,117902,2,0,P|141:8|78:30,1,135.000005149842,8|0,0:1|0:1,0:1:0:0:
44,49,118188,2,0,P|39:93|40:138,1,90.0000034332277,8|2,0:1|0:1,0:1:0:0:
167,271,118474,1,2,0:1:0:0:
53,240,118617,1,2,0:1:0:0:
244,130,118759,54,0,P|317:122|434:118,1,180.000006866455,4|2,0:1|0:1,0:1:0:0:
503,45,119188,1,8,0:1:0:0:
366,2,119330,1,2,0:1:0:0:
442,130,119474,1,2,0:1:0:0:
287,254,119617,2,0,P|213:183|263:121,1,180.000006866455,8|2,0:1|0:1,0:1:0:0:
392,296,120045,2,0,P|383:340|380:389,1,90.0000034332277,8|2,0:1|0:1,0:1:0:0:
478,231,120331,1,2,0:1:0:0:
279,363,120474,22,0,B|182:380|211:312|105:329,1,180.000006866455,4|8,0:1|0:1,0:1:0:0:
0,192,120902,1,2,0:1:0:0:
112,161,121045,1,2,0:1:0:0:
0,301,121188,1,2,0:1:0:0:
195,384,121331,2,0,P|203:309|222:204,1,180.000006866455,8|8,0:1|0:1,0:1:0:0:
342,47,121759,1,2,0:1:0:0:
496,180,121902,2,0,P|490:135|480:92,1,90.0000034332277,2|2,0:1|0:1,0:1:0:0:
366,34,122188,54,0,P|449:64|497:-5,1,180.000006866455,4|2,0:1|0:1,0:1:0:0:
247,13,122617,1,8,0:1:0:0:
288,119,122759,2,0,P|280:166|277:224,1,90.0000034332277,2|2,0:1|0:1,0:1:0:0:
134,354,123045,2,0,P|120:273|115:174,1,180.000006866455,2|8,0:1|0:1,0:1:0:0:
182,88,123474,1,2,0:1:0:0:
88,0,123617,2,0,P|42:11|0:15,1,90.0000034332277,2|2,0:1|0:1,0:1:0:0:
0,187,123902,22,0,P|65:160|153:230,1,180.000006866455,12|2,0:1|0:1,0:1:0:0:
23,349,124331,1,8,0:1:0:0:
64,253,124474,1,2,0:1:0:0:
154,384,124617,1,2,0:1:0:0:
264,236,124759,2,0,P|271:173|287:92,1,135.000005149842,8|0,0:1|0:1,0:1:0:0:
276,49,125045,2,0,P|319:75|370:73,1,90.0000034332277,8|2,0:1|0:1,0:1:0:0:
497,55,125331,1,2,0:1:0:0:
339,0,125474,1,2,0:1:0:0:
466,177,125617,54,0,P|474:243|485:357,1,180.000006866455,4|2,0:1|0:1,0:1:0:0:
338,333,126045,1,8,0:1:0:0:
439,250,126188,1,2,0:1:0:0:
271,187,126331,1,2,0:1:0:0:
150,360,126474,2,0,P|154:303|151:215,1,135.000005149842,8|0,0:1|0:1,0:1:0:0:
129,175,126759,2,0,P|86:152|38:164,1,90.0000034332277,2|8,0:1|0:1,0:1:0:0:
15,203,126974,1,2,0:1:0:0:
15,203,127045,1,2,0:1:0:0:
79,295,127188,1,8,0:1:0:0:
271,187,127331,21,4,0:1:0:0:
184,94,127474,1,2,0:1:0:0:
400,155,127617,2,0,L|395:265,1,90.0000034332277,8|2,0:1|0:1,0:1:0:0:
197,381,127902,2,0,L|202:271,1,90.0000034332277,8|2,0:1|0:1,0:1:0:0:
308,95,128188,1,2,0:1:0:0:
173,194,128331,1,2,0:1:0:0:
333,311,128474,1,2,0:1:0:0:
173,194,128617,1,2,0:1:0:0:
421,140,128759,2,0,P|432:93|434:28,1,90.0000034332277,8|2,0:1|0:1,0:1:0:0:
158,14,129045,54,0,L|173:197,1,180.000006866455,4|2,0:1|0:1,0:1:0:0:
230,321,129474,2,0,P|180:315|116:300,1,90.0000034332277,8|2,0:1|0:1,0:1:0:0:
61,222,129759,1,2,0:1:0:0:
233,66,129902,2,0,P|245:150|158:191,1,180.000006866455,8|2,0:1|0:1,0:1:0:0:
54,120,130331,1,8,0:1:0:0:
233,66,130474,2,0,P|281:56|336:53,1,90.0000034332277,2|2,0:1|0:1,0:1:0:0:
455,197,130759,22,0,P|370:179|274:174,1,180.000006866455,4|2,0:1|0:1,0:1:0:0:
171,193,131188,1,8,0:1:0:0:
269,369,131331,2,0,P|275:323|285:275,1,90.0000034332277,2|2,0:1|0:1,0:1:0:0:
455,197,131617,2,0,P|440:112|429:62,1,135.000005149842,8|0,0:1|0:1,0:1:0:0:
407,14,131902,2,0,P|445:37|497:33,1,90.0000034332277,8|2,0:1|0:1,0:1:0:0:
277,173,132188,2,0,P|288:119|291:83,1,90.0000034332277,8|2,0:1|0:1,0:1:0:0:
109,3,132474,54,0,P|35:31|45:123,1,180.000006866455,4|2,0:1|0:1,0:1:0:0:
195,60,132902,1,8,0:1:0:0:
120,187,133045,2,0,P|111:233|106:295,1,90.0000034332277,2|2,0:1|0:1,0:1:0:0:
240,376,133331,2,0,B|348:392|308:341|424:359,1,180.000006866455,8|8,0:1|0:1,0:1:0:0:
276,274,133759,1,2,0:1:0:0:
412,184,133902,1,2,0:1:0:0:
356,326,134044,1,2,0:1:0:0:
245,127,134188,22,0,B|281:69|274:12|274:12|285:47|324:65,1,180.000006866455,4|2,0:1|0:1,0:1:0:0:
512,176,134617,2,0,P|423:159|333:157,1,180.000006866455,8|2,0:1|0:1,0:1:0:0:
475,0,135045,2,0,P|503:46|495:101,1,90.0000034332277,8|2,0:1|0:1,0:1:0:0:
333,157,135331,1,2,0:1:0:0:
412,65,135474,1,2,0:1:0:0:
394,292,135617,2,0,P|339:285|293:272,1,90.0000034332277,8|2,0:1|0:1,0:1:0:0:
99,323,135902,54,0,P|191:292|167:198,1,180.000006866455,4|2,0:1|0:1,0:1:0:0:
93,173,136331,1,8,0:1:0:0:
14,293,136474,2,0,P|3:347|-2:397,1,90.0000034332277,2|2,0:1|0:1,0:1:0:0:
189,221,136759,2,0,P|177:131|158:43,1,180.000006866455,8|2,0:1|0:1,0:1:0:0:
59,1,137188,1,8,0:1:0:0:
4,187,137331,2,0,P|42:183|93:172,1,90.0000034332277,2|2,0:1|0:1,0:1:0:0:
276,353,137617,22,0,P|186:333|96:322,1,180.000006866455,4|2,0:1|0:1,0:1:0:0:
189,221,138045,1,8,0:1:0:0:
83,344,138188,1,8,0:1:0:0:
92,172,138331,1,2,0:1:0:0:
317,183,138474,2,0,P|326:277|301:315,1,135.000005149842,8|0,0:1|0:1,0:1:0:0:
276,353,138759,2,0,P|321:342|372:338,1,90.0000034332277,2|8,0:1|0:1,0:1:0:0:
512,367,139045,1,2,0:1:0:0:
431,238,139187,1,2,0:1:0:0:
512,51,139331,53,4,0:1:0:0:
512,51,139402,1,2,0:1:0:0:
512,51,139474,1,2,0:1:0:0:
364,96,139617,2,0,P|314:87|275:72,1,90.0000034332277,2|2,0:1|0:1,0:1:0:0:
149,216,139902,1,2,0:1:0:0:
259,194,140045,1,2,0:1:0:0:
83,38,140188,2,0,P|58:72|63:127,1,90.0000034332277,8|2,0:1|0:1,0:1:0:0:
184,0,140473,1,8,0:1:0:0:
184,0,140544,1,8,0:1:0:0:
184,0,140616,1,8,0:1:0:0:
148,215,140759,2,0,P|106:223|59:227,1,90.0000034332277,2|2,0:1|0:1,0:1:0:0:
277,73,141045,21,12,0:1:0:0:
256,228,141188,1,2,0:1:0:0:
435,303,141331,2,0,L|423:193,1,90.0000034332277,8|2,0:1|0:1,0:1:0:0:
490,2,141617,2,0,L|502:112,1,90.0000034332277,8|2,0:1|0:1,0:1:0:0:
277,73,141902,1,2,0:1:0:0:
400,117,142045,1,2,0:1:0:0:
231,204,142188,1,2,0:1:0:0:
151,16,142331,1,2,0:1:0:0:
342,221,142474,2,0,P|335:264|330:324,1,90.0000034332277,8|2,0:1|0:1,0:1:0:0:
163,384,142759,53,4,0:1:0:0:
163,384,142830,1,2,0:1:0:0:
163,384,142902,1,2,0:1:0:0:
0,219,143045,1,2,0:1:0:0:
155,157,143188,1,2,0:1:0:0:
71,354,143331,1,2,0:1:0:0:
93,315,143402,1,2,0:1:0:0:
131,292,143473,1,2,0:1:0:0:
176,289,143545,1,2,0:1:0:0:
216,307,143617,21,8,0:1:0:0:
342,221,143759,1,2,0:1:0:0:
141,68,143902,2,0,P|143:114|159:167,1,90.0000034332277,8|2,0:1|0:1,0:1:0:0:
379,89,144188,2,0,L|393:-15,1,90.0000034332277,8|2,0:1|0:1,0:1:0:0:
477,271,144474,53,12,0:1:0:0:
278,167,144617,1,8,0:1:0:0:
458,109,144759,1,8,0:1:0:0:
373,346,144902,1,2,0:1:0:0:
328,354,144974,1,2,0:1:0:0:
284,352,145045,1,2,0:1:0:0:
242,335,145117,1,2,0:1:0:0:
201,318,145188,1,2,0:1:0:0:
156,318,145259,1,2,0:1:0:0:
115,335,145331,22,0,P|132:284|131:238,1,90.0000034332277,14|2,0:1|0:1,0:1:0:0:
0,137,145617,2,0,L|14:233,1,90.0000034332277,12|2,0:1|0:1,0:1:0:0:
290,256,145902,2,0,L|276:160,1,90.0000034332277,2|8,0:1|0:1,0:1:0:0:
83,0,146188,22,0,P|80:77|125:99,1,135.000005149842,4|8,0:1|0:1,0:1:0:0:
189,159,147244,2,0,P|222:147|242:142,1,33.7500012874604,2|2,0:1|0:1,0:1:0:0:
333,127,147645,1,8,0:1:0:0:
270,217,147885,2,0,P|262:231|254:252,2,33.7500012874604,2|2|2,0:1|0:1|0:1,0:1:0:0:
333,127,148741,1,8,0:1:0:0:
344,261,149165,1,2,0:1:0:0:
492,175,149609,69,2,0:1:0:0:
344,261,150466,1,8,0:1:0:0:
332,126,151324,2,0,L|339:59,1,67.5000025749208,2|8,0:1|0:1,0:1:0:0:
269,17,151961,1,2,0:1:0:0:
195,107,152169,2,0,L|201:174,1,67.5000025749208,8|2,0:1|0:1,0:1:0:0:
100,69,153047,5,2,0:1:0:0:
100,69,153885,1,8,0:1:0:0:
43,127,154119,2,0,L|-10:120,2,33.7500012874604,2|2|8,0:1|0:1|0:1,0:1:0:0:
100,69,154766,1,2,0:1:0:0:
239,139,155396,1,2,0:1:0:0:
201,210,155604,2,0,L|206:245,2,33.7500012874604,8|8|2,0:1|0:1|0:1,0:1:0:0:
90,309,156467,69,2,0:1:0:0:
239,245,157324,1,2,0:1:0:0:
90,309,158181,2,0,L|91:346,2,33.7500012874604,8|8|2,0:1|0:1|0:1,0:1:0:0:
199,377,159040,2,0,L|199:340,2,33.7500012874604,8|2|2,0:1|0:1|0:1,0:1:0:0:
239,245,159888,6,0,B|315:232|294:282|371:269,1,135.000005149842,4|8,0:1|0:1,0:1:0:0:
470,311,161622,2,0,P|477:330|485:363,2,33.7500012874604,2|2|2,0:1|0:1|0:1,0:1:0:0:
448,205,162443,2,0,L|464:116,1,67.5000025749208,8|2,0:1|0:1,0:1:0:0:
367,33,163333,70,0,P|302:39|285:102,1,135.000005149842,4|2,0:1|0:1,0:1:0:0:
316,198,165057,2,0,P|283:211|232:219,1,67.5000025749208,8|2,0:1|0:1,0:1:0:0:
182,174,165700,1,2,0:1:0:0:
108,207,165906,2,0,P|103:235|101:262,2,33.7500012874604,8|8|2,0:1|0:1|0:1,0:1:0:0:
25,67,166762,6,0,B|75:84|75:84|160:57,1,135.000005149842,4|8,0:1|0:1,0:1:0:0:
278,0,168036,1,2,0:1:0:0:
346,117,168475,2,0,L|339:159,1,33.7500012874604,8|8,0:1|0:1,0:1:0:0:
436,105,168891,2,0,L|424:74,1,33.7500012874604,2|2,0:1|0:1,0:1:0:0:
501,163,169335,2,0,L|490:212,1,33.7500012874604,8|8,0:1|0:1,0:1:0:0:
391,211,169764,1,2,0:1:0:0:
391,211,170190,70,0,P|343:224|277:231,1,101.250003862381,4|2,0:1|0:1,0:1:0:0:
216,200,171050,1,8,0:1:0:0:
282,308,171478,1,2,0:1:0:0:
152,370,171907,1,2,0:1:0:0:
152,370,172121,2,0,L|162:284,1,67.5000025749208,2|2,0:1|0:1,0:1:0:0:
84,272,172760,2,0,L|73:187,1,67.5000025749208,8|2,0:1|0:1,0:1:0:0:
77,53,173615,6,0,P|123:62|184:64,1,101.250003862381,4|2,0:1|0:1,0:1:0:0:
255,44,174460,2,0,L|261:131,1,67.5000025749208,8|2,0:1|0:1,0:1:0:0:
363,192,175329,1,2,0:1:0:0:
422,136,175537,2,0,L|476:128,2,33.7500012874604,8|2|2,0:1|0:1|0:1,0:1:0:0:
363,192,176188,2,0,L|357:279,1,67.5000025749208,8|2,0:1|0:1,0:1:0:0:
450,355,177054,70,0,B|378:318|390:377|318:341,1,135.000005149842,2|8,0:1|0:1,0:1:0:0:
259,233,178769,1,8,0:1:0:0:
218,302,178982,2,0,P|215:325|214:343,2,33.7500012874604,8|2|2,0:1|0:1|0:1,0:1:0:0:
259,233,179628,2,0,P|296:217|337:222,1,67.5000025749208,8|2,0:1|0:1,0:1:0:0:
400,242,180267,1,2,0:1:0:0:
455,152,180472,6,0,P|443:83|433:11,1,135.000005149842,4|8,0:1|0:1,0:1:0:0:
328,0,181741,1,2,0:1:0:0:
352,104,182191,2,0,P|308:104|266:88,1,67.5000025749208,2|2,0:1|0:1,0:1:0:0:
219,50,182829,1,2,0:1:0:0:
149,129,183042,2,0,P|144:201|149:222,1,67.5000025749208,8|2,0:1|0:1,0:1:0:0:
44,193,183918,70,0,P|56:238|66:307,1,101.250003862381,4|2,0:1|0:1,0:1:0:0:
71,372,184754,1,8,0:1:0:0:
173,319,185182,1,2,0:1:0:0:
289,351,185611,2,0,B|371:375|345:319|429:343,1,135.000005149842,2|2,0:1|0:1,0:1:0:0:
497,360,186468,1,8,0:1:0:0:
477,281,186896,1,8,0:1:0:0:
477,281,187335,6,0,L|463:140,1,135.000005149842,4|2,0:1|0:1,0:1:0:0:
380,18,189049,1,2,0:1:0:0:
369,98,189251,2,0,L|362:155,2,33.7500012874604,8|2|2,0:1|0:1|0:1,0:1:0:0:
280,160,189905,2,0,L|295:245,1,67.5000025749208,8|2,0:1|0:1,0:1:0:0:
217,318,190770,70,0,P|158:300|75:288,1,135.000005149842,4|8,0:1|0:1,0:1:0:0:
23,197,192477,1,8,0:1:0:0:
23,197,192661,2,0,L|77:184,1,33.7500012874604,8|2,0:1|0:1,0:1:0:0:
156,110,193334,2,0,L|162:177,1,67.5000025749208,2|2,0:1|0:1,0:1:0:0:
259,216,194190,6,0,L|240:353,1,135.000005149842,4|2,0:1|0:1,0:1:0:0:
368,250,195904,2,0,L|387:384,1,135.000005149842,4|8,0:1|0:1,0:1:0:0:
334,139,197174,1,2,0:1:0:0:
439,193,197621,69,8,0:1:0:0:
439,193,197807,2,0,P|441:233|441:249,2,33.7500012874604,2|2|2,0:1|0:1|0:1,0:1:0:0:
483,118,198477,1,8,0:1:0:0:
394,47,198911,1,2,0:1:0:0:
307,126,199335,2,0,L|320:271,1,135.000005149842,4|2,0:1|0:1,0:1:0:0:
191,355,200607,1,8,0:1:0:0:
109,215,201036,6,0,L|172:210,1,33.7500012874604,8|8,0:1|0:1,0:1:0:0:
223,204,201477,1,2,0:1:0:0:
312,69,201895,2,0,L|220:51,1,67.5000025749208,2|2,0:1|0:1,0:1:0:0:
85,32,202777,1,4,0:1:0:0:
256,192,202997,12,0,205865,0:1:0:0:
343,374,206192,22,0,P|347:273|358:178,1,180.000006866455,4|2,0:1|0:1,0:1:0:0:
434,121,206620,1,8,0:1:0:0:
253,71,206763,1,2,0:1:0:0:
370,215,206906,1,2,0:1:0:0:
184,288,207049,2,0,B|85:320|111:249|2:280,1,180.000006866455,8|8,0:1|0:1,0:1:0:0:
49,378,207477,1,2,0:1:0:0:
184,288,207620,2,0,P|192:232|199:193,1,90.0000034332277,2|2,0:1|0:1,0:1:0:0:
53,9,207906,22,0,P|64:92|74:189,1,180.000006866455,4|2,0:1|0:1,0:1:0:0:
182,36,208334,1,8,0:1:0:0:
80,115,208477,1,2,0:1:0:0:
218,211,208620,1,2,0:1:0:0:
325,51,208763,2,0,P|401:45|430:103,1,135.000005149842,8|0,0:1|0:1,0:1:0:0:
430,142,209049,2,0,P|413:194|409:247,1,90.0000034332277,8|2,0:1|0:1,0:1:0:0:
489,384,209334,2,0,P|506:332|510:279,1,90.0000034332277,2|2,0:1|0:1,0:1:0:0:
235,316,209620,54,0,B|292:326|292:326|356:314|356:314|412:323,1,180.000006866455,4|2,0:1|0:1,0:1:0:0:
285,219,210049,1,8,0:1:0:0:
150,378,210192,2,0,P|143:327|124:270,1,90.0000034332277,2|2,0:1|0:1,0:1:0:0:
118,74,210477,2,0,P|182:81|197:183,1,180.000006866455,8|8,0:1|0:1,0:1:0:0:
92,189,210906,1,2,0:1:0:0:
247,122,211049,1,2,0:1:0:0:
25,74,211192,1,2,0:1:0:0:
69,297,211334,22,0,B|157:274|263:283,1,180.000006866455,4|2,0:1|0:1,0:1:0:0:
336,213,211763,1,8,0:1:0:0:
247,122,211906,1,2,0:1:0:0:
412,65,212049,1,2,0:1:0:0:
415,281,212192,2,0,P|359:317|293:313,1,135.000005149842,8|0,0:1|0:1,0:1:0:0:
247,281,212477,2,0,P|238:326|235:396,1,90.0000034332277,2|2,0:1|0:1,0:1:0:0:
414,371,212763,1,2,0:1:0:0:
336,213,212906,1,2,0:1:0:0:
429,383,213049,54,0,P|506:328|506:241,1,180.000006866455,4|2,0:1|0:1,0:1:0:0:
433,172,213477,1,8,0:1:0:0:
511,56,213620,2,0,P|466:53|422:45,1,90.0000034332277,2|2,0:1|0:1,0:1:0:0:
297,0,213906,2,0,P|309:65|318:181,1,180.000006866455,2|8,0:1|0:1,0:1:0:0:
209,217,214334,1,2,0:1:0:0:
139,40,214477,1,2,0:1:0:0:
274,109,214620,1,2,0:1:0:0:
120,271,214763,22,0,P|204:324|280:296,1,180.000006866455,4|2,0:1|0:1,0:1:0:0:
209,217,215192,1,8,0:1:0:0:
4,285,215334,2,0,P|-1:337|0:374,1,90.0000034332277,8|2,0:1|0:1,0:1:0:0:
173,374,215620,1,8,0:1:0:0:
4,285,215763,1,8,0:1:0:0:
170,139,215906,1,8,0:1:0:0:
120,271,216049,1,2,0:1:0:0:
42,153,216192,1,2,0:1:0:0:
248,257,216334,1,2,0:1:0:0:
275,42,216477,54,0,P|175:77|192:172,1,180.000006866455,4|2,0:1|0:1,0:1:0:0:
329,133,216906,1,8,0:1:0:0:
204,4,217049,1,2,0:1:0:0:
407,54,217192,1,2,0:1:0:0:
337,249,217334,2,0,P|288:255|228:256,1,90.0000034332277,8|8,0:1|0:1,0:1:0:0:
329,133,217620,1,2,0:1:0:0:
412,338,217763,1,2,0:1:0:0:
448,191,217906,1,2,0:1:0:0:
247,256,218049,1,2,0:1:0:0:
119,53,218192,22,0,P|114:99|114:147,1,90.0000034332277,4|2,0:1|0:1,0:1:0:0:
113,142,218406,1,2,0:1:0:0:
113,142,218477,1,8,0:1:0:0:
224,91,218620,1,8,0:1:0:0:
9,24,218763,1,2,0:1:0:0:
140,249,218906,1,2,0:1:0:0:
139,26,219049,53,8,0:1:0:0:
0,169,219192,1,8,0:1:0:0:
247,256,219334,1,2,0:1:0:0:
113,142,219477,1,2,0:1:0:0:
14,383,219620,2,0,P|4:344|0:282,1,90.0000034332277,8|2,0:1|0:1,0:1:0:0:
279,126,219906,22,0,P|312:203|247:256,1,180.000006866455,4|2,0:1|0:1,0:1:0:0:
175,97,220334,1,8,0:1:0:0:
309,18,220477,2,0,P|363:30|416:34,1,90.0000034332277,2|2,0:1|0:1,0:1:0:0:
498,157,220763,2,0,P|407:168|318:189,1,180.000006866455,8|2,0:1|0:1,0:1:0:0:
357,377,221192,1,8,0:1:0:0:
399,204,221334,1,2,0:1:0:0:
492,323,221477,1,2,0:1:0:0:
214,258,221620,54,0,B|206:198|206:198|225:143|225:143|209:58,1,180.000006866455,4|2,0:1|0:1,0:1:0:0:
113,2,222049,1,8,0:1:0:0:
34,152,222192,2,0,P|78:151|123:141,1,90.0000034332277,2|2,0:1|0:1,0:1:0:0:
3,50,222477,1,8,0:1:0:0:
79,258,222620,1,2,0:1:0:0:
213,82,222763,1,8,0:1:0:0:
15,173,222906,1,2,0:1:0:0:
113,2,223049,1,2,0:1:0:0:
176,216,223192,1,2,0:1:0:0:
0,359,223334,22,0,B|97:395|80:326|175:361,1,180.000006866455,4|2,0:1|0:1,0:1:0:0:
280,307,223763,1,8,0:1:0:0:
184,127,223906,2,0,P|172:178|182:237,1,90.0000034332277,2|2,0:1|0:1,0:1:0:0:
382,371,224192,2,0,L|393:264,1,90.0000034332277,8|2,0:1|0:1,0:1:0:0:
305,47,224477,2,0,L|294:154,1,90.0000034332277,8|2,0:1|0:1,0:1:0:0:
485,16,224763,1,2,0:1:0:0:
322,61,224906,1,2,0:1:0:0:
469,150,225049,54,0,B|493:197|467:267|467:267|484:300|527:305,1,180.000006866455,4|2,0:1|0:1,0:1:0:0:
382,371,225477,2,0,B|304:339|190:347,1,180.000006866455,8|2,0:1|0:1,0:1:0:0:
80,258,225906,2,0,P|126:251|172:237,1,90.0000034332277,8|2,0:1|0:1,0:1:0:0:
287,70,226192,1,2,0:1:0:0:
145,124,226334,1,2,0:1:0:0:
346,175,226477,2,0,L|356:297,1,90.0000034332277,8|2,0:1|0:1,0:1:0:0:
490,38,226763,22,0,L|474:224,1,180.000006866455,4|2,0:1|0:1,0:1:0:0:
423,331,227192,1,8,0:1:0:0:
315,164,227334,1,2,0:1:0:0:
504,229,227477,1,2,0:1:0:0:
276,325,227620,2,0,P|215:291|137:289,1,135.000005149842,8|0,0:1|0:1,0:1:0:0:
97,295,227906,2,0,P|89:336|89:402,1,90.0000034332277,2|2,0:1|0:1,0:1:0:0:
0,219,228192,1,8,0:1:0:0:
201,177,228334,1,2,0:1:0:0:
30,40,228477,54,0,B|102:61|102:61|207:18,1,180.000006866455,4|2,0:1|0:1,0:1:0:0:
324,0,228906,1,8,0:1:0:0:
277,193,229049,1,8,0:1:0:0:
212,36,229192,1,2,0:1:0:0:
439,5,229334,2,0,P|458:86|403:126,1,135.000005149842,8|0,0:1|0:1,0:1:0:0:
375,135,229620,1,2,0:1:0:0:
324,0,229763,1,8,0:1:0:0:
277,193,229906,2,0,P|285:238|288:304,1,90.0000034332277,2|2,0:1|0:1,0:1:0:0:
451,383,230192,22,0,P|465:295|469:205,1,180.000006866455,4|2,0:1|0:1,0:1:0:0:
340,343,230620,1,2,0:1:0:0:
267,241,230763,1,2,0:1:0:0:
420,274,230906,1,2,0:1:0:0:
224,358,231049,2,0,P|179:358|130:354,1,90.0000034332277,8|2,0:1|0:1,0:1:0:0:
18,165,231334,1,8,0:1:0:0:
133,201,231477,1,2,0:1:0:0:
17,295,231620,2,0,P|12:339|10:384,1,90.0000034332277,8|2,0:1|0:1,0:1:0:0:
230,161,231906,54,0,P|215:78|158:69,1,135.000005149842,4|0,0:1|0:1,0:1:0:0:
123,82,232192,1,2,0:1:0:0:
149,215,232334,2,0,B|206:205|206:205|272:226|272:226|330:211,1,180.000006866455,12|2,0:1|0:1,0:1:0:0:
422,75,232763,1,8,0:1:0:0:
423,270,232906,1,2,0:1:0:0:
313,82,233049,1,8,0:1:0:0:
487,165,233192,1,2,0:1:0:0:
251,272,233334,2,0,P|248:316|245:373,1,90.0000034332277,2|2,0:1|0:1,0:1:0:0:
491,380,233620,22,0,P|438:316|333:338,1,180.000006866455,4|2,0:1|0:1,0:1:0:0:
251,272,234049,1,8,0:1:0:0:
370,125,234192,2,0,P|365:174|353:235,1,90.0000034332277,2|2,0:1|0:1,0:1:0:0:
139,241,234477,2,0,P|122:145|112:49,1,180.000006866455,8|2,0:1|0:1,0:1:0:0:
205,4,234906,2,0,P|221:49|217:97,1,90.0000034332277,2|2,0:1|0:1,0:1:0:0:
15,16,235192,1,2,0:1:0:0:
56,216,235334,54,0,B|165:235|123:168|246:188,1,180.000006866455,4|2,0:1|0:1,0:1:0:0:
353,127,235763,1,8,0:1:0:0:
218,90,235906,1,2,0:1:0:0:
358,236,236049,1,2,0:1:0:0:
166,384,236192,2,0,P|166:304|255:286,1,180.000006866455,8|2,0:1|0:1,0:1:0:0:
369,363,236620,1,2,0:1:0:0:
369,363,236692,1,2,0:1:0:0:
369,363,236763,1,2,0:1:0:0:
250,283,236906,1,8,0:1:0:0:
458,314,237049,22,0,P|475:243|481:131,1,180.000006866455,4|2,0:1|0:1,0:1:0:0:
428,41,237477,1,8,0:1:0:0:
383,189,237620,2,0,P|335:205|289:205,1,90.0000034332277,2|2,0:1|0:1,0:1:0:0:
108,47,237906,2,0,P|171:95|235:79,1,135.000005149842,8|0,0:1|0:1,0:1:0:0:
265,53,238192,1,2,0:1:0:0:
171,204,238334,1,8,0:1:0:0:
0,97,238477,1,2,0:1:0:0:
189,0,238620,1,2,0:1:0:0:
58,189,238763,54,0,P|47:270|41:380,1,180.000006866455,4|2,0:1|0:1,0:1:0:0:
153,384,239192,1,8,0:1:0:0:
46,277,239334,1,2,0:1:0:0:
159,185,239477,1,2,0:1:0:0:
303,327,239620,2,0,P|262:324|210:304,1,90.0000034332277,8|2,0:1|0:1,0:1:0:0:
434,283,239906,2,0,P|426:344|423:387,1,90.0000034332277,8|2,0:1|0:1,0:1:0:0:
340,183,240192,1,2,0:1:0:0:
512,140,240334,1,2,0:1:0:0:
281,23,240477,22,0,P|392:32|404:87,1,180.000006866455,4|2,0:1|0:1,0:1:0:0:
340,183,240906,1,8,0:1:0:0:
191,88,241049,2,0,P|181:35|178:0,1,90.0000034332277,2|2,0:1|0:1,0:1:0:0:
34,144,241334,2,0,P|11:255|7:304,1,135.000005149842,8|0,0:1|0:1,0:1:0:0:
11,330,241620,2,0,P|48:354|96:348,1,90.0000034332277,2|2,0:1|0:1,0:1:0:0:
212,255,241906,2,0,P|171:247|119:230,1,90.0000034332277,8|2,0:1|0:1,0:1:0:0:
13,113,242192,54,0,P|92:91|192:86,1,180.000006866455,4|2,0:1|0:1,0:1:0:0:
336,186,242620,1,8,0:1:0:0:
288,0,242763,1,2,0:1:0:0:
207,107,242906,1,2,0:1:0:0:
439,86,243049,2,0,P|456:39|459:-5,1,90.0000034332277,8|2,0:1|0:1,0:1:0:0:
336,186,243334,1,8,0:1:0:0:
305,17,243477,1,2,0:1:0:0:
505,179,243620,2,0,P|495:233|490:282,1,90.0000034332277,2|2,0:1|0:1,0:1:0:0:
297,366,243906,22,0,B|193:383|235:312|122:328,1,180.000006866455,4|2,0:1|0:1,0:1:0:0:
30,374,244334,1,2,0:1:0:0:
117,180,244477,1,2,0:1:0:0:
201,290,244620,1,2,0:1:0:0:
18,237,244763,2,0,P|3:189|10:142,1,90.0000034332277,8|2,0:1|0:1,0:1:0:0:
191,22,245049,1,8,0:1:0:0:
191,22,245120,1,2,0:1:0:0:
191,22,245192,1,2,0:1:0:0:
89,73,245334,2,0,L|-21:59,1,90.0000034332277,8|2,0:1|0:1,0:1:0:0:
117,180,245620,53,12,0:1:0:0:
337,103,245763,1,2,0:1:0:0:
248,266,245906,1,2,0:1:0:0:
171,107,246049,21,12,0:1:0:0:
162,329,246192,1,2,0:1:0:0:
385,251,246334,1,8,0:1:0:0:
265,46,246477,54,0,P|248:98|251:137,1,90.0000034332277,8|2,0:1|0:1,0:1:0:0:
357,330,246763,1,8,0:1:0:0:
451,191,246906,1,2,0:1:0:0:
236,310,247049,2,0,P|188:307|132:300,1,90.0000034332277,8|2,0:1|0:1,0:1:0:0:
33,27,247334,22,0,P|116:18|144:106,1,180.000006866455,4|2,0:1|0:1,0:1:0:0:
73,179,247763,1,8,0:1:0:0:
250,51,247906,2,0,P|294:51|339:56,1,90.0000034332277,2|2,0:1|0:1,0:1:0:0:
451,191,248192,2,0,P|359:191|269:201,1,180.000006866455,8|2,0:1|0:1,0:1:0:0:
195,277,248620,1,8,0:1:0:0:
355,384,248763,2,0,P|358:338|361:291,1,90.0000034332277,2|2,0:1|0:1,0:1:0:0:
476,67,249049,54,0,P|487:156|493:266,1,180.000006866455,4|2,0:1|0:1,0:1:0:0:
353,103,249477,1,8,0:1:0:0:
451,191,249620,1,2,0:1:0:0:
283,227,249763,1,2,0:1:0:0:
168,39,249906,2,0,P|128:81|149:161,1,135.000005149842,8|0,0:1|0:1,0:1:0:0:
168,198,250192,2,0,P|109:188|58:188,1,90.0000034332277,8|2,0:1|0:1,0:1:0:0:
4,331,250477,2,0,P|49:327|94:319,1,90.0000034332277,2|2,0:1|0:1,0:1:0:0:
243,384,250763,22,0,B|256:315|256:315|248:270|248:270|262:207,1,180.000006866455,4|2,0:1|0:1,0:1:0:0:
339,130,251192,1,8,0:1:0:0:
472,218,251334,2,0,P|487:277|482:322,1,90.0000034332277,2|2,0:1|0:1,0:1:0:0:
349,362,251620,2,0,B|251:377|281:313|168:333,1,180.000006866455,8|2,0:1|0:1,0:1:0:0:
177,331,251977,1,2,0:1:0:0:
177,331,252049,1,2,0:1:0:0:
261,207,252192,1,8,0:1:0:0:
122,232,252334,1,2,0:1:0:0:
367,266,252477,54,0,P|376:181|395:69,1,180.000006866455,4|2,0:1|0:1,0:1:0:0:
241,0,252906,2,0,P|215:79|294:110,1,180.000006866455,8|2,0:1|0:1,0:1:0:0:
431,3,253334,2,0,P|387:-8|345:3,1,90.0000034332277,8|2,0:1|0:1,0:1:0:0:
503,201,253620,2,0,P|458:204|416:192,1,90.0000034332277,8|2,0:1|0:1,0:1:0:0:
241,0,253906,2,0,P|253:54|260:103,1,90.0000034332277,2|2,0:1|0:1,0:1:0:0:
116,289,254192,22,0,L|133:92,1,180.000006866455,4|2,0:1|0:1,0:1:0:0:
1,53,254620,1,8,0:1:0:0:
32,185,254763,1,2,0:1:0:0:
121,0,254906,1,2,0:1:0:0:
282,164,255049,2,0,P|235:241|140:206,1,180.000006866455,8|2,0:1|0:1,0:1:0:0:
32,185,255477,1,2,0:1:0:0:
115,350,255620,2,0,P|177:347|219:346,1,90.0000034332277,2|2,0:1|0:1,0:1:0:0:
282,164,255906,53,4,0:1:0:0:
205,347,256049,1,2,0:1:0:0:
392,273,256192,1,8,0:1:0:0:
235,73,256334,1,8,0:1:0:0:
384,132,256477,1,2,0:1:0:0:
384,132,256620,1,2,0:1:0:0:
285,269,256763,22,0,P|278:329|281:391,1,90.0000034332277,8|2,0:1|0:1,0:1:0:0:
119,178,257049,2,0,P|112:118|115:56,1,90.0000034332277,8|2,0:1|0:1,0:1:0:0:
167,0,257334,1,8,0:1:0:0:
7,91,257477,1,2,0:1:0:0:
87,281,257620,54,0,B|131:285|131:285|174:271,1,90.0000034332277,4|2,0:1|0:1,0:1:0:0:
263,1,257906,2,0,B|237:37|237:37|228:81,1,90.0000034332277,4|2,0:1|0:1,0:1:0:0:
417,293,258192,2,0,B|398:253|398:253|365:222,1,90.0000034332277,4|2,0:1|0:1,0:1:0:0:
57,146,258477,22,0,B|92:149|92:149|118:162|118:162|150:163,1,96,4|2,0:1|0:1,0:1:0:0:
316,383,258763,2,0,B|300:350|300:350|298:321|298:321|284:294,1,96,4|2,0:1|0:1,0:1:0:0:
393,41,259049,2,0,B|372:70|372:70|348:87|348:87|332:114,1,96,4|2,0:1|0:1,0:1:0:0:
174,270,259334,53,4,0:1:0:0:
174,270,259477,1,2,0:1:0:0:
364,221,259620,1,4,0:1:0:0:
364,221,259763,1,2,0:1:0:0:
227,81,259906,1,4,0:1:0:0:
227,81,260049,1,2,0:1:0:0:
486,12,260192,22,0,P|510:52|512:100,1,96,4|2,0:1|0:1,0:1:0:0:
364,221,260477,2,0,P|340:181|340:132,1,96,4|2,0:1|0:1,0:1:0:0:
421,379,260763,2,0,P|466:361|514:354,1,96,4|8,0:1|0:1,0:1:0:0:
263,295,261049,38,0,L|55:269,1,204.000003890991,4|2,0:1|0:1,0:1:0:0:
0,384,261477,1,8,0:1:0:0:
169,238,261620,1,2,0:1:0:0:
39,159,261763,1,2,0:1:0:0:
282,194,261906,2,0,P|272:244|263:295,1,102.000001945496,8|2,0:1|0:1,0:1:0:0:
163,0,262192,2,0,P|172:47|183:99,1,102.000001945496,8|2,0:1|0:1,0:1:0:0:
421,209,262477,1,2,0:1:0:0:
450,84,262620,1,2,0:1:0:0:
457,333,262738,22,4,B|335:350|379:285|261:295,1,204.000003890991,4|6,0:1|0:1,0:1:0:0:
119,281,263172,1,8,0:1:0:0:
281,200,263317,1,2,0:1:0:0:
225,384,263462,1,2,0:1:0:0:
12,280,263607,2,0,P|2:226|0:179,1,102.000001945496,8|2,0:1|0:1,0:1:0:0:
149,88,263897,1,2,0:1:0:0:
119,281,264042,2,0,L|103:403,1,102.000001945496,8|2,0:1|0:1,0:1:0:0:
57,103,264332,1,2,0:1:0:0:
281,200,264477,54,0,P|355:222|443:145,1,204.000003890991,4|2,0:1|0:1,0:1:0:0:
320,26,264905,2,0,P|331:74|345:136,1,102.000001945496,8|2,0:1|0:1,0:1:0:0:
510,223,265191,1,2,0:1:0:0:
330,331,265334,2,0,P|260:318|171:324,1,153.000002918243,8|0,0:1|0:1,0:1:0:0:
121,345,265619,2,0,P|95:308|85:249,1,102.000001945496,8|2,0:1|0:1,0:1:0:0:
247,76,265905,1,2,0:1:0:0:
208,222,266049,1,2,0:1:0:0:
6,102,266191,22,0,P|36:15|141:37,1,204.000003890991,4|6,0:1|0:1,0:1:0:0:
208,222,266619,1,8,0:1:0:0:
374,108,266762,2,0,P|366:52|358:5,1,102.000001945496,2|2,0:1|0:1,0:1:0:0:
208,222,267048,1,8,0:1:0:0:
208,222,267119,1,2,0:1:0:0:
208,222,267191,1,2,0:1:0:0:
366,272,267334,1,8,0:1:0:0:
502,127,267477,1,8,0:1:0:0:
409,380,267619,2,0,L|306:361,1,102.000001945496,2|2,0:1|0:1,0:1:0:0:
19,236,267905,54,0,L|251:196,1,204.000003890991,4|2,0:1|0:1,0:1:0:0:
0,93,268334,1,8,0:1:0:0:
123,185,268477,1,2,0:1:0:0:
141,20,268619,1,2,0:1:0:0:
15,263,268762,2,0,P|9:303|8:367,1,102.000001945496,8|2,0:1|0:1,0:1:0:0:
235,185,269048,2,0,P|232:134|225:83,1,102.000001945496,8|2,0:1|0:1,0:1:0:0:
106,278,269334,1,2,0:1:0:0:
219,384,269477,1,2,0:1:0:0:
369,207,269619,22,0,P|457:198|505:290,1,204.000003890991,4|6,0:1|0:1,0:1:0:0:
449,77,270048,2,0,P|436:148|421:287,1,204.000003890991,8|8,0:1|0:1,0:1:0:0:
225,83,270477,2,0,P|273:82|333:71,1,102.000001945496,8|8,0:1|0:1,0:1:0:0:
199,201,270763,1,2,0:1:0:0:
421,278,270905,1,2,0:1:0:0:
271,384,271048,2,0,P|278:325|286:270,1,102.000001945496,8|2,0:1|0:1,0:1:0:0:
212,53,271334,54,0,P|113:33|80:119,1,204.000003890991,4|2,0:1|0:1,0:1:0:0:
197,230,271748,1,8,0:1:0:0:
212,53,271887,1,2,0:1:0:0:
57,131,272025,1,2,0:1:0:0:
159,316,272163,2,0,B|274:345|241:272|356:304,1,204.000003890991,8|2,0:1|0:1,0:1:0:0:
498,252,272578,1,2,0:1:0:0:
316,194,272717,1,8,0:1:0:0:
407,381,272855,1,8,0:1:0:0:
496,138,272993,21,4,0:1:0:0:
356,304,273141,1,8,0:1:0:0:
289,49,273289,1,12,0:1:0:0:
512,154,273437,53,4,0:1:0:0:
268,253,273585,1,8,0:1:0:0:
512,343,273733,1,10,0:1:0:0:
242,381,273881,22,0,L|130:371,1,102.000001945496,4|2,0:1|0:1,0:1:0:0:
0,158,274178,2,0,L|103:151,1,102.000001945496,4|2,0:1|0:1,0:1:0:0:
37,384,274474,2,0,P|32:330|24:263,1,102.000001945496,8|8,0:1|0:1,0:1:0:0:
280,201,274770,54,0,B|287:129|287:129|269:77|269:77|279:-2,1,204.000003890991,4|2,0:1|0:1,0:1:0:0:
384,58,275198,1,8,0:1:0:0:
178,149,275341,2,0,P|187:213|189:253,1,102.000001945496,2|2,0:1|0:1,0:1:0:0:
356,383,275626,2,0,P|425:334|403:262,1,153.000002918243,8|0,0:1|0:1,0:1:0:0:
373,229,275912,1,2,0:1:0:0:
509,162,276055,1,8,0:1:0:0:
512,376,276198,2,0,P|460:368|407:352,1,102.000001945496,2|2,0:1|0:1,0:1:0:0:
169,246,276484,22,0,L|379:228,1,204.000003890991,4|6,0:1|0:1,0:1:0:0:
302,141,276912,1,8,0:1:0:0:
181,347,277055,2,0,P|174:299|168:242,1,102.000001945496,2|2,0:1|0:1,0:1:0:0:
26,22,277341,2,0,P|13:106|6:177,1,153.000002918243,8|0,0:1|0:1,0:1:0:0:
0,235,277626,1,2,0:1:0:0:
23,384,277770,1,2,0:1:0:0:
122,169,277912,2,0,P|166:172|243:180,1,102.000001945496,8|2,0:1|0:1,0:1:0:0:
315,0,278198,54,0,B|347:71|347:71|319:203,1,204.000003890991,4|2,0:1|0:1,0:1:0:0:
267,289,278627,1,8,0:1:0:0:
414,133,278770,2,0,P|472:122|518:136,1,102.000001945496,2|2,0:1|0:1,0:1:0:0:
481,358,279055,2,0,B|373:371|403:296|283:311,1,204.000003890991,8|8,0:1|0:1,0:1:0:0:
198,164,279484,1,2,0:1:0:0:
196,368,279626,1,2,0:1:0:0:
353,221,279769,1,2,0:1:0:0:
85,246,279912,22,0,P|23:220|12:139,1,153.000002918243,4|0,0:1|0:1,0:1:0:0:
36,85,280198,1,2,0:1:0:0:
198,164,280341,2,0,P|260:138|270:55,1,153.000002918243,8|0,0:1|0:1,0:1:0:0:
241,6,280627,1,2,0:1:0:0:
465,61,280770,54,0,P|477:155|482:228,1,153.000002918243,4|0,0:1|0:1,0:1:0:0:
483,274,281055,1,2,0:1:0:0:
319,376,281198,2,0,P|330:293|336:221,1,153.000002918243,8|0,0:1|0:1,0:1:0:0:
343,164,281484,1,2,0:1:0:0:
198,350,281627,22,0,B|130:347|130:347|75:372|75:372|-3:368,1,204.000003890991,4|2,0:1|0:1,0:1:0:0:
13,149,282055,2,0,L|32:255,1,102.000001945496,8|2,0:1|0:1,0:1:0:0:
198,350,282341,1,2,0:1:0:0:
229,100,282484,2,0,P|159:99|130:169,1,153.000002918243,8|0,0:1|0:1,0:1:0:0:
146,226,282770,2,0,P|194:238|252:246,1,102.000001945496,2|2,0:1|0:1,0:1:0:0:
426,125,283055,1,2,0:1:0:0:
314,160,283198,1,2,0:1:0:0:
479,0,283341,54,0,P|473:98|471:208,1,204.000003890991,4|6,0:1|0:1,0:1:0:0:
506,322,283770,1,8,0:1:0:0:
328,260,283912,2,0,P|319:211|313:139,1,102.000001945496,2|2,0:1|0:1,0:1:0:0:
366,37,284198,2,0,P|262:18|241:14,1,102.000001945496,8|2,0:1|0:1,0:1:0:0:
116,210,284484,2,0,P|225:188|237:186,1,102.000001945496,8|2,0:1|0:1,0:1:0:0:
215,189,284698,1,2,0:1:0:0:
215,189,284770,1,2,0:1:0:0:
92,62,284912,1,2,0:1:0:0:
0,194,285055,21,6,0:1:0:0:
107,380,285198,1,2,0:1:0:0:
107,380,285270,1,2,0:1:0:0:
107,380,285341,2,0,L|221:358,1,102.000001945496,6|8,0:1|0:1,0:1:0:0:
391,304,285627,2,0,L|273:279,1,102.000001945496,6|2,0:1|0:1,0:1:0:0:
200,37,285912,53,4,0:1:0:0:
331,127,286055,1,2,0:1:0:0:
130,285,286198,1,6,0:1:0:0:
75,136,286341,1,8,0:1:0:0:
292,283,286484,2,0,L|288:391,1,102.000001945496,6|2,0:1|0:1,0:1:0:0:
512,383,286769,21,6,0:1:0:0:
485,148,286912,1,6,0:1:0:0:
291,283,287055,1,2,0:1:0:0:
440,306,287198,1,8,0:1:0:0:
440,306,287269,1,2,0:1:0:0:
440,306,287340,1,6,0:1:0:0:
263,155,287484,1,2,0:1:0:0:
445,68,287627,54,0,P|476:117|487:160,1,90.0000034332277,12|2,0:1|0:1,0:1:0:0:
150,110,287912,2,0,P|173:59|211:24,1,96,12|2,0:1|0:1,0:1:0:0:
338,337,288198,2,0,P|282:341|223:322,1,102.000001945496,12|2,0:1|0:1,0:1:0:0:
47,82,288484,22,0,P|60:140|73:287,1,204.000003890991,4|2,0:1|0:1,0:1:0:0:
0,384,288903,1,8,0:1:0:0:
221,349,289043,2,0,P|234:288|239:232,1,102.000001945496,2|2,0:1|0:1,0:1:0:0:
164,75,289323,2,0,P|241:96|302:51,1,153.000002918243,8|0,0:1|0:1,0:1:0:0:
319,0,289602,1,2,0:1:0:0:
285,181,289742,1,2,0:1:0:0:
502,115,289882,1,8,0:1:0:0:
502,115,289952,1,2,0:1:0:0:
502,115,290022,1,2,0:1:0:0:
359,327,290162,54,0,P|264:287|154:285,1,204.000003890991,4|6,0:1|0:1,0:1:0:0:
48,147,290590,1,8,0:1:0:0:
246,63,290733,1,8,0:1:0:0:
156,195,290876,1,8,0:1:0:0:
0,26,291019,2,0,L|120:39,1,102.000001945496,2|2,0:1|0:1,0:1:0:0:
292,205,291304,1,8,0:1:0:0:
369,74,291447,1,2,0:1:0:0:
136,161,291590,1,2,0:1:0:0:
136,161,291662,1,2,0:1:0:0:
136,161,291733,2,0,L|143:233,1,51.0000009727478,8|2,0:1|0:1,0:1:0:0:
1,383,291876,22,0,P|12:251|17:164,1,204.000003890991,4|2,0:1|0:1,0:1:0:0:
195,327,292304,1,8,0:1:0:0:
28,364,292447,1,2,0:1:0:0:
136,161,292590,1,2,0:1:0:0:
291,384,292733,2,0,P|361:351|454:346,1,153.000002918243,8|0,0:1|0:1,0:1:0:0:
495,357,293019,2,0,P|495:308|485:254,1,102.000001945496,2|2,0:1|0:1,0:1:0:0:
499,82,293304,1,8,0:1:0:0:
305,267,293447,1,2,0:1:0:0:
305,267,293519,1,2,0:1:0:0:
305,267,293590,54,0,B|191:289|225:207|104:231,1,204.000003890991,4|6,0:1|0:1,0:1:0:0:
15,125,294019,1,8,0:1:0:0:
214,18,294162,1,2,0:1:0:0:
111,230,294304,1,2,0:1:0:0:
25,3,294447,2,0,P|30:54|35:126,1,102.000001945496,8|2,0:1|0:1,0:1:0:0:
238,197,294733,1,2,0:1:0:0:
136,89,294876,1,2,0:1:0:0:
77,335,295019,2,0,P|130:334|186:310,1,102.000001945496,8|2,0:1|0:1,0:1:0:0:
383,141,295304,22,0,P|279:194|292:269,1,204.000003890991,4|2,0:1|0:1,0:1:0:0:
439,380,295733,2,0,P|443:313|454:267,1,102.000001945496,8|2,0:1|0:1,0:1:0:0:
512,174,296019,1,2,0:1:0:0:
289,265,296162,2,0,P|217:256|137:246,1,153.000002918243,8|0,0:1|0:1,0:1:0:0:
76,238,296447,1,2,0:1:0:0:
0,61,296590,2,0,P|72:52|152:42,1,153.000002918243,8|0,0:1|0:1,0:1:0:0:
213,34,296876,1,2,0:1:0:0:
395,162,297019,54,0,B|411:225|411:225|395:299|395:299|414:381,1,204.000003890991,4|6,0:1|0:1,0:1:0:0:
280,162,297455,1,8,0:1:0:0:
501,64,297601,1,2,0:1:0:0:
303,0,297746,1,2,0:1:0:0:
411,227,297892,2,0,P|464:235|513:236,1,102.000001945496,8|2,0:1|0:1,0:1:0:0:
162,131,298183,2,0,L|174:245,1,102.000001945496,8|2,0:1|0:1,0:1:0:0:
266,384,298474,2,0,P|294:329|284:267,1,102.000001945496,8|2,0:1|0:1,0:1:0:0:
1,348,298765,22,0,B|78:345|78:345|117:320|117:320|203:317,1,204.000003890991,4|2,0:1|0:1,0:1:0:0:
61,221,299193,1,8,0:1:0:0:
280,162,299336,1,2,0:1:0:0:
187,340,299479,1,2,0:1:0:0:
133,70,299622,2,0,P|205:56|267:106,1,153.000002918243,8|0,0:1|0:1,0:1:0:0:
280,162,299907,2,0,L|274:275,1,102.000001945496,2|2,0:1|0:1,0:1:0:0:
378,62,300193,1,8,0:1:0:0:
184,146,300336,1,2,0:1:0:0:
367,304,300479,54,0,P|412:297|483:290,1,102.000001945496,4|2,0:1|0:1,0:1:0:0:
512,187,300687,1,2,0:1:0:0:
512,187,300756,2,0,P|461:181|410:174,1,102.000001945496,6|8,0:1|0:1,0:1:0:0:
261,7,301034,1,2,0:1:0:0:
387,155,301173,1,2,0:1:0:0:
141,212,301312,2,0,P|132:135|129:44,1,153.000002918243,8|0,0:1|0:1,0:1:0:0:
132,0,301590,1,2,0:1:0:0:
0,195,301729,1,2,0:1:0:0:
247,102,301867,2,0,P|255:78|256:52,1,51.0000009727478,8|2,0:1|0:1,0:1:0:0:
0,15,302006,2,0,P|3:48|14:71,1,51.0000009727478,2|2,0:1|0:1,0:1:0:0:
141,212,302162,22,0,P|232:189|345:177,1,204.000003890991,4|2,0:1|0:1,0:1:0:0:
485,47,302590,1,8,0:1:0:0:
277,27,302733,1,2,0:1:0:0:
445,184,302876,1,2,0:1:0:0:
280,325,303019,2,0,P|213:329|151:256,1,153.000002918243,8|0,0:1|0:1,0:1:0:0:
141,212,303304,1,8,0:1:0:0:
48,348,303447,1,2,0:1:0:0:
13,124,303590,1,2,0:1:0:0:
251,187,303733,2,0,L|244:240,1,51.0000009727478,2|2,0:1|0:1,0:1:0:0:
378,349,303876,54,0,P|473:351|502:260,1,204.000003890991,4|6,0:1|0:1,0:1:0:0:
351,74,304304,1,8,0:1:0:0:
512,147,304447,2,0,P|464:165|413:171,1,102.000001945496,8|2,0:1|0:1,0:1:0:0:
230,0,304733,1,8,0:1:0:0:
448,46,304876,1,2,0:1:0:0:
251,187,305019,2,0,P|244:252|239:305,1,102.000001945496,8|2,0:1|0:1,0:1:0:0:
89,382,305304,2,0,P|84:331|79:281,1,102.000001945496,8|2,0:1|0:1,0:1:0:0:
0,109,305590,22,0,B|110:137|77:61|197:99,1,204.000003890991,4|8,0:1|0:1,0:1:0:0:
272,197,306019,1,8,0:1:0:0:
79,281,306162,1,2,0:1:0:0:
129,44,306304,1,2,0:1:0:0:
341,259,306447,2,0,P|362:213|357:163,1,102.000001945496,8|2,0:1|0:1,0:1:0:0:
185,275,306733,2,0,P|197:325|201:376,1,102.000001945496,2|8,0:1|0:1,0:1:0:0:
69,159,307019,1,2,0:1:0:0:
261,102,307162,1,2,0:1:0:0:
185,275,307304,54,0,P|296:284|348:302,1,153.000002918243,4|0,0:1|0:1,0:1:0:0:
392,320,307590,1,6,0:1:0:0:
494,111,307733,2,0,P|390:110|385:208,1,204.000003890991,8|2,0:1|0:1,0:1:0:0:
483,376,308162,2,0,P|491:326|494:260,1,102.000001945496,2|2,0:1|0:1,0:1:0:0:
241,150,308447,2,0,P|245:201|253:252,1,102.000001945496,2|2,0:1|0:1,0:1:0:0:
443,162,308733,1,8,0:1:0:0:
346,31,308876,1,2,0:1:0:0:
253,252,309019,22,0,L|35:237,1,204.000003890991,4|2,0:1|0:1,0:1:0:0:
4,123,309447,1,8,0:1:0:0:
153,35,309590,2,0,P|174:82|178:133,1,102.000001945496,2|2,0:1|0:1,0:1:0:0:
0,308,309876,2,0,P|34:246|146:265,1,153.000002918243,8|0,0:1|0:1,0:1:0:0:
160,273,310162,2,0,P|154:325|151:387,1,102.000001945496,2|2,0:1|0:1,0:1:0:0:
276,192,310447,1,2,0:1:0:0:
86,107,310590,1,2,0:1:0:0:
263,300,310733,54,0,P|349:270|374:158,1,204.000003890991,4|6,0:1|0:1,0:1:0:0:
300,46,311162,1,8,0:1:0:0:
512,112,311304,2,0,P|510:162|501:229,1,102.000001945496,2|2,0:1|0:1,0:1:0:0:
378,384,311590,1,8,0:1:0:0:
378,384,311662,1,8,0:1:0:0:
378,384,311733,2,0,P|371:333|369:282,1,102.000001945496,2|2,0:1|0:1,0:1:0:0:
512,112,312019,1,2,0:1:0:0:
282,186,312162,1,2,0:1:0:0:
455,287,312304,1,2,0:1:0:0:
204,330,312447,22,0,P|159:315|83:305,1,102.000001945496,12|8,0:1|0:1,0:1:0:0:
105,306,312733,1,8,0:1:0:0:
0,198,312876,54,0,P|45:183|121:173,1,102.000001945496,4|2,0:1|0:1,0:1:0:0:
98,174,313162,1,2,0:1:0:0:
252,40,313304,21,12,0:1:0:0:
186,232,313447,1,8,0:1:0:0:
186,232,313590,1,8,0:1:0:0:
37,116,313733,53,4,0:1:0:0:
125,335,313876,1,2,0:1:0:0:
125,335,314019,1,2,0:1:0:0:
235,118,314162,21,12,0:1:0:0:
0,198,314306,1,8,0:1:0:0:
230,322,314451,1,8,0:1:0:0:
110,146,314596,53,4,0:1:0:0:
338,233,314741,1,2,0:1:0:0:
141,355,314886,1,2,0:1:0:0:
408,312,315031,21,12,0:1:0:0:
429,266,315104,1,2,0:1:0:0:
434,214,315176,1,2,0:1:0:0:
413,166,315248,1,6,0:1:0:0:
377,130,315321,1,2,0:1:0:0:
360,81,315393,1,2,0:1:0:0:
374,32,315466,54,0,P|400:21|432:17,1,51.0000009727478,8|0,0:1|0:1,0:1:0:0:
483,96,315611,1,2,0:1:0:0:
338,233,315756,1,2,0:1:0:0:
142,124,315901,22,0,P|126:64|124:12,1,102.000001945496,12|2,0:1|0:1,0:1:0:0:
257,0,316182,1,2,0:1:0:0:
141,259,316323,2,0,P|89:265|29:279,1,102.000001945496,8|2,0:1|0:1,0:1:0:0:
0,121,316605,1,2,0:1:0:0:
274,174,316746,2,0,P|258:291|253:351,1,153.000002918243,8|0,0:1|0:1,0:1:0:0:
229,381,317027,2,0,P|219:320|209:269,1,102.000001945496,2|2,0:1|0:1,0:1:0:0:
60,187,317309,1,2,0:1:0:0:
0,363,317450,1,2,0:1:0:0:
254,325,317610,54,0,P|309:328|357:337,1,102.000001945496,12|2,0:1|0:1,0:1:0:0:
491,249,317891,1,6,0:1:0:0:
260,73,318032,2,0,P|264:134|282:195,1,102.000001945496,8|2,0:1|0:1,0:1:0:0:
386,270,318314,1,2,0:1:0:0:
453,30,318455,2,0,B|405:24|405:24|347:36|347:36|298:26,1,153.000002918243,8|0,0:1|0:1,0:1:0:0:
260,73,318736,2,0,L|150:83,1,102.000001945496,2|2,0:1|0:1,0:1:0:0:
0,33,319018,1,2,0:1:0:0:
133,0,319159,1,2,0:1:0:0:
39,223,319324,22,0,L|49:345,1,102.000001945496,12|2,0:1|0:1,0:1:0:0:
179,376,319605,1,2,0:1:0:0:
286,152,319746,2,0,L|294:50,1,102.000001945496,8|2,0:1|0:1,0:1:0:0:
133,0,320028,1,2,0:1:0:0:
228,277,320169,2,0,P|317:284|397:297,1,153.000002918243,8|0,0:1|0:1,0:1:0:0:
437,313,320450,1,2,0:1:0:0:
495,116,320591,2,0,P|406:123|326:136,1,153.000002918243,8|0,0:1|0:1,0:1:0:0:
286,152,320873,1,2,0:1:0:0:
456,25,321036,54,0,P|492:82|493:123,1,102.000001945496,12|2,0:1|0:1,0:1:0:0:
370,216,321317,1,6,0:1:0:0:
249,13,321458,2,0,P|289:10|354:-1,1,102.000001945496,8|2,0:1|0:1,0:1:0:0:
494,115,321740,1,2,0:1:0:0:
228,277,321881,2,0,P|218:223|212:171,1,102.000001945496,8|2,0:1|0:1,0:1:0:0:
30,323,322162,2,0,P|81:341|129:362,1,102.000001945496,8|2,0:1|0:1,0:1:0:0:
80,132,322444,2,0,P|38:167|-4:198,1,102.000001945496,2|2,0:1|0:1,0:1:0:0:
228,277,322733,22,0,L|344:289,1,102.000001945496,12|2,0:1|0:1,0:1:0:0:
368,150,323014,1,2,0:1:0:0:
107,259,323155,2,0,P|117:309|124:360,1,102.000001945496,8|2,0:1|0:1,0:1:0:0:
285,379,323437,1,2,0:1:0:0:
208,71,323578,2,0,P|130:83|24:91,1,153.000002918243,8|0,0:1|0:1,0:1:0:0:
1,118,323859,2,0,P|55:122|108:131,1,102.000001945496,2|2,0:1|0:1,0:1:0:0:
0,334,324141,1,2,0:1:0:0:
31,219,324282,1,2,0:1:0:0:
262,279,324447,54,0,P|278:331|285:388,1,102.000001945496,12|2,0:1|0:1,0:1:0:0:
151,228,324728,1,6,0:1:0:0:
327,69,324869,2,0,P|388:74|457:79,1,102.000001945496,8|2,0:1|0:1,0:1:0:0:
501,181,325151,1,2,0:1:0:0:
284,378,325292,2,0,B|283:333|283:333|300:273|300:273|294:206,1,153.000002918243,8|0,0:1|0:1,0:1:0:0:
322,171,325573,2,0,L|328:58,1,102.000001945496,8|2,0:1|0:1,0:1:0:0:
104,4,325855,1,8,0:1:0:0:
191,117,325996,1,8,0:1:0:0:
3,308,326162,22,0,P|48:222|146:239,1,204.000003890991,4|2,0:1|0:1,0:1:0:0:
88,384,326590,1,2,0:1:0:0:
88,384,326662,1,2,0:1:0:0:
88,384,326733,1,2,0:1:0:0:
25,145,326876,1,2,0:1:0:0:
283,220,327019,2,0,P|290:284|294:345,2,102.000001945496,2|8|8,0:1|0:1|0:1,0:1:0:0:
191,117,327447,1,2,0:1:0:0:
413,182,327590,1,8,0:1:0:0:
198,369,327733,1,2,0:1:0:0:
480,378,327876,54,0,P|487:314|491:253,1,102.000001945496,12|2,0:1|0:1,0:1:0:0:
489,276,328093,1,2,0:1:0:0:
489,276,328165,1,6,0:1:0:0:
285,122,328310,1,2,0:1:0:0:
512,187,328455,1,2,0:1:0:0:
345,367,328600,1,2,0:1:0:0:
413,182,328745,2,0,P|421:134|437:71,1,102.000001945496,8|2,0:1|0:1,0:1:0:0:
154,219,329035,2,0,P|162:269|175:319,1,102.000001945496,8|2,0:1|0:1,0:1:0:0:
257,102,329325,2,0,P|249:52|238:3,1,102.000001945496,8|2,0:1|0:1,0:1:0:0:
20,42,329615,22,0,P|7:91|0:141,1,102.000001945496,12|2,0:1|0:1,0:1:0:0:
15,303,329896,1,2,0:1:0:0:
258,103,330037,2,0,P|197:95|134:97,1,102.000001945496,8|2,0:1|0:1,0:1:0:0:
0,141,330319,1,2,0:1:0:0:
202,345,330460,2,0,P|276:323|352:324,1,153.000002918243,8|0,0:1|0:1,0:1:0:0:
408,300,330741,2,0,P|360:295|305:276,1,102.000001945496,2|2,0:1|0:1,0:1:0:0:
512,169,331023,1,2,0:1:0:0:
452,384,331164,1,2,0:1:0:0:
318,133,331335,54,0,L|334:14,1,102.000001945496,12|2,0:1|0:1,0:1:0:0:
491,46,331612,1,6,0:1:0:0:
309,277,331751,2,0,P|248:256|188:242,1,102.000001945496,8|2,0:1|0:1,0:1:0:0:
103,129,332029,1,2,0:1:0:0:
300,154,332168,1,8,0:1:0:0:
107,354,332307,1,2,0:1:0:0:
107,354,332376,1,2,0:1:0:0:
107,354,332446,2,0,P|100:304|92:254,1,102.000001945496,2|2,0:1|0:1,0:1:0:0:
221,128,332723,2,0,P|229:77|236:27,1,102.000001945496,2|2,0:1|0:1,0:1:0:0:
0,138,333016,21,12,0:1:0:0:
121,148,333160,2,0,P|187:135|235:124,1,102.000001945496,2|2,0:1|0:1,0:1:0:0:
430,267,333450,53,12,0:1:0:0:
309,277,333592,2,0,P|243:264|195:253,1,102.000001945496,2|2,0:1|0:1,0:1:0:0:
383,14,333872,21,12,0:1:0:0:
470,103,334016,2,0,P|488:176|469:224,1,102.000001945496,2|2,0:1|0:1,0:1:0:0:
302,338,334306,53,12,0:1:0:0:
209,256,334451,2,0,P|190:182|209:134,1,102.000001945496,2|2,0:1|0:1,0:1:0:0:
478,51,334744,21,12,0:1:0:0:
478,51,334887,2,0,L|472:174,1,102.000001945496,2|2,0:1|0:1,0:1:0:0:
320,305,335175,53,12,0:1:0:0:
320,305,335319,2,0,L|314:182,1,102.000001945496,2|2,0:1|0:1,0:1:0:0:
176,63,335607,21,12,0:1:0:0:
176,63,335751,2,0,L|170:186,1,102.000001945496,2|2,0:1|0:1,0:1:0:0:
31,305,336038,53,12,0:1:0:0:
31,305,336182,2,0,L|25:182,1,102.000001945496,2|2,0:1|0:1,0:1:0:0:
280,59,336470,22,0,B|402:92|359:18|484:53,1,204.000003890991,4|10,0:1|0:1,0:1:0:0:
205,0,336921,1,8,0:1:0:0:
286,249,337071,2,0,P|303:202|311:131,1,102.000001945496,2|2,0:1|0:1,0:1:0:0:
105,7,337325,2,0,L|117:113,1,102.000001945496,12|2,0:1|0:1,0:1:0:0:
147,283,337606,1,8,0:1:0:0:
22,114,337747,1,2,0:1:0:0:
280,59,337888,2,0,P|333:67|393:69,1,102.000001945496,8|2,0:1|0:1,0:1:0:0:
499,254,338165,54,0,P|448:256|397:264,1,102.000001945496,6|2,0:1|0:1,0:1:0:0:
477,0,338450,2,0,P|482:66|485:104,1,102.000001945496,8|2,0:1|0:1,0:1:0:0:
278,350,338736,2,0,P|282:299|286:249,1,102.000001945496,2|2,0:1|0:1,0:1:0:0:
499,253,339020,21,12,0:1:0:0:
280,59,339164,1,8,0:1:0:0:
477,0,339309,1,2,0:1:0:0:
286,248,339454,1,2,0:1:0:0:
55,41,339599,2,0,P|50:96|47:152,1,102.000001945496,8|2,0:1|0:1,0:1:0:0:
141,367,339885,53,12,0:1:0:0:
370,333,340027,1,2,0:1:0:0:
124,354,340170,1,2,0:1:0:0:
333,258,340313,21,12,0:1:0:0:
166,231,340459,1,2,0:1:0:0:
345,245,340606,1,2,0:1:0:0:
134,149,340752,53,12,0:1:0:0:
363,115,340895,1,2,0:1:0:0:
120,137,341039,1,2,0:1:0:0:
326,40,341183,21,12,0:1:0:0:
159,12,341327,1,2,0:1:0:0:
337,28,341471,1,2,0:1:0:0:
196,243,341614,53,8,0:1:0:0:
241,112,341756,1,12,0:1:0:0:
332,217,341899,1,12,0:1:0:0:
151,247,342042,21,12,0:1:0:0:
259,69,342185,1,12,0:1:0:0:
359,251,342328,1,12,0:1:0:0:
103,243,342471,53,12,0:1:0:0:
287,30,342614,1,12,0:1:0:0:
380,296,342756,1,12,0:1:0:0:
61,221,342899,21,12,0:1:0:0:
327,6,343042,1,12,0:1:0:0:
381,344,343185,1,12,0:1:0:0:
53,193,343328,53,12,1:1:0:0:
256,192,343399,12,0,348042,0:1:0:0:
