osu file format v14

[General]
AudioFilename: audio.mp3
AudioLeadIn: 0
PreviewTime: 60390
Countdown: 0
SampleSet: None
StackLeniency: 0.4
Mode: 0
LetterboxInBreaks: 0
WidescreenStoryboard: 0

[Editor]
Bookmarks: 178483
DistanceSpacing: 0.3
BeatDivisor: 4
GridSize: 4
TimelineZoom: 1.6

[Metadata]
Title:Legends Never Die
TitleUnicode:Legends Never Die
Artist:Against the Current
ArtistUnicode:Against the Current
Creator:Kentaro
Version:Legends
Source:League of Legends
Tags:riot games worlds 2017
BeatmapID:1418867
BeatmapSetID:670970

[Difficulty]
HPDrainRate:4
CircleSize:4.3
OverallDifficulty:6
ApproachRate:9.3
SliderMultiplier:1.84
SliderTickRate:1

[Events]
//Background and Video events
0,0,"image.jpg",0,0
//Break Periods
2,89705,92289
2,151420,162575
//Storyboard Layer 0 (Background)
//Storyboard Layer 1 (Fail)
//Storyboard Layer 2 (Pass)
//Storyboard Layer 3 (Foreground)
//Storyboard Sound Samples

[TimingPoints]
12390,428.571428571429,4,2,1,25,1,0
14104,-200,4,2,1,20,0,0
41532,-153.846153846153,4,2,1,40,0,0
48390,-133.333333333333,4,2,1,45,0,0
55247,-117.647058823529,4,2,1,50,0,0
59532,-79.9999999999999,4,2,1,30,0,0
59747,-79.9999999999999,4,2,1,40,0,0
59961,-79.9999999999999,4,2,1,50,0,0
60175,-79.9999999999999,4,2,1,60,0,0
60390,-100,4,2,1,35,0,0
61675,-200,4,2,1,35,0,0
61997,-200,4,2,1,5,0,0
62104,-100,4,1,2,75,0,1
62961,-71.4285714285714,4,1,2,75,0,1
64675,-76.9230769230769,4,1,2,75,0,1
66390,-71.4285714285714,4,1,2,75,0,1
68961,-100,4,1,2,75,0,1
69818,-76.9230769230769,4,1,2,75,0,1
71104,-100,4,1,2,75,0,1
72390,-76.9230769230769,4,1,2,75,0,1
73247,-71.4285714285714,4,1,2,75,0,1
75604,-66.6666666666667,4,1,2,75,0,0
75818,-100,4,1,2,75,0,1
76675,-71.4285714285714,4,1,2,75,0,1
78390,-76.9230769230769,4,1,2,75,0,1
80104,-71.4285714285714,4,1,2,75,0,1
82675,-100,4,1,2,75,0,1
83532,-76.9230769230769,4,1,2,75,0,1
84818,-100,4,1,2,75,0,1
86104,-83.3333333333333,4,1,2,75,0,1
87818,-83.3333333333333,4,2,1,25,0,0
92961,-142.857142857143,4,2,1,30,0,0
103247,-125,4,2,1,40,0,0
104425,-125,4,2,1,5,0,0
104532,-125,4,2,1,40,0,0
110104,-117.647058823529,4,2,1,45,0,0
111282,-117.647058823529,4,2,1,5,0,0
111390,-117.647058823529,4,2,1,45,0,0
116961,-111.111111111111,4,2,1,50,0,0
118140,-111.111111111111,4,2,1,5,0,0
118247,-111.111111111111,4,2,1,50,0,0
120604,-111.111111111111,4,2,1,5,0,0
120711,-111.111111111111,4,2,1,50,0,0
120925,-111.111111111111,4,2,1,5,0,0
121032,-111.111111111111,4,2,1,50,0,0
121247,-80,4,2,1,30,0,0
121461,-80,4,2,1,40,0,0
121675,-80,4,2,1,50,0,0
121890,-80,4,2,1,60,0,0
122104,-80,4,2,1,35,0,0
123390,-200,4,2,1,35,0,0
123711,-200,4,2,1,5,0,0
123818,-100,4,1,2,75,0,1
124675,-71.4285714285714,4,1,2,75,0,1
126390,-76.9230769230769,4,1,2,75,0,1
128104,-71.4285714285714,4,1,2,75,0,1
130675,-100,4,1,2,75,0,1
131532,-76.9230769230769,4,1,2,75,0,1
132818,-100,4,1,2,75,0,1
134104,-76.9230769230769,4,1,2,75,0,1
134961,-71.4285714285714,4,1,2,75,0,1
137318,-66.6666666666667,4,1,2,75,0,0
137532,-100,4,1,2,75,0,1
138390,-71.4285714285714,4,1,2,75,0,1
140104,-76.9230769230769,4,1,2,75,0,1
141818,-71.4285714285714,4,1,2,75,0,1
144390,-100,4,1,2,75,0,1
145247,-76.9230769230769,4,1,2,75,0,1
146532,-100,4,1,2,75,0,1
147818,-83.3333333333333,4,1,2,75,0,1
151247,-111.111111111111,4,2,1,50,0,0
163247,-111.111111111111,4,2,1,35,0,0
164961,-111.111111111111,4,2,1,50,0,0
167532,-200,4,2,1,50,0,0
168390,-111.111111111111,4,2,1,50,0,0
176532,-66.6666666666667,4,2,1,50,0,0
178675,-100,4,1,2,75,0,1
179532,-71.4285714285714,4,1,2,75,0,1
181247,-76.9230769230769,4,1,2,75,0,1
182961,-71.4285714285714,4,1,2,75,0,1
185532,-100,4,1,2,75,0,1
186390,-76.9230769230769,4,1,2,75,0,1
187675,-100,4,1,2,75,0,1
188961,-76.9230769230769,4,1,2,75,0,1
189818,-71.4285714285714,4,1,2,75,0,1
192175,-66.6666666666667,4,1,2,75,0,0
192390,-100,4,1,2,75,0,1
193247,-71.4285714285714,4,1,2,75,0,1
194961,-76.9230769230769,4,1,2,75,0,1
199247,-100,4,1,2,75,0,1
200104,-76.9230769230769,4,1,2,75,0,1
201390,-100,4,1,2,75,0,1
202675,-83.3333333333333,4,1,2,75,0,1
205675,-66.6666666666667,4,1,2,75,0,1
206104,-200,4,2,1,50,0,0
206211,-200,4,2,1,20,0,0
206961,-200,4,2,1,5,0,0

[HitObjects]
192,192,12362,5,2,0:0:0:0:
206,215,12791,1,2,0:0:0:0:
214,188,13220,21,2,0:0:0:0:
160,320,13648,1,2,0:0:0:0:
160,320,14077,2,0,L|72:68,1,264.5
400,104,15362,2,0,P|333:115|255:132,1,138,2|2,0:0|0:0,0:0:0:0:
168,184,16220,2,0,P|145:146|169:98,1,92,0|2,0:0|0:0,0:0:0:0:
364,304,17077,1,2,0:0:0:0:
444,96,17505,22,0,P|397:88|337:81,1,92,2|0,0:0|0:0,0:0:0:0:
84,272,18148,2,0,P|128:219|196:224,1,138,2|2,0:0|0:0,0:0:0:0:
376,264,19434,2,0,P|331:316|264:312,1,138,2|2,0:0|0:0,0:0:0:0:
336,80,20505,1,2,0:0:0:0:
88,104,20934,22,0,P|97:189|107:259,2,138,2|2|2,0:0|0:0|0:0,0:0:0:0:
440,236,22648,1,0,0:0:0:0:
216,292,22863,2,0,P|191:237|224:165,1,138,2|2,0:0|0:0,0:0:0:0:
420,80,23934,1,2,0:0:0:0:
88,288,24363,22,0,P|135:298|181:306,1,92,2|0,0:0|0:0,0:0:0:0:
88,104,25005,2,0,P|135:65|219:83,1,138,2|2,0:0|0:0,0:0:0:0:
200,280,26077,21,0,0:0:0:0:
440,120,26291,1,2,0:0:0:0:
384,300,26505,1,0,0:0:0:0:
216,80,26934,21,2,0:0:0:0:
128,284,27363,1,2,0:0:0:0:
424,176,27791,22,0,P|352:193|276:215,1,138,2|0,0:0|0:0,0:0:0:0:
112,72,29077,2,0,P|178:90|245:106,1,138,2|2,0:0|0:0,0:0:0:0:
404,56,29934,2,0,P|433:93|429:141,1,92,0|2,0:0|0:0,0:0:0:0:
88,228,30791,1,2,0:0:0:0:
312,308,31220,22,0,P|357:309|392:280,1,92,2|0,0:0|0:0,0:0:0:0:
304,172,31863,2,0,B|228:185|250:123|171:135,1,138,2|2,0:0|0:0,0:0:0:0:
72,252,33148,2,0,B|148:239|126:301|205:289,1,138,2|2,0:0|0:0,0:0:0:0:
392,244,34220,1,2,0:0:0:0:
208,120,34648,22,0,P|154:160|90:141,2,138,2|2|2,0:0|0:0|0:0,0:0:0:0:
284,284,36363,1,0,0:0:0:0:
448,88,36577,2,0,B|401:78|401:78|360:94|360:94|312:85,1,138,2|0,0:0|0:0,0:0:0:0:
392,296,37648,1,2,0:0:0:0:
184,240,38077,22,0,P|111:259|54:218,1,138,2|0,0:0|0:0,0:0:0:0:
216,92,38934,2,0,L|310:72,1,92,0|2,0:0|0:0,0:0:0:0:
148,304,39791,21,2,0:0:0:0:
384,212,40220,1,2,0:0:0:0:
140,96,40648,1,2,0:0:0:0:
324,280,41077,5,8,0:3:0:0:
256,104,41505,6,0,L|344:116,1,86.25,12|0,0:0|0:0,0:0:0:0:
388,224,42363,2,0,P|392:253|396:283,1,59.7999972625734,8|0,0:0|0:0,0:0:0:0:
280,272,42791,2,0,P|283:242|288:212,1,59.7999972625734,8|0,0:3|0:0,0:0:0:0:
376,76,43220,21,0,0:0:0:0:
108,176,43434,1,8,3:0:0:0:
396,300,43648,1,8,3:0:0:0:
268,72,43863,21,2,0:0:0:0:
184,256,44077,2,0,P|189:287|195:316,1,59.7999972625734,8|0,0:0|0:0,0:0:0:0:
368,192,44505,21,0,0:0:0:0:
168,104,44720,1,8,3:0:0:0:
168,104,44827,1,8,3:0:0:0:
168,104,44934,2,0,P|225:57|270:64,1,119.599994525147,12|0,3:0|0:0,0:0:0:0:
300,304,45577,21,0,3:0:0:0:
168,184,45791,2,0,P|139:173|100:172,1,59.7999972625734,8|0,0:0|0:0,0:0:0:0:
96,340,46220,2,0,P|125:337|153:326,1,59.7999972625734,8|0,3:0|0:0,0:0:0:0:
172,296,46648,21,2,0:0:0:0:
244,68,46863,1,0,3:0:0:0:
360,260,47077,21,8,3:0:0:0:
128,104,47291,1,2,0:0:0:0:
276,256,47505,5,8,0:0:0:0:
289,223,47613,1,8,0:0:0:0:
300,186,47720,1,8,0:0:0:0:
312,150,47827,1,8,0:0:0:0:
327,133,47934,21,8,3:0:0:0:
323,110,48041,1,0,3:0:0:0:
320,87,48148,1,8,3:0:0:0:
317,64,48255,1,0,3:0:0:0:
304,44,48363,38,0,P|367:70|434:41,1,138.000005264282,12|0,3:0|0:0,0:0:0:0:
433,41,49005,1,0,3:0:0:0:
352,256,49220,22,0,B|298:264|298:264|275:285|275:285|220:295,1,138.000005264282,8|8,0:0|3:3,0:0:0:0:
64,224,49863,1,0,3:0:0:0:
316,80,50077,1,2,0:0:0:0:
272,264,50291,1,8,0:3:0:0:
152,80,50505,21,8,3:0:0:0:
432,224,50720,1,2,0:0:0:0:
64,296,50934,21,8,0:0:0:0:
300,108,51148,1,2,0:0:0:0:
308,316,51363,21,0,3:0:0:0:
88,156,51577,1,8,3:0:0:0:
88,156,51684,1,8,3:0:0:0:
88,156,51791,2,0,B|164:144|145:193|222:179,1,138.000005264282,12|0,3:0|0:0,0:0:0:0:
296,60,52434,21,2,0:0:0:0:
432,280,52648,2,0,P|448:248|441:207,1,69.0000026321412,8|0,0:0|0:0,0:0:0:0:
152,156,53077,2,0,P|146:188|162:220,1,69.0000026321412,8|0,3:0|0:0,0:0:0:0:
312,316,53505,21,2,0:0:0:0:
416,96,53720,1,0,3:0:0:0:
224,288,53934,21,8,3:0:0:0:
68,160,54148,1,2,0:0:0:0:
129,65,54363,5,8,0:0:0:0:
170,81,54470,1,8,0:0:0:0:
214,77,54577,1,8,0:0:0:0:
252,54,54684,1,8,0:0:0:0:
278,27,54791,21,8,3:0:0:0:
315,19,54898,1,0,3:0:0:0:
351,27,55005,1,8,3:0:0:0:
378,53,55113,1,0,3:0:0:0:
390,88,55220,38,0,P|376:168|362:247,1,156.400002983093,12|0,3:0|0:0,0:0:0:0:
362,242,55863,1,8,3:0:0:0:
432,336,56077,22,0,B|378:326|378:326|336:349|336:349|271:338,1,156.400002983093,8|8,0:0|3:0,0:0:0:0:
140,212,56720,1,0,3:0:0:0:
340,92,56934,1,2,0:0:0:0:
272,308,57148,1,0,3:0:0:0:
180,96,57363,21,8,3:0:0:0:
400,264,57577,1,2,0:0:0:0:
356,104,57791,21,8,0:0:0:0:
240,296,58005,1,0,0:0:0:0:
92,192,58220,21,2,0:0:0:0:
304,176,58434,1,8,3:0:0:0:
308,184,58541,1,8,3:0:0:0:
308,184,58648,2,0,P|276:132|301:75,1,117.30000223732,12|0,3:0|3:0,0:0:0:0:
416,284,59077,2,0,P|369:300|337:306,1,78.2000014915467,2|8,0:0|3:0,0:0:0:0:
256,116,59505,5,0,0:0:0:0:
276,164,59613,1,0,0:0:0:0:
288,216,59720,1,0,0:0:0:0:
100,260,59934,22,0,P|106:232|122:208,1,57.5,8|0,3:0|3:0,0:0:0:0:
212,220,60148,2,0,P|205:192|189:168,1,57.5,8|8,3:0|3:0,0:0:0:0:
232,64,60363,37,2,0:0:0:0:
412,48,61648,22,0,L|328:65,1,69,2|0,0:0|0:0,0:0:0:0:
104,160,62077,38,0,B|166:148|166:148|194:160|194:160,1,92,4|0,0:0|0:0,0:0:0:0:
92,312,62720,1,0,3:0:0:0:
352,320,62934,22,0,B|386:193|386:193,1,92,8|0,0:0|0:0,0:0:0:0:
136,84,63363,2,0,L|222:63,1,64.399998034668,8|0,3:0|0:0,0:0:0:0:
268,268,63577,2,0,L|205:283,1,64.399998034668,0|0,0:2|0:0,0:0:0:0:
72,180,63791,21,2,0:2:0:0:
352,104,64005,1,0,3:2:0:0:
352,104,64113,1,0,0:2:0:0:
352,104,64220,1,8,3:0:0:0:
200,308,64434,21,2,0:2:0:0:
296,200,64648,2,0,B|357:190|357:190|400:221|400:221|468:208,1,179.39999178772,8|0,0:0|0:0,0:0:0:0:
452,124,65077,2,0,P|451:92|433:58,1,59.7999972625734,2|0,0:2|0:0,0:0:0:0:
172,64,65291,2,0,P|160:91|159:121,1,59.7999972625734,2|0,0:2|0:0,0:0:0:0:
428,272,65505,21,8,3:0:0:0:
136,328,65720,1,0,0:0:0:0:
136,328,65827,1,0,0:0:0:0:
136,328,65934,1,2,0:2:0:0:
388,168,66148,21,0,3:0:0:0:
114,52,66363,2,0,B|72:94|72:94|105:239,1,193.199994104004,8|0,0:0|0:0,0:0:0:0:
104,264,66791,22,0,L|3:250,1,64.399998034668,8|0,3:0|0:0,0:0:0:0:
232,136,67005,2,0,L|333:150,1,64.399998034668
404,296,67220,21,0,0:0:0:0:
320,88,67434,1,8,3:0:0:0:
84,176,67648,1,8,3:0:0:0:
93,172,67755,2,0,B|168:180|141:215|210:224,1,128.799996069336,8|0,3:0|0:0,0:0:0:0:
284,88,68077,22,0,P|253:90|221:107,1,64.399998034668,8|0,0:0|0:0,0:0:0:0:
352,260,68291,2,0,P|383:258|415:241,1,64.399998034668
372,96,68505,21,2,0:2:0:0:
180,304,68720,1,0,0:0:0:0:
180,304,68827,1,0,3:0:0:0:
180,304,68934,22,0,B|193:241|193:241|170:191|170:191|187:116,1,184,4|0,0:0|0:0,0:0:0:0:
480,56,69577,2,0,L|489:116,1,46,0|0,3:0|0:0,0:0:0:0:
413,171,69791,22,0,B|320:140|332:204|229:169,1,179.39999178772,8|0,0:0|0:0,0:0:0:0:
84,296,70434,1,0,0:0:0:0:
372,76,70648,21,2,0:2:0:0:
456,324,70863,1,0,3:0:0:0:
108,88,71077,2,0,B|80:127|80:127|101:186,1,92,8|2,3:0|0:2,0:0:0:0:
352,280,71398,1,0,0:0:0:0:
359,270,71505,22,0,P|271:214|186:248,1,184,8|0,0:0|0:0,0:0:0:0:
72,328,72148,1,2,0:2:0:0:
272,112,72363,22,0,B|379:118|324:188|430:197,1,179.39999178772,4|0,3:2|0:0,0:0:0:0:
452,56,73005,2,0,L|439:121,1,59.7999972625734,0|0,3:0|0:0,0:0:0:0:
364,300,73220,22,0,B|350:230|350:230|373:187|373:187|355:106,1,193.199994104004,8|2,0:0|0:0,0:0:0:0:
104,248,73648,2,0,P|134:258|160:280,1,64.399998034668,12|0,3:0|0:0,0:0:0:0:
184,264,73863,2,0,P|215:258|245:268,1,64.399998034668,2|0,0:2|0:0,0:0:0:0:
208,344,74077,21,0,3:2:0:0:
296,72,74291,1,8,3:0:0:0:
302,79,74398,2,0,B|378:87|344:127|418:137,1,128.799996069336,8|8,3:0|3:0,0:0:0:0:
320,228,74720,2,0,P|289:230|255:245,1,64.399998034668,8|0,3:0|0:0,0:0:0:0:
168,352,74934,21,8,0:0:0:0:
432,240,75148,1,0,3:0:0:0:
392,336,75363,21,8,3:0:0:0:
240,120,75577,2,0,P|204:129|159:137,1,64.399998034668,2|0,3:2|0:0,0:0:0:0:
80,264,75791,22,0,P|162:231|234:282,2,184,4|0|0,0:0|0:0|0:0,0:0:0:0:
408,176,76648,22,0,B|377:224|377:224|304:242|304:242,1,92,8|0,0:0|0:0,0:0:0:0:
118,117,77077,2,0,L|180:103,1,64.399998034668,8|0,3:0|0:0,0:0:0:0:
264,296,77291,2,0,L|202:310,1,64.399998034668
118,117,77505,21,2,0:2:0:0:
408,212,77720,1,0,3:0:0:0:
408,212,77827,1,0,0:0:0:0:
408,212,77934,1,8,3:0:0:0:
262,294,78148,21,2,0:2:0:0:
118,117,78363,2,0,B|70:214|156:195|105:305,1,179.39999178772,8|0,0:0|0:0,0:0:0:0:
332,308,78791,2,0,P|323:279|328:237,1,59.7999972625734,2|0,0:2|0:0,0:0:0:0:
452,228,79005,2,0,P|461:199|456:157,1,59.7999972625734,2|0,0:2|0:0,0:0:0:0:
328,60,79220,21,0,3:0:0:0:
140,304,79434,1,0,0:0:0:0:
184,316,79541,1,0,0:0:0:0:
216,288,79648,1,2,0:2:0:0:
248,56,79863,21,0,3:0:0:0:
140,304,80077,2,0,B|228:343|228:343|330:294,1,193.199994104004,8|0,0:0|0:0,0:0:0:0:
440,144,80505,22,0,L|426:209,1,64.399998034668,8|0,3:0|0:0,0:0:0:0:
156,136,80720,2,0,L|169:198,1,64.399998034668,0|0,0:2|0:0,0:0:0:0:
360,296,80934,21,2,0:2:0:0:
256,64,81148,1,8,3:0:0:0:
256,276,81363,1,8,3:0:0:0:
251,269,81470,2,0,P|191:233|124:253,1,128.799996069336,8|0,3:0|0:0,0:0:0:0:
128,340,81791,22,0,P|158:330|189:321,1,64.399998034668,8|0,0:0|0:0,0:0:0:0:
176,112,82005,2,0,P|145:121|114:130,1,64.399998034668
64,244,82220,21,2,0:2:0:0:
251,269,82434,1,0,0:0:0:0:
251,269,82541,1,0,3:0:0:0:
251,269,82648,22,0,B|347:302|334:228|437:262,1,184,4|0,0:0|0:0,0:0:0:0:
384,72,83291,2,0,L|304:85,1,46,0|0,3:0|0:0,0:0:0:0:
137,228,83505,22,0,L|334:197,1,179.39999178772,8|0,0:0|0:0,0:0:0:0:
272,328,84148,1,0,0:0:0:0:
188,88,84363,21,2,0:2:0:0:
96,308,84577,1,0,3:0:0:0:
408,244,84791,22,0,P|369:270|320:268,1,92,8|2,3:0|0:2,0:0:0:0:
52,148,85113,1,0,0:0:0:0:
67,134,85220,22,0,B|173:132|131:197|229:203,1,184,8|0,0:0|0:0,0:0:0:0:
452,120,85863,1,2,0:2:0:0:
340,72,86077,22,0,P|310:117|327:174,1,110.399996630859,12|0,3:0|0:0,0:0:0:0:
308,272,86398,2,0,P|360:284|404:254,1,110.399996630859,0|0,3:0|0:0,0:0:0:0:
452,120,86720,22,0,L|377:107,1,55.1999983154297,8|0,3:0|0:0,0:0:0:0:
176,268,86934,1,8,0:0:0:0:
184,88,87148,21,2,0:2:0:0:
167,77,87255,2,0,P|112:87|60:108,1,110.399996630859,8|0,3:0|0:0,0:0:0:0:
176,268,87577,2,0,P|211:278|256:285,1,55.1999983154297,8|0,3:0|0:0,0:0:0:0:
356,116,87791,5,2,0:2:0:0:
316,236,88220,1,0,0:0:0:0:
356,116,88648,21,2,0:0:0:0:
316,236,89077,1,0,0:0:0:0:
164,128,89505,21,4,0:0:0:0:
93,278,92934,53,0,3:0:0:0:
348,72,93577,1,0,3:0:0:0:
264,296,93791,2,0,L|391:315,1,128.799996069336,8|4,0:0|3:0,0:0:0:0:
364,92,94648,21,2,0:0:0:0:
156,176,94863,1,0,3:0:0:0:
156,176,95077,2,0,P|161:143|178:110,1,64.399998034668,4|0,3:0|0:0,0:0:0:0:
368,288,95505,2,0,P|312:318|244:296,1,128.799996069336,8|2,0:0|0:0,0:0:0:0:
320,84,96363,21,4,3:0:0:0:
224,312,97005,1,0,3:0:0:0:
176,88,97220,2,0,B|102:76|120:114|43:101,1,128.799996069336,8|4,0:0|3:0,0:0:0:0:
183,239,98077,21,2,0:0:0:0:
119,286,98291,1,0,3:0:0:0:
119,286,98505,2,0,L|42:276,1,64.399998034668,4|0,3:0|0:0,0:0:0:0:
292,92,98934,2,0,L|428:68,1,128.799996069336,8|2,0:0|0:0,0:0:0:0:
412,296,99791,21,4,3:0:0:0:
336,120,100220,1,2,0:0:0:0:
144,232,100434,1,0,3:0:0:0:
76,96,100648,2,0,P|123:66|193:85,1,128.799996069336,8|4,0:0|3:0,0:0:0:0:
160,316,101291,21,0,0:0:0:0:
356,228,101505,2,0,P|360:196|335:150,1,64.399998034668,2|0,0:0|3:0,0:0:0:0:
144,128,101934,2,0,P|172:104|201:100,1,64.399998034668,2|0,0:0|3:0,0:0:0:0:
348,97,102363,21,8,0:0:0:0:
232,264,102577,1,0,3:0:0:0:
384,256,102791,21,8,3:0:0:0:
216,100,103005,1,0,0:0:0:0:
320,308,103220,22,0,B|265:317|265:317|236:341|236:341|179:352,1,147.2,4|2,0:0|0:0,0:0:0:0:
124,124,103863,1,0,3:0:0:0:
400,128,104077,22,0,P|439:165|430:220,1,110.4,8|0,0:0|0:0,0:0:0:0:
176,300,104505,1,8,3:0:0:0:
260,80,104720,1,2,0:0:0:0:
368,292,104934,21,0,0:0:0:0:
144,128,105148,1,8,3:0:0:0:
328,292,105363,1,8,3:0:0:0:
188,92,105577,21,2,0:0:0:0:
324,208,105791,2,0,P|366:201|410:191,1,73.6,8|0,0:0|0:0,0:0:0:0:
408,46,106220,21,2,0:0:0:0:
188,252,106434,1,8,3:0:0:0:
188,252,106541,1,8,3:0:0:0:
188,252,106648,2,0,P|123:205|49:215,1,147.2,4|2,0:0|0:0,0:0:0:0:
104,324,107291,21,0,3:0:0:0:
344,104,107505,2,0,P|368:134|374:170,1,73.6,8|0,0:0|0:0,0:0:0:0:
140,140,107934,2,0,P|146:104|170:76,1,73.6,8|0,3:0|0:0,0:0:0:0:
408,252,108363,21,2,0:0:0:0:
124,304,108577,1,8,3:0:0:0:
416,116,108791,21,8,3:0:0:0:
140,68,109005,1,2,0:0:0:0:
333,186,109220,37,8,0:0:0:0:
374,199,109327,1,8,0:0:0:0:
417,193,109434,1,8,0:0:0:0:
451,165,109541,1,8,0:0:0:0:
466,139,109648,21,8,3:0:0:0:
463,109,109755,1,0,3:0:0:0:
447,83,109863,1,8,3:0:0:0:
451,53,109970,1,0,3:0:0:0:
473,34,110077,38,0,P|426:27|382:17,1,78.2000014915467,4|0,0:0|0:0,0:0:0:0:
144,280,110505,2,0,P|180:273|222:264,1,78.2000014915467,2|0,0:0|3:0,0:0:0:0:
424,112,110934,22,0,P|373:85|311:99,1,117.30000223732,8|0,0:0|0:0,0:0:0:0:
368,272,111363,1,8,3:0:0:0:
168,148,111577,1,2,0:0:0:0:
192,300,111791,21,0,0:0:0:0:
324,116,112005,1,8,3:0:0:0:
120,248,112220,1,8,3:0:0:0:
368,176,112434,21,2,0:0:0:0:
104,76,112648,2,0,P|91:112|78:153,1,78.2000014915467,8|0,0:0|0:0,0:0:0:0:
128,320,113077,21,2,0:0:0:0:
408,256,113291,1,8,3:0:0:0:
408,256,113398,1,8,3:0:0:0:
408,256,113505,2,0,P|336:297|257:270,1,156.400002983093,4|2,0:0|0:0,0:0:0:0:
316,72,114148,21,0,3:0:0:0:
96,236,114363,2,0,P|129:242|190:252,1,78.2000014915467,8|0,0:0|0:0,0:0:0:0:
360,148,114791,2,0,P|396:141|438:134,1,78.2000014915467,8|0,3:0|0:0,0:0:0:0:
456,148,115220,21,2,0:0:0:0:
316,320,115434,1,8,3:0:0:0:
144,116,115648,21,8,3:0:0:0:
124,308,115863,1,2,0:0:0:0:
296,340,116077,37,8,0:0:0:0:
318,298,116184,1,8,0:0:0:0:
316,251,116291,1,8,0:0:0:0:
287,213,116398,1,8,0:0:0:0:
261,183,116505,21,8,3:0:0:0:
246,146,116613,1,0,3:0:0:0:
257,108,116720,1,8,3:0:0:0:
284,80,116827,1,0,3:0:0:0:
319,58,116934,38,0,P|222:73|148:83,1,165.599994946289,4|2,0:0|0:0,0:0:0:0:
88,296,117577,1,0,3:0:0:0:
444,116,117791,22,0,B|467:190|467:190|432:239,1,124.199996209717,8|0,0:0|0:0,0:0:0:0:
161,328,118220,1,8,3:0:0:0:
296,112,118434,1,2,0:0:0:0:
364,304,118648,21,0,0:0:0:0:
132,144,118863,1,8,3:0:0:0:
436,220,119077,1,8,3:0:0:0:
216,72,119291,21,2,0:0:0:0:
320,184,119505,2,0,P|344:148|348:108,1,82.7999974731446,8|0,0:0|0:0,0:0:0:0:
104,128,119934,1,2,0:0:0:0:
412,96,120148,21,8,3:0:0:0:
412,96,120255,1,8,3:0:0:0:
412,96,120363,2,0,P|356:87|306:76,1,82.7999974731446,4|0,0:0|0:0,0:0:0:0:
312,296,120684,2,0,P|256:305|206:316,1,82.7999974731446,0|0,3:0|0:0,0:0:0:0:
180,104,121005,1,8,3:0:0:0:
84,296,121220,6,0,P|111:304|151:308,1,57.5,12|0,0:0|0:0,0:0:0:0:
268,160,121434,2,0,P|295:151|324:148,1,57.5,0|0,3:0|3:0,0:0:0:0:
424,272,121648,22,0,P|435:246|439:216,1,57.5,8|0,3:0|0:0,0:0:0:0:
292,248,121863,2,0,P|263:251|237:263,1,57.5,8|8,3:0|3:0,0:0:0:0:
296,336,122077,37,2,0:0:0:0:
136,84,122505,21,2,0:0:0:0:
408,128,122934,21,2,0:0:0:0:
160,216,123363,22,0,L|167:294,1,69,2|0,0:0|0:0,0:0:0:0:
428,96,123791,38,0,B|328:65,1,92,4|0,0:0|0:0,0:0:0:0:
96,168,124434,2,0,L|171:151,1,46,0|0,3:0|0:0,0:0:0:0:
278,306,124648,22,0,B|208:279|208:279,1,46,8|0,0:0|0:0,0:0:0:0:
60,336,125077,2,0,P|58:302|75:268,1,64.399998034668,8|0,3:0|0:0,0:0:0:0:
288,88,125291,2,0,P|319:85|349:97,1,64.399998034668
344,300,125505,21,2,0:2:0:0:
104,160,125720,1,0,3:0:0:0:
100,141,125827,1,0,0:0:0:0:
96,123,125934,1,0,3:0:0:0:
360,84,126148,21,2,0:2:0:0:
392,176,126363,2,0,B|312:149|299:214|214:183,1,179.39999178772,8|0,0:0|0:0,0:0:0:0:
104,248,126791,2,0,L|82:331,1,59.7999972625734,2|0,0:2|0:0,0:0:0:0:
400,252,127005,2,0,L|422:335,1,59.7999972625734,2|0,0:2|0:0,0:0:0:0:
236,316,127220,21,0,3:0:0:0:
168,100,127434,1,0,0:0:0:0:
151,95,127541,1,0,0:0:0:0:
133,90,127648,1,2,0:2:0:0:
108,288,127863,21,0,3:0:0:0:
328,72,128077,2,0,B|305:137|305:137|332:188|332:188|310:258,1,193.199994104004,8|0,0:0|0:0,0:0:0:0:
395,304,128505,22,0,P|426:295|470:287,1,64.399998034668,0|0,3:0|0:0,0:0:0:0:
481,135,128720,2,0,P|449:128|418:119,1,64.399998034668
124,116,128934,21,2,0:2:0:0:
288,196,129148,1,8,3:0:0:0:
208,272,129363,1,8,3:0:0:0:
195,281,129470,2,0,B|145:270|145:270|120:247|120:247|64:234,1,128.799996069336,8|0,3:0|0:0,0:0:0:0:
236,124,129791,22,0,B|223:94|223:94|235:60,1,64.399998034668,8|0,0:0|0:0,0:0:0:0:
352,120,130005,2,0,B|362:149|362:149|349:179,1,64.399998034668
96,204,130220,21,2,0:2:0:0:
279,291,130434,1,0,0:0:0:0:
279,291,130541,1,0,3:0:0:0:
279,291,130648,22,0,B|377:263|354:345|460:311,1,184,4|0,0:0|0:0,0:0:0:0:
296,156,131291,2,0,L|282:213,1,46,0|0,3:0|0:0,0:0:0:0:
264,208,131505,22,0,L|141:227,1,92,8|0,0:0|0:0,0:0:0:0:
88,132,131934,1,0,3:0:0:0:
220,72,132148,1,0,0:0:0:0:
237,73,132255,1,0,0:0:0:0:
253,80,132363,1,2,0:2:0:0:
480,192,132577,21,0,3:0:0:0:
362,268,132791,2,0,B|342:310|342:310|363:360,1,92,8|2,3:0|0:2,0:0:0:0:
448,319,133113,1,0,0:0:0:0:
436,306,133220,22,0,B|336:283|364:347|256:322,1,184,8|0,0:0|0:0,0:0:0:0:
140,72,133863,1,2,0:2:0:0:
356,160,134077,22,0,P|414:89|496:94,1,138,4|0,0:0|0:0,0:0:0:0:
404,296,134505,1,2,0:2:0:0:
47,164,134720,2,0,L|66:88,1,59.7999972625734,8|0,3:0|0:0,0:0:0:0:
204,55,134934,22,0,B|235:117|235:117|199:243,1,193.199994104004,8|0,0:0|0:0,0:0:0:0:
112,272,135363,2,0,P|79:276|46:294,1,64.399998034668,8|0,3:0|0:0,0:0:0:0:
344,176,135577,2,0,P|377:180|410:198,1,64.399998034668,2|0,0:2|0:0,0:0:0:0:
292,304,135791,1,2,0:2:0:0:
104,92,136005,21,8,3:0:0:0:
108,107,136113,1,8,3:0:0:0:
440,304,136327,21,8,3:0:0:0:
436,320,136435,1,8,3:0:0:0:
96,268,136648,21,8,0:0:0:0:
400,80,136863,1,0,3:0:0:0:
232,272,137077,21,8,3:0:0:0:
168,100,137291,2,0,P|134:95|102:84,1,69.0000026321412,0|0,3:0|0:0,0:0:0:0:
396,96,137505,22,0,P|340:191|360:262,1,184,4|2,3:2|0:2,0:0:0:0:
468,344,138148,2,0,P|478:321|481:290,1,46,0|0,3:0|0:0,0:0:0:0:
192,120,138363,22,0,B|107:98|100:181|20:154,1,138,8|0,0:0|0:0,0:0:0:0:
180,216,138791,2,0,P|148:217|119:231,1,64.399998034668,8|0,3:0|0:0,0:0:0:0:
196,336,139005,2,0,P|227:334|256:320,1,64.399998034668,0|0,0:2|0:0,0:0:0:0:
336,108,139220,21,2,0:2:0:0:
104,72,139434,1,0,3:0:0:0:
97,90,139541,1,0,0:0:0:0:
96,109,139648,1,8,3:0:0:0:
392,240,139863,21,2,0:2:0:0:
76,256,140077,2,0,P|133:295|234:260,1,179.39999178772,8|0,0:0|0:0,0:0:0:0:
360,152,140505,2,0,P|370:119|362:81,1,59.7999972625734,2|0,0:2|0:0,0:0:0:0:
192,40,140720,2,0,P|182:68|185:97,1,59.7999972625734,2|0,0:2|0:0,0:0:0:0:
332,280,140934,21,4,3:0:0:0:
160,216,141148,1,0,0:0:0:0:
142,220,141255,1,0,0:0:0:0:
124,225,141363,1,2,0:2:0:0:
220,76,141577,21,0,3:0:0:0:
432,152,141791,2,0,B|345:130|345:130|285:150,1,119.599994525147,8|0,0:0|0:0,0:0:0:0:
424,264,142220,2,0,P|458:257|492:247,1,64.399998034668,0|0,3:0|0:0,0:0:0:0:
244,308,142434,2,0,P|212:301|181:292,1,64.399998034668
148,68,142648,21,2,0:2:0:0:
408,100,142863,1,8,3:0:0:0:
340,176,143077,1,8,3:0:0:0:
268,202,143184,2,0,P|208:168|144:185,1,128.799996069336,8|0,3:0|0:0,0:0:0:0:
208,328,143505,22,0,P|219:298|223:257,1,64.399998034668,8|0,0:0|0:0,0:0:0:0:
72,136,143720,2,0,P|77:168|88:199,1,64.399998034668
380,312,143934,21,2,0:2:0:0:
337,135,144148,1,0,0:0:0:0:
337,135,144255,1,0,3:0:0:0:
337,135,144363,22,0,B|270:126|270:126|227:148|227:148|149:139,1,184,4|0,0:0|0:0,0:0:0:0:
184,296,145005,2,0,L|229:304,1,46,0|0,3:0|0:0,0:0:0:0:
416,72,145220,22,0,P|361:143|399:229,1,179.39999178772,8|0,0:0|0:0,0:0:0:0:
416,316,145648,1,0,3:0:0:0:
264,273,145863,1,0,0:0:0:0:
102,359,146077,21,2,0:2:0:0:
258,177,146291,1,0,3:0:0:0:
160,64,146505,22,0,L|63:77,1,92,8|2,3:0|0:2,0:0:0:0:
60,236,146827,1,0,0:0:0:0:
72,249,146934,2,0,B|145:257|145:257|186:237|186:237|263:247,1,184,8|0,0:0|0:0,0:0:0:0:
400,328,147577,2,0,L|341:317,1,46,2|0,0:2|0:0,0:0:0:0:
96,148,147791,22,0,P|71:99|94:47,1,110.399996630859,0|0,3:0|0:0,0:0:0:0:
264,248,148113,2,0,P|214:267|167:243,1,110.399996630859,0|0,3:0|0:0,0:0:0:0:
200,144,148434,22,0,L|272:130,1,55.1999983154297,0|0,3:0|0:0,0:0:0:0:
404,40,148648,1,8,0:0:0:0:
136,288,148863,21,8,3:0:0:0:
117,298,148970,2,0,B|90:246|90:246|120:187,1,110.399996630859,8|0,3:0|0:0,0:0:0:0:
356,168,149291,22,0,P|328:173|302:180,1,55.1999983154297,0|0,3:0|0:0,0:0:0:0:
272,320,149505,2,0,P|298:313|325:307,1,55.1999983154297,2|0,0:2|0:0,0:0:0:0:
448,80,149720,21,8,3:0:0:0:
444,99,149827,1,8,3:0:0:0:
109,180,150041,21,8,3:0:0:0:
113,199,150148,1,8,3:0:0:0:
232,96,150363,22,0,P|224:129|219:159,1,55.1999983154297,8|0,0:0|0:0,0:0:0:0:
396,168,150577,2,0,P|404:201|409:231,1,55.1999983154297,8|0,3:0|0:0,0:0:0:0:
212,312,150791,21,8,3:0:0:0:
340,92,151005,1,0,3:0:0:0:
344,304,151220,5,4,0:0:0:0:
73,260,163220,21,2,0:0:0:0:
188,80,163648,21,2,0:0:0:0:
340,304,164077,21,2,0:0:0:0:
384,68,164505,21,2,0:0:0:0:
152,272,164720,1,0,3:0:0:0:
276,152,164934,22,0,L|259:237,1,82.7999974731446,12|0,0:0|0:0,0:0:0:0:
112,76,165255,2,0,L|91:159,1,82.7999974731446,0|0,3:0|0:0,0:0:0:0:
444,232,165577,1,8,3:0:0:0:
332,76,165791,21,8,0:0:0:0:
257,102,166005,1,0,3:0:0:0:
268,308,166220,21,8,0:3:0:0:
372,104,166434,1,2,0:0:0:0:
124,272,166648,21,2,3:1:0:0:
112,276,166755,1,2,0:0:0:0:
99,279,166863,1,8,3:0:0:0:
87,283,166970,1,8,3:0:0:0:
75,287,167077,2,0,L|95:206,1,82.7999974731446,8|0,0:0|3:0,0:0:0:0:
372,104,167505,21,8,0:0:0:0:
280,292,167720,2,0,P|268:247|254:193,1,92,2|8,0:1|3:0,0:0:0:0:
163,49,168255,1,0,3:0:0:0:
163,49,168363,22,0,L|204:54,1,23,4|0,0:0|0:0,0:0:0:0:
270,88,168684,2,0,P|311:82|359:77,1,82.7999974731446,0|0,3:0|0:0,0:0:0:0:
389,51,169005,1,8,3:0:0:0:
448,284,169220,21,8,0:0:0:0:
384,224,169434,1,0,0:0:0:0:
268,210,169648,21,2,0:0:0:0:
296,56,169863,1,2,0:0:0:0:
444,120,170077,1,2,3:2:0:0:
272,251,170291,1,0,3:0:0:0:
266,231,170398,1,8,3:0:0:0:
268,210,170505,1,8,0:0:0:0:
432,216,170720,21,2,0:0:0:0:
184,336,170934,2,0,P|142:342|103:322,1,82.7999974731446,8|0,0:0|0:0,0:0:0:0:
176,132,171255,2,0,P|134:126|95:146,1,82.7999974731446,0|0,3:0|3:0,0:0:0:0:
376,248,171577,1,8,3:0:0:0:
376,248,171684,1,8,3:0:0:0:
376,248,171791,22,0,L|402:151,1,82.7999974731446,4|0,0:0|0:0,0:0:0:0:
300,88,172113,2,0,B|262:72|262:72|221:86,1,82.7999974731446,0|0,3:0|0:0,0:0:0:0:
184,292,172434,1,8,3:0:0:0:
376,248,172648,22,0,B|420:268|420:268|479:218|438:163,1,165.599994946289,8|0,0:0|3:0,0:0:0:0:
192,176,173291,1,2,0:0:0:0:
280,300,173505,22,0,P|321:304|362:283,1,82.7999974731446,0|8,3:0|3:0,0:0:0:0:
272,88,173827,1,0,3:0:0:0:
272,88,173934,2,0,P|268:129|289:170,1,82.7999974731446,8|0,3:0|3:0,0:0:0:0:
388,100,174363,2,0,P|413:68|452:54,1,82.7999974731446,8|0,0:0|3:0,0:0:0:0:
436,260,174791,21,2,0:0:0:0:
120,144,175005,1,8,3:0:0:0:
117,164,175113,1,0,3:0:0:0:
114,184,175220,1,8,3:0:0:0:
296,324,175434,21,2,0:0:0:0:
292,303,175541,1,0,3:0:0:0:
164,268,175756,21,2,0:0:0:0:
140,296,175863,1,0,3:0:0:0:
424,176,176077,21,8,0:0:0:0:
136,60,176291,5,0,3:0:0:0:
136,60,176398,1,0,3:0:0:0:
136,60,176505,2,0,P|169:72|218:72,1,69.0000026321412,8|0,3:0|3:0,0:0:0:0:
388,88,176720,2,0,P|353:90|296:136,1,69.0000026321412,8|0,3:0|3:0,0:0:0:0:
200,296,176934,6,0,B|148:299|93:316|93:316|136:230|139:155,1,276.000010528565,2|2,0:0|0:0,0:0:0:0:
316,184,177791,22,0,B|345:138|331:98|331:98|373:133|410:168|410:168|407:129|440:87,1,276.000010528565,2|2,0:0|0:0,0:0:0:0:
164,120,178434,6,0,P|129:122|97:134,1,69.0000026321412,2|0,0:3|0:0,0:0:0:0:
260,296,178648,22,0,B|156:335|182:252|72:287,1,184,4|0,0:0|0:0,0:0:0:0:
252,88,179291,2,0,P|274:90|304:101,1,46,0|0,3:0|0:0,0:0:0:0:
380,288,179505,22,0,B|422:320|422:320|483:260,1,138,8|0,0:0|0:0,0:0:0:0:
444,104,179934,2,0,L|372:94,1,64.399998034668,8|0,3:0|0:0,0:0:0:0:
160,248,180148,2,0,L|168:311,1,64.399998034668
380,200,180363,21,2,0:2:0:0:
180,148,180577,1,0,3:0:0:0:
166,118,180684,1,0,0:0:0:0:
171,86,180791,1,8,3:0:0:0:
372,116,181005,21,2,0:2:0:0:
94,221,181220,2,0,P|181:266|259:241,1,179.39999178772,8|0,0:0|0:0,0:0:0:0:
343,182,181648,2,0,P|373:184|408:200,1,59.7999972625734,2|0,0:2|0:0,0:0:0:0:
336,336,181863,2,0,P|324:308|323:278,1,59.7999972625734,2|0,0:2|0:0,0:0:0:0:
456,288,182077,21,0,3:0:0:0:
148,144,182291,1,0,0:0:0:0:
142,173,182398,1,0,0:0:0:0:
136,202,182505,1,2,0:2:0:0:
260,312,182720,21,0,3:0:0:0:
420,84,182934,2,0,B|337:58|317:136|227:100,1,193.199994104004,8|0,0:0|0:0,0:0:0:0:
72,64,183363,22,0,P|84:96|82:144,1,64.399998034668,8|0,3:0|0:0,0:0:0:0:
384,232,183577,2,0,P|354:220|322:218,1,64.399998034668,2|0,0:2|0:0,0:0:0:0:
144,312,183791,22,0,P|173:298|204:291,1,64.399998034668,2|0,0:2|0:0,0:0:0:0:
460,152,184005,2,0,P|428:144|399:131,1,64.399998034668,0|0,3:0|0:0,0:0:0:0:
164,124,184220,1,8,3:0:0:0:
174,129,184327,2,0,B|247:121|218:80|296:71,1,128.799996069336,8|0,3:0|0:0,0:0:0:0:
316,312,184648,22,0,P|287:299|248:300,1,64.399998034668,8|0,0:0|0:0,0:0:0:0:
168,220,184863,2,0,P|138:233|106:233,1,64.399998034668,2|0,0:2|0:0,0:0:0:0:
176,64,185077,21,2,0:2:0:0:
308,180,185291,1,0,0:0:0:0:
308,180,185398,1,0,3:0:0:0:
308,180,185505,22,0,B|376:165|376:165|406:122|406:122|472:108,1,184,4|0,0:0|0:0,0:0:0:0:
296,312,186148,2,0,L|368:322,1,46,0|0,3:0|0:0,0:0:0:0:
144,324,186363,22,0,B|175:272|175:272|147:150,1,179.39999178772,8|0,0:0|0:0,0:0:0:0:
172,56,186791,2,0,P|201:55|229:65,1,59.7999972625734,8|0,3:0|0:0,0:0:0:0:
288,224,187005,2,0,P|317:224|345:214,1,59.7999972625734
400,64,187220,21,2,0:2:0:0:
140,276,187434,1,8,3:0:0:0:
428,160,187648,2,0,P|447:203|418:261,1,92,8|2,3:0|0:2,0:0:0:0:
236,88,187970,1,0,0:0:0:0:
230,102,188077,22,0,P|150:157|66:123,1,184,8|2,0:0|0:2,0:0:0:0:
56,116,188720,2,0,L|40:169,1,46
164,308,188934,22,0,L|284:280,1,92,4|0,0:0|0:0,0:0:0:0:
160,208,189363,2,0,L|180:144,1,59.7999972625734,2|0,0:2|0:0,0:0:0:0:
320,144,189577,2,0,L|300:80,1,59.7999972625734,0|0,3:0|0:0,0:0:0:0:
84,116,189791,21,8,0:0:0:0:
200,52,190005,1,2,0:2:0:0:
352,260,190220,21,4,3:2:0:0:
192,320,190434,1,2,0:2:0:0:
376,296,190648,1,2,0:2:0:0:
376,96,190863,21,8,3:0:0:0:
390,89,190970,2,0,L|375:172,1,64.399998034668,8|0,3:0|0:0,0:0:0:0:
108,168,191184,21,8,3:0:0:0:
94,161,191291,2,0,L|109:241,1,64.399998034668,8|0,3:0|0:0,0:0:0:0:
216,312,191505,21,8,0:0:0:0:
392,208,191720,1,0,3:0:0:0:
180,104,191934,21,8,3:0:0:0:
428,336,192148,2,0,P|443:303|443:268,1,69.0000026321412,0|0,3:0|0:0,0:0:0:0:
264,188,192363,22,0,B|174:171|187:252|88:233,1,184,4|0,3:2|0:0,0:0:0:0:
72,88,193005,2,0,P|96:76|132:73,1,46,0|0,3:0|0:0,0:0:0:0:
384,256,193220,22,0,B|321:242|321:242|264:270|264:270,1,92,8|0,0:0|0:0,0:0:0:0:
80,320,193648,2,0,P|113:330|147:325,1,64.399998034668,8|0,3:0|0:0,0:0:0:0:
184,120,193863,2,0,P|217:110|251:117,1,64.399998034668
372,328,194077,21,2,0:2:0:0:
334,175,194291,1,0,3:0:0:0:
320,204,194398,1,0,0:0:0:0:
321,236,194505,1,8,3:0:0:0:
460,160,194720,21,2,0:2:0:0:
311,65,194934,2,0,B|205:67|247:117|147:129,1,179.39999178772,8|0,0:0|0:0,0:0:0:0:
98,24,195363,2,0,P|126:35|171:42,1,59.7999972625734,2|0,0:2|0:0,0:0:0:0:
288,150,195577,2,0,P|260:139|230:133,1,59.7999972625734,2|0,0:2|0:0,0:0:0:0:
64,192,195791,21,4,0:0:0:0:
360,304,196005,1,0,0:0:0:0:
56,312,196220,1,2,0:2:0:0:
260,108,196434,21,0,3:0:0:0:
260,108,196541,1,8,3:0:0:0:
260,108,196648,2,0,B|370:106|306:173|423:181,1,179.39999178772,8|0,0:0|0:0,0:0:0:0:
400,324,197077,22,0,P|405:295|411:229,1,59.7999972625734,8|0,3:0|0:0,0:0:0:0:
100,232,197291,2,0,P|103:261|108:291,1,59.7999972625734,2|0,0:2|0:0,0:0:0:0:
272,312,197505,22,0,P|243:298|201:301,1,59.7999972625734,2|0,0:2|0:0,0:0:0:0:
328,60,197720,2,0,P|301:73|271:74,1,59.7999972625734,0|0,3:0|0:0,0:0:0:0:
304,192,197934,1,8,3:0:0:0:
323,182,198041,2,0,B|370:194|370:194|388:214|388:214|448:230,1,119.599994525147,8|0,3:0|0:0,0:0:0:0:
108,96,198363,22,0,B|77:99|77:99|47:116,1,59.7999972625734,8|0,0:0|0:0,0:0:0:0:
148,256,198577,2,0,B|179:253|179:253|209:236,1,59.7999972625734,2|0,0:2|0:0,0:0:0:0:
320,80,198791,21,2,0:2:0:0:
400,288,199005,1,0,0:0:0:0:
400,288,199113,1,0,3:0:0:0:
400,288,199220,22,0,B|309:268|319:333|214:307,1,184,4|2,0:0|0:2,0:0:0:0:
144,92,199863,2,0,L|213:74,1,46,0|0,3:0|0:0,0:0:0:0:
416,168,200077,22,0,B|348:183|348:183|308:160|308:160|241:175,1,179.39999178772,8|0,0:0|0:0,0:0:0:0:
144,92,200505,2,0,L|222:70,1,59.7999972625734,8|0,3:0|0:0,0:0:0:0:
416,168,200720,2,0,L|357:181,1,59.7999972625734,0|0,0:2|0:0,0:0:0:0:
144,92,200934,21,2,0:2:0:0:
416,168,201148,1,8,3:0:0:0:
132,212,201363,22,0,B|106:250|106:250|125:298,1,92,8|2,3:0|0:2,0:0:0:0:
408,288,201684,1,0,0:0:0:0:
412,273,201791,22,0,B|330:247|319:323|230:292,1,184,8|0,0:0|0:0,0:0:0:0:
148,68,202434,2,0,P|172:58|214:54,1,46,2|0,0:2|0:0,0:0:0:0:
372,184,202648,22,0,P|398:135|383:83,1,110.399996630859,4|0,3:0|0:0,0:0:0:0:
136,296,202970,2,0,P|109:247|125:195,1,110.399996630859,0|0,3:0|0:0,0:0:0:0:
424,260,203291,22,0,P|397:266|359:275,1,55.1999983154297,0|0,3:0|0:0,0:0:0:0:
84,80,203505,1,8,0:0:0:0:
368,136,203720,21,2,0:2:0:0:
355,118,203827,2,0,P|309:90|246:106,1,110.399996630859,8|0,3:0|0:0,0:0:0:0:
180,264,204148,22,0,P|186:237|195:195,1,55.1999983154297,8|0,3:0|0:0,0:0:0:0:
408,248,204363,2,0,P|413:274|419:301,1,55.1999983154297,2|0,0:2|0:0,0:0:0:0:
160,100,204577,21,8,3:0:0:0:
165,73,204684,1,8,3:0:0:0:
280,116,204898,21,8,3:0:0:0:
285,143,205005,1,8,3:0:0:0:
160,276,205220,22,0,L|89:295,1,55.1999983154297,8|0,0:0|0:0,0:0:0:0:
416,216,205434,2,0,L|471:226,1,55.1999983154297,0|0,3:0|0:0,0:0:0:0:
320,80,205648,22,0,P|286:84|257:103,1,69.0000026321412,8|0,3:0|0:0,0:0:0:0:
300,276,205863,2,0,P|328:294|362:299,1,69.0000026321412,0|0,3:0|0:0,0:0:0:0:
136,236,206077,38,0,P|159:150|101:83,1,184,6|2,0:0|0:0,0:0:0:0:
