osu file format v14

[General]
AudioFilename: audio.mp3
AudioLeadIn: 0
PreviewTime: 87563
Countdown: 0
SampleSet: Soft
StackLeniency: 0.7
Mode: 0
LetterboxInBreaks: 0
WidescreenStoryboard: 0

[Editor]
Bookmarks: 5782,169851
DistanceSpacing: 1
BeatDivisor: 4
GridSize: 4
TimelineZoom: 1

[Metadata]
Title:Dreaming Alone feat. Taka from ONE OK ROCK
TitleUnicode:Dreaming Alone feat. Taka from ONE OK ROCK
Artist:Against The Current
ArtistUnicode:Against The Current
Creator:Nyukai
Version:Alone
Source:
Tags:ATC Gravity Christina Chrissy Costanza 森田寛貴 Takahiro Morita 森内 Moriuchi
BeatmapID:1445667
BeatmapSetID:683508

[Difficulty]
HPDrainRate:6
CircleSize:4.5
OverallDifficulty:6.5
ApproachRate:8
SliderMultiplier:1.7
SliderTickRate:1

[Events]
//Background and Video events
0,0,"16-9.jpg",0,0
//Break Periods
//Storyboard Layer 0 (Background)
//Storyboard Layer 1 (Fail)
//Storyboard Layer 2 (Pass)
//Storyboard Layer 3 (Foreground)
//Storyboard Sound Samples

[TimingPoints]
253,413.793103448276,4,2,1,40,1,0
5839,-133.333333333333,4,2,1,40,0,0
46597,-117.647058823529,4,2,1,50,0,0
61494,-117.647058823529,4,2,1,60,0,0
87977,-117.647058823529,4,2,1,50,0,0
100184,-117.647058823529,4,1,1,60,0,0
101218,-100,4,1,1,70,0,1
112804,-100,4,2,1,50,0,0
114459,-117.647058823529,4,1,1,60,0,0
127701,-117.647058823529,4,2,1,50,0,0
139908,-117.647058823529,4,1,1,60,0,0
140942,-100,4,1,1,70,0,1
167425,-100,4,1,1,40,0,0

[Colours]
Combo1 : 203,192,154
Combo2 : 182,147,200
Combo3 : 203,203,199

[HitObjects]
310,129,5839,5,0,0:0:0:0:
256,68,6046,1,2,0:0:0:0:
199,127,6253,2,0,P|255:155|311:127,1,127.500004863739
364,64,6873,2,0,L|364:192,1,127.500004863739,2|0,0:0|0:0,0:0:0:0:
256,316,7701,1,2,0:0:0:0:
256,316,7908,1,0,0:0:0:0:
148,192,8321,5,0,0:0:0:0:
148,192,8528,2,0,L|148:64,1,127.500004863739,2|2,0:0|0:0,0:0:0:0:
220,24,9149,1,0,0:0:0:0:
296,60,9356,1,2,0:0:0:0:
296,60,9563,2,0,P|352:60|408:112,1,127.500004863739
404,188,10184,5,2,0:0:0:0:
256,264,10597,1,0,0:0:0:0:
108,188,11011,1,2,0:0:0:0:
256,116,11425,1,0,0:0:0:0:
348,256,11839,1,2,0:0:0:0:
256,116,12253,1,0,0:0:0:0:
164,256,12666,1,2,0:0:0:0:
164,256,12873,1,0,0:0:0:0:
256,116,13287,5,0,0:0:0:0:
256,116,13494,2,0,B|304:116|304:116|344:128|344:128|392:128,1,127.500004863739,2|0,0:0|0:0,0:0:0:0:
384,292,14321,1,2,0:0:0:0:
384,292,14528,2,0,B|336:292|336:292|296:280|296:280|248:280,1,127.500004863739
180,252,15149,2,0,P|200:192|180:132,1,127.500004863739,2|2,0:0|0:0,0:0:0:0:
336,74,15977,1,2,0:0:0:0:
336,74,16184,2,0,P|316:133|336:193,1,127.500004863739
404,244,16804,5,2,0:0:0:0:
256,316,17218,1,0,0:0:0:0:
108,244,17632,1,2,0:0:0:0:
256,168,18046,1,0,0:0:0:0:
348,304,18459,1,2,0:0:0:0:
164,304,18873,1,0,0:0:0:0:
212,236,19080,1,0,0:0:0:0:
296,236,19287,1,2,0:0:0:0:
348,304,19494,2,0,P|404:304|456:248,1,127.500004863739
456,172,20115,5,2,0:0:0:0:
336,60,20528,1,0,0:0:0:0:
256,84,20735,1,0,0:0:0:0:
176,60,20942,2,0,B|176:112|176:112|160:144|160:144|160:184,1,127.500004863739,2|0,0:0|0:0,0:0:0:0:
96,236,21563,1,0,0:0:0:0:
96,236,21770,2,0,P|156:216|216:236,1,127.500004863739,2|2,0:0|0:0,0:0:0:0:
344,340,22597,1,2,0:0:0:0:
344,340,22804,2,0,P|284:360|224:340,1,127.500004863739
152,300,23425,5,2,0:0:0:0:
256,172,23839,1,0,0:0:0:0:
360,300,24253,1,2,0:0:0:0:
256,172,24666,1,0,0:0:0:0:
156,40,25080,1,2,0:0:0:0:
88,192,25494,2,0,L|160:192,1,63.7500024318696
212,136,25908,1,2,0:0:0:0:
212,136,26115,2,0,P|238:191|210:246,1,127.500004863739
188,328,26735,6,0,L|324:328,1,127.500004863739,2|0,0:0|0:0,0:0:0:0:
376,272,27356,1,0,0:0:0:0:
352,192,27563,1,2,0:0:0:0:
376,112,27770,2,0,P|344:80|256:80,1,127.500004863739
200,128,28390,2,0,B|184:192|184:192|198:251,1,127.500004863739,2|0,0:0|0:0,0:0:0:0:
256,312,29011,1,0,0:0:0:0:
313,251,29218,2,0,B|328:192|328:192|312:128,1,127.500004863739,2|2,0:0|0:0,0:0:0:0:
256,68,29839,1,0,0:0:0:0:
200,128,30046,5,2,0:0:0:0:
256,284,30459,1,0,0:0:0:0:
312,128,30873,1,2,0:0:0:0:
160,192,31287,1,0,0:0:0:0:
352,192,31701,1,2,0:0:0:0:
256,328,32115,1,0,0:0:0:0:
200,172,32528,1,2,0:0:0:0:
256,112,32735,1,0,0:0:0:0:
312,172,32942,1,0,0:0:0:0:
200,291,33356,6,0,P|180:231|200:171,1,127.500004863739,2|0,0:0|0:0,0:0:0:0:
256,112,33977,1,0,0:0:0:0:
312,171,34184,2,0,P|331:231|312:291,1,127.500004863739,2|0,0:0|0:0,0:0:0:0:
256,352,34804,1,0,0:0:0:0:
204,288,35011,2,0,B|190:229|190:229|206:165,1,127.500004863739,2|0,0:0|0:0,0:0:0:0:
256,96,35632,1,0,0:0:0:0:
312,36,35839,2,0,B|380:36|380:36|440:76,1,127.500004863739,2|0,0:0|0:0,0:0:0:0:
412,232,36666,5,2,0:0:0:0:
340,192,36873,1,0,0:0:0:0:
412,152,37080,1,2,0:0:0:0:
429,314,37494,1,2,0:0:0:0:
356,356,37701,1,0,0:0:0:0:
280,316,37908,1,2,0:0:0:0:
188,180,38321,2,0,L|156:124,1,63.7500024318696,2|0,0:0|0:0,0:0:0:0:
256,132,38735,2,0,L|256:56,1,63.7500024318696,2|0,0:0|0:0,0:0:0:0:
324,180,39149,2,0,L|355:124,2,63.7500024318696,2|0|2,0:0|0:0|0:0,0:0:0:0:
200,292,39977,6,0,P|256:320|312:292,1,127.500004863739,2|0,0:0|0:0,0:0:0:0:
256,232,40597,1,0,0:0:0:0:
200,292,40804,2,0,L|56:292,1,127.500004863739,2|0,0:0|0:0,0:0:0:0:
128,136,41425,1,0,0:0:0:0:
128,136,41632,2,0,L|272:136,1,127.500004863739,2|0,0:0|0:0,0:0:0:0:
324,288,42459,1,2,0:0:0:0:
256,336,42666,1,0,0:0:0:0:
188,288,42873,1,0,0:0:0:0:
188,124,43287,5,2,0:0:0:0:
256,76,43494,1,0,0:0:0:0:
324,124,43701,1,2,0:0:0:0:
324,288,44115,1,2,0:0:0:0:
256,240,44321,1,0,0:0:0:0:
188,288,44528,1,2,0:0:0:0:
322,185,44942,2,0,P|330:153|322:121,1,63.7500024318696,2|0,0:0|0:0,0:0:0:0:
256,12,45356,2,0,L|256:76,1,63.7500024318696,2|0,0:0|0:0,0:0:0:0:
190,185,45770,2,0,P|182:153|190:121,2,63.7500024318696,2|0|2,0:0|0:0|0:0,0:0:0:0:
324,300,46597,6,0,B|376:300|376:300|416:276|416:276|468:276,1,144.500002756119,2|0,0:0|0:0,0:0:0:0:
480,192,47218,1,0,0:0:0:0:
461,108,47425,1,8,0:0:0:0:
312,20,47839,1,0,0:0:0:0:
256,88,48046,1,0,0:0:0:0:
200,20,48253,2,0,B|136:20|136:60|52:60,1,144.500002756119,2|2,0:0|0:0,0:0:0:0:
60,232,49080,1,8,0:0:0:0:
60,232,49287,2,0,B|124:232|124:192|208:192,1,144.500002756119,2|0,0:0|0:0,0:0:0:0:
284,196,49908,5,2,0:0:0:0:
436,116,50321,1,0,0:0:0:0:
468,196,50528,1,0,0:0:0:0:
436,268,50735,2,0,B|364:268|364:268|304:320,1,144.500002756119,8|0,0:0|0:0,0:0:0:0:
256,244,51356,1,0,0:0:0:0:
202,315,51563,2,0,B|148:268|148:268|76:268,1,144.500002756119,2|2,0:0|0:0,0:0:0:0:
32,192,52184,1,0,0:0:0:0:
76,116,52390,1,8,0:0:0:0:
76,116,52597,2,0,B|148:116|148:116|202:68,1,144.500002756119,2|0,0:0|0:0,0:0:0:0:
268,8,53218,6,0,P|240:72|268:136,1,144.500002756119,2|0,0:0|0:0,0:0:0:0:
328,72,53839,1,0,0:0:0:0:
268,136,54046,2,0,L|140:236,1,144.500002756119,8|0,0:0|0:0,0:0:0:0:
256,364,54873,2,0,L|384:264,1,144.500002756119,2|0,0:0|0:0,0:0:0:0:
320,108,55701,1,8,0:0:0:0:
256,48,55908,1,0,0:0:0:0:
192,108,56115,1,0,0:0:0:0:
192,280,56528,5,2,0:0:0:0:
256,340,56735,1,0,0:0:0:0:
320,280,56942,1,2,0:0:0:0:
320,108,57356,1,8,0:0:0:0:
256,48,57563,1,0,0:0:0:0:
192,108,57770,1,2,0:0:0:0:
380,192,58184,1,2,0:0:0:0:
380,192,61494,5,2,0:0:0:0:
328,28,61908,1,0,0:0:0:0:
256,76,62115,1,0,0:0:0:0:
184,28,62321,2,0,P|132:28|88:64,2,108.375002067089,8|2|0,0:0|0:0|0:0,0:0:0:0:
256,76,63149,2,0,L|256:232,1,144.500002756119,2|0,0:0|0:0,0:0:0:0:
196,284,63770,1,0,0:0:0:0:
256,348,63977,1,8,0:0:0:0:
256,348,64184,2,0,P|328:348|380:300,1,144.500002756119
380,216,64804,5,2,0:0:0:0:
324,52,65218,1,0,0:0:0:0:
256,104,65425,1,0,0:0:0:0:
188,52,65632,2,0,P|116:52|56:116,1,144.500002756119,8|0,0:0|0:0,0:0:0:0:
20,172,66253,1,0,0:0:0:0:
64,248,66459,2,0,L|116:308,1,72.2500013780594,2|0,0:0|0:0,0:0:0:0:
247,350,66873,2,0,L|200:296,1,72.2500013780594,0|0,0:0|0:0,0:0:0:0:
160,216,67287,2,0,B|160:144|160:144|160:100|200:80,1,144.500002756119,8|2,0:0|0:0,0:0:0:0:
256,24,67908,1,0,0:0:0:0:
318,83,68115,6,0,B|352:100|352:144|352:144|352:216,1,144.500002756119,2|0,0:0|0:0,0:0:0:0:
304,288,68735,1,0,0:0:0:0:
256,360,68942,2,0,L|144:360,2,108.375002067089,8|2|0,0:0|0:0|0:0,0:0:0:0:
304,288,69770,2,0,P|344:288|372:264,1,72.2500013780594,2|0,0:0|0:0,0:0:0:0:
256,136,70184,2,0,P|216:136|188:160,1,72.2500013780594,2|0,0:0|0:0,0:0:0:0:
160,293,70597,2,0,L|280:212,1,144.500002756119,8|0,0:0|0:0,0:0:0:0:
348,156,71218,1,0,0:0:0:0:
408,92,71425,6,0,P|436:156|408:220,1,144.500002756119,2|0,0:0|0:0,0:0:0:0:
328,256,72046,1,0,0:0:0:0:
328,256,72253,2,0,L|480:256,1,144.500002756119,8|0,0:0|0:0,0:0:0:0:
328,160,73080,2,0,L|176:160,1,144.500002756119,2|0,0:0|0:0,0:0:0:0:
116,104,73701,1,0,0:0:0:0:
183,160,73908,2,0,P|192:194|180:227,1,72.2500013780594,8|0,0:0|0:0,0:0:0:0:
256,272,74321,1,2,0:0:0:0:
331,227,74528,2,0,P|319:194|328:160,1,72.2500013780594,0|2,0:0|0:0,0:0:0:0:
332,332,75149,5,0,0:0:0:0:
256,292,75356,1,0,0:0:0:0:
180,332,75563,2,0,B|148:296|148:296|136:248|136:248|100:216,1,144.500002756119,8|2,0:0|0:0,0:0:0:0:
28,168,76184,1,0,0:0:0:0:
100,120,76390,2,0,L|176:120,1,72.2500013780594,2|0,0:0|0:0,0:0:0:0:
328,148,76804,2,0,L|256:148,1,72.2500013780594
180,192,77218,2,0,P|158:239|182:286,2,108.375002067089,8|2|0,0:0|0:0|0:0,0:0:0:0:
255,148,78046,6,0,P|283:148|323:180,1,72.2500013780594,2|0,0:0|0:0,0:0:0:0:
320,348,78459,2,0,P|292:348|252:316,1,72.2500013780594,2|0,0:0|0:0,0:0:0:0:
183,217,78873,2,0,L|320:264,1,144.500002756119,8|0,0:0|0:0,0:0:0:0:
376,332,79494,1,0,0:0:0:0:
319,263,79701,2,0,L|315:175,1,72.2500013780594,2|0,0:0|0:0,0:0:0:0:
256,128,80115,1,0,0:0:0:0:
196,190,80321,2,0,L|193:263,2,72.2500013780594,0|8|0,0:0|0:0|0:0,0:0:0:0:
256,128,80942,1,2,0:0:0:0:
312,192,81149,1,0,0:0:0:0:
368,256,81356,5,2,0:0:0:0:
256,128,81770,1,2,0:0:0:0:
144,256,82184,2,0,P|80:256|52:216,2,108.375002067089,8|2|0,0:0|0:0|0:0,0:0:0:0:
188,180,83011,2,0,B|212:152|212:152|212:112,1,72.2500013780594,2|0,0:0|0:0,0:0:0:0:
300,116,83425,2,0,B|300:152|300:152|324:180,1,72.2500013780594,2|0,0:0|0:0,0:0:0:0:
320,268,83839,2,0,P|256:296|192:268,1,144.500002756119,8|2,0:0|0:0,0:0:0:0:
256,208,84459,1,0,0:0:0:0:
191,267,84666,6,0,L|40:276,1,144.500002756119,2|0,0:0|0:0,0:0:0:0:
24,192,85287,1,0,0:0:0:0:
46,108,85494,2,0,L|191:117,1,144.500002756119,8|0,0:0|0:0,0:0:0:0:
256,172,86115,1,0,0:0:0:0:
304,244,86321,2,0,P|312:278|300:311,1,72.2500013780594,2|0,0:0|0:0,0:0:0:0:
211,311,86735,2,0,P|199:278|208:244,1,72.2500013780594,2|0,0:0|0:0,0:0:0:0:
256,172,87149,1,8,0:0:0:0:
256,148,87563,1,2,0:0:0:0:
256,128,87977,5,4,0:0:0:0:
416,328,88804,1,2,0:0:0:0:
256,128,89632,1,2,0:0:0:0:
96,328,90459,1,2,0:0:0:0:
328,68,91287,5,2,0:0:0:0:
256,116,91494,1,0,0:0:0:0:
184,68,91701,1,2,0:0:0:0:
20,128,92115,1,2,0:0:0:0:
80,192,92321,1,0,0:0:0:0:
20,256,92528,1,2,0:0:0:0:
172,340,92942,2,0,P|188:304|188:272,1,72.2500013780594,2|0,0:0|0:0,0:0:0:0:
256,143,93356,2,0,L|256:216,1,72.2500013780594,2|0,0:0|0:0,0:0:0:0:
340,340,93770,2,0,P|324:304|324:272,2,72.2500013780594,2|0|2,0:0|0:0|0:0,0:0:0:0:
492,256,94597,5,2,0:0:0:0:
152,192,95425,1,2,0:0:0:0:
492,128,96253,1,2,0:0:0:0:
216,336,97080,1,2,0:0:0:0:
296,48,97908,5,2,0:0:0:0:
256,124,98115,1,0,0:0:0:0:
296,200,98321,1,2,0:0:0:0:
456,272,98735,1,2,0:0:0:0:
492,192,98942,1,0,0:0:0:0:
456,116,99148,1,2,0:0:0:0:
316,220,99563,2,0,L|344:286,1,72.2500013780594,2|0,0:0|0:0,0:0:0:0:
256,352,99977,1,0,0:0:0:0:
167,286,100184,5,8,0:0:0:0:
167,286,100287,1,0,0:0:0:0:
167,286,100390,2,0,L|196:220,1,72.2500013780594,8|0,0:0|0:0,0:0:0:0:
300,136,100804,1,0,0:0:0:0:
212,136,101011,1,8,0:0:0:0:
316,220,101218,6,0,P|392:220|436:308,1,170,4|0,0:0|0:0,0:0:0:0:
352,296,101839,1,0,0:0:0:0:
352,296,102046,2,0,L|456:136,1,170,8|0,0:0|0:0,0:0:0:0:
384,92,102666,1,0,0:0:0:0:
320,36,102873,1,0,0:0:0:0:
256,192,103287,2,0,L|256:280,1,85
296,352,103701,1,8,0:0:0:0:
216,352,103908,1,0,0:0:0:0:
160,192,104321,5,0,0:0:0:0:
160,192,104425,1,0,0:0:0:0:
160,192,104528,2,0,P|160:72|192:40,1,170
256,96,105149,1,0,0:0:0:0:
322,41,105356,2,0,P|367:110|352:192,1,170,8|0,0:0|0:0,0:0:0:0:
312,268,105977,1,0,0:0:0:0:
256,332,106184,1,0,0:0:0:0:
216,168,106597,2,0,P|172:168|140:140,1,85
296,168,107011,2,0,P|340:168|372:140,1,85,8|0,0:0|0:0,0:0:0:0:
256,268,107632,5,0,0:0:0:0:
256,268,107735,1,0,0:0:0:0:
256,268,107839,2,0,B|196:260|196:260|148:268|148:268|80:252,1,170
32,192,108459,1,0,0:0:0:0:
88,129,108666,2,0,B|148:116|148:116|196:124|196:124|256:116,1,170,8|0,0:0|0:0,0:0:0:0:
312,52,109287,1,0,0:0:0:0:
312,52,109494,2,0,P|265:116|313:179,1,170
376,236,110115,1,0,0:0:0:0:
312,292,110321,2,0,L|136:316,1,170,8|0,0:0|0:0,0:0:0:0:
68,272,110942,5,0,0:0:0:0:
68,272,111046,1,0,0:0:0:0:
68,272,111149,1,0,0:0:0:0:
100,192,111356,1,0,0:0:0:0:
68,112,111563,1,0,0:0:0:0:
224,176,111977,1,8,0:0:0:0:
256,256,112184,1,0,0:0:0:0:
256,340,112390,1,0,0:0:0:0:
256,44,112804,1,10,0:0:0:0:
256,44,114459,5,4,0:0:0:0:
320,204,114873,1,0,0:0:0:0:
256,260,115080,1,0,0:0:0:0:
192,204,115287,2,0,P|116:204|72:152,2,144.500002756119,8|0|0,0:0|0:0|0:0,0:0:0:0:
360,156,116528,2,0,L|360:236,1,72.2500013780594
360,316,116942,1,8,0:0:0:0:
256,176,117356,1,0,0:0:0:0:
188,228,117563,1,0,0:0:0:0:
188,228,117666,1,0,0:0:0:0:
188,228,117770,6,0,L|116:176,1,72.2500013780594
68,124,118184,1,0,0:0:0:0:
128,60,118390,1,0,0:0:0:0:
216,60,118597,2,0,B|276:60|276:60|304:76|304:76|360:76,1,144.500002756119,8|0,0:0|0:0,0:0:0:0:
396,244,119425,2,0,B|336:244|336:244|308:228|308:228|252:228,1,144.500002756119
176,192,120046,1,0,0:0:0:0:
96,156,120253,1,8,0:0:0:0:
212,28,120666,1,0,0:0:0:0:
300,28,120873,5,0,0:0:0:0:
300,28,120977,1,0,0:0:0:0:
300,28,121080,2,0,P|340:28|380:60,1,72.2500013780594
400,124,121494,2,0,L|352:204,1,72.2500013780594
300,248,121908,1,8,0:0:0:0:
212,248,122115,2,0,P|140:248|88:192,1,144.500002756119
4,204,122735,2,0,L|148:112,1,144.500002756119
196,72,123356,1,0,0:0:0:0:
268,120,123563,2,0,P|336:120|380:176,1,144.500002756119,8|0,0:0|0:0,0:0:0:0:
380,264,124184,5,0,0:0:0:0:
380,264,124287,1,0,0:0:0:0:
380,264,124390,2,0,B|340:264|340:264|304:280,1,72.2500013780594
132,264,124804,2,0,B|172:264|172:264|208:280,1,72.2500013780594
256,208,125218,1,8,0:0:0:0:
256,208,125632,1,0,0:0:0:0:
304,136,125839,1,0,0:0:0:0:
256,64,126046,2,0,L|184:64,1,72.2500013780594
124,128,126459,1,0,0:0:0:0:
180,192,126666,5,8,0:0:0:0:
180,192,126770,1,0,0:0:0:0:
180,192,126873,1,8,0:0:0:0:
256,128,127080,1,0,0:0:0:0:
332,192,127287,1,0,0:0:0:0:
256,256,127494,1,8,0:0:0:0:
256,256,127597,1,0,0:0:0:0:
256,256,127701,5,2,0:0:0:0:
96,56,128528,1,2,0:0:0:0:
256,256,129356,1,2,0:0:0:0:
416,56,130183,1,2,0:0:0:0:
184,316,131011,5,2,0:0:0:0:
256,268,131218,1,0,0:0:0:0:
328,316,131425,1,2,0:0:0:0:
492,256,131839,1,2,0:0:0:0:
432,192,132045,1,0,0:0:0:0:
492,128,132252,1,2,0:0:0:0:
340,44,132666,2,0,P|324:80|324:112,1,72.2500013780594,2|0,0:0|0:0,0:0:0:0:
256,241,133080,2,0,L|256:168,1,72.2500013780594,2|0,0:0|0:0,0:0:0:0:
172,44,133494,2,0,P|188:80|188:112,2,72.2500013780594,2|0|2,0:0|0:0|0:0,0:0:0:0:
20,128,134321,5,2,0:0:0:0:
360,192,135149,1,2,0:0:0:0:
20,256,135977,1,2,0:0:0:0:
296,48,136804,1,2,0:0:0:0:
216,336,137632,5,2,0:0:0:0:
256,260,137839,1,0,0:0:0:0:
216,184,138045,1,2,0:0:0:0:
56,112,138459,1,2,0:0:0:0:
20,192,138666,1,0,0:0:0:0:
56,264,138872,1,2,0:0:0:0:
196,164,139287,2,0,L|168:98,1,72.2500013780594,2|0,0:0|0:0,0:0:0:0:
256,32,139701,1,0,0:0:0:0:
345,98,139908,5,8,0:0:0:0:
345,98,140011,1,0,0:0:0:0:
345,98,140114,2,0,L|316:164,1,72.2500013780594,8|0,0:0|0:0,0:0:0:0:
256,228,140528,1,8,0:0:0:0:
256,228,140942,6,0,B|188:228|188:280|84:280,1,170,4|0,0:0|0:0,0:0:0:0:
44,212,141563,1,0,0:0:0:0:
40,128,141770,2,0,B|112:72|112:72|204:72,1,170,8|0,0:0|0:0,0:0:0:0:
256,124,142390,1,0,0:0:0:0:
321,72,142597,2,0,B|400:72|400:72|472:128,1,170
412,192,143218,1,0,0:0:0:0:
472,256,143425,1,8,0:0:0:0:
472,256,143632,1,0,0:0:0:0:
320,332,144046,1,0,0:0:0:0:
320,332,144253,6,0,P|272:332|296:244,1,170
360,192,144873,1,0,0:0:0:0:
292,139,145080,2,0,P|250:78|320:52,2,170,8|0|0,0:0|0:0|0:0,0:0:0:0:
364,292,146321,1,0,0:0:0:0:
300,348,146528,1,0,0:0:0:0:
212,348,146735,1,8,0:0:0:0:
148,292,146942,1,0,0:0:0:0:
148,120,147356,1,0,0:0:0:0:
148,120,147563,6,0,B|220:120|220:120|256:140|256:140|328:140,1,170,4|0,0:0|0:0,0:0:0:0:
380,192,148184,1,0,0:0:0:0:
312,244,148390,2,0,B|256:244|256:244|220:264|220:264|148:264,1,170,8|0,0:0|0:0,0:0:0:0:
104,192,149011,1,0,0:0:0:0:
148,120,149218,1,0,0:0:0:0:
320,120,149632,1,0,0:0:0:0:
364,192,149839,1,0,0:0:0:0:
320,264,150046,2,0,L|248:340,1,85,8|0,0:0|0:0,0:0:0:0:
145,325,150459,2,0,L|204:264,1,85
256,196,150873,5,0,0:0:0:0:
300,124,151080,1,0,0:0:0:0:
256,52,151287,1,0,0:0:0:0:
100,120,151701,1,8,0:0:0:0:
56,192,151908,1,0,0:0:0:0:
100,264,152115,1,0,0:0:0:0:
256,332,152528,5,4,0:0:0:0:
312,268,152735,1,8,0:0:0:0:
312,268,152839,1,0,0:0:0:0:
312,268,152942,2,0,P|360:268|384:240,1,85,8|0,0:0|0:0,0:0:0:0:
256,200,153356,5,4,0:0:0:0:
200,268,153563,1,8,0:0:0:0:
188,268,153666,1,0,0:0:0:0:
176,268,153770,1,8,0:0:0:0:
164,268,153873,1,0,0:0:0:0:
152,268,153977,1,0,0:0:0:0:
140,268,154080,1,0,0:0:0:0:
128,268,154184,6,0,P|84:268|52:232,1,85,4|0,0:0|0:0,0:0:0:0:
76,160,154597,2,0,L|140:96,1,85
196,36,155011,1,8,0:0:0:0:
256,196,155425,1,0,0:0:0:0:
316,36,155839,2,0,P|356:36|396:72,1,85
472,208,156253,2,0,P|432:208|392:172,1,85
344,116,156666,1,8,0:0:0:0:
256,264,157080,1,0,0:0:0:0:
304,192,157287,1,0,0:0:0:0:
344,116,157494,6,0,P|384:116|424:144,1,85
488,192,157908,1,0,0:0:0:0:
420,244,158115,2,0,P|385:267|344:268,2,85,0|8|0,0:0|0:0|0:0,0:0:0:0:
488,192,158735,1,0,0:0:0:0:
388,56,159149,2,0,B|344:56|344:56|300:80,1,85
124,56,159563,2,0,B|168:56|168:56|212:80,1,85
256,144,159977,2,0,L|256:236,2,85,8|0|8,0:0|0:0|0:0,0:0:0:0:
400,52,160804,6,0,P|448:52|408:128,1,170,4|0,0:0|0:0,0:0:0:0:
356,192,161425,1,0,0:0:0:0:
414,253,161632,2,0,P|466:304|400:332,2,170,8|0|0,0:0|0:0|0:0,0:0:0:0:
256,200,162873,2,0,L|256:104,1,85
320,56,163287,2,0,P|360:56|400:96,1,85,8|0,0:0|0:0,0:0:0:0:
192,56,163701,2,0,P|150:56|118:83,1,85
80,160,164115,5,4,0:0:0:0:
80,244,164321,1,0,0:0:0:0:
118,319,164528,1,0,0:0:0:0:
256,220,164942,2,0,L|256:128,2,85,8|0|0,0:0|0:0|0:0,0:0:0:0:
394,319,165770,1,0,0:0:0:0:
432,244,165977,1,0,0:0:0:0:
432,160,166184,2,0,L|348:116,1,85
256,200,166597,2,0,L|256:288,1,85,8|0,0:0|0:0,0:0:0:0:
80,160,167011,2,0,L|164:116,1,85,8|0,0:0|0:0,0:0:0:0:
256,44,167425,5,4,0:0:0:0:
328,88,167632,1,0,0:0:0:0:
300,168,167839,1,0,0:0:0:0:
212,168,168046,1,0,0:0:0:0:
184,88,168253,1,8,0:0:0:0:
388,244,168873,5,0,0:0:0:0:
380,328,169080,1,0,0:0:0:0:
296,348,169287,1,0,0:0:0:0:
216,348,169494,1,0,0:0:0:0:
132,328,169701,1,0,0:0:0:0:
124,244,169908,1,8,0:0:0:0:
