osu file format v14

[General]
AudioFilename: audio.mp3
AudioLeadIn: 0
PreviewTime: 87563
Countdown: 0
SampleSet: Normal
StackLeniency: 0.7
Mode: 0
LetterboxInBreaks: 0
WidescreenStoryboard: 0

[Editor]
Bookmarks: 5782,169851
DistanceSpacing: 1
BeatDivisor: 2
GridSize: 4
TimelineZoom: 1

[Metadata]
Title:Dreaming Alone feat. Taka from ONE OK ROCK
TitleUnicode:Dreaming Alone feat. Taka from ONE OK ROCK
Artist:Against The Current
ArtistUnicode:Against The Current
Creator:Nyukai
Version:Normal
Source:
Tags:ATC Gravity Christina Chrissy Costanza 森田寛貴 Takahiro Morita 森内 Moriuchi
BeatmapID:1445839
BeatmapSetID:683508

[Difficulty]
HPDrainRate:4
CircleSize:3.5
OverallDifficulty:4
ApproachRate:5
SliderMultiplier:1.3
SliderTickRate:1

[Events]
//Background and Video events
0,0,"16-9.jpg",0,0
//Break Periods
//Storyboard Layer 0 (Background)
//Storyboard Layer 1 (Fail)
//Storyboard Layer 2 (Pass)
//Storyboard Layer 3 (Foreground)
//Storyboard Sound Samples

[TimingPoints]
253,413.793103448276,4,2,1,40,1,0
5839,-100,4,2,1,40,0,0
46597,-100,4,2,1,50,0,0
61494,-100,4,2,1,60,0,0
87977,-100,4,2,1,50,0,0
100184,-100,4,1,1,60,0,0
101218,-100,4,1,1,70,0,1
112804,-100,4,2,1,50,0,0
114459,-100,4,1,1,60,0,0
127701,-100,4,2,1,50,0,0
139908,-100,4,1,1,60,0,0
140942,-100,4,1,1,70,0,1
167425,-100,4,1,1,40,0,0

[Colours]
Combo1 : 203,192,154
Combo2 : 182,147,200
Combo3 : 203,203,199

[HitObjects]
192,240,6046,6,0,P|256:332|320:240,1,260,2|2,0:0|0:0,0:0:0:0:
256,128,7287,1,0,0:0:0:0:
156,44,7701,2,0,P|112:44|44:100,1,130,2|0,0:0|0:0,0:0:0:0:
132,192,8528,1,2,0:0:0:0:
46,289,8942,2,0,P|92:333|156:340,1,130,2|2,0:0|0:0,0:0:0:0:
368,192,10184,6,0,B|368:136|368:136|384:104|384:104|392:56,2,130,2|0|2,0:0|0:0|0:0,0:0:0:0:
256,260,11425,1,0,0:0:0:0:
144,192,11839,2,0,B|144:136|144:136|128:104|128:104|121:66,2,130,2|0|2,0:0|0:0|0:0,0:0:0:0:
368,324,13494,6,0,P|416:324|472:260,1,130,2|0,0:0|0:0,0:0:0:0:
480,140,14321,2,0,P|424:140|372:84,1,130,2|0,0:0|0:0,0:0:0:0:
256,36,15149,1,2,0:0:0:0:
138,90,15563,2,0,P|95:136|32:140,1,130,2|2,0:0|0:0,0:0:0:0:
208,332,16804,6,0,B|256:288|256:288|304:332,2,130,2|0|2,0:0|0:0|0:0,0:0:0:0:
84,288,18046,1,0,0:0:0:0:
164,188,18459,2,0,B|192:144|192:116|192:116|192:52,1,130,2|0,0:0|0:0,0:0:0:0:
320,64,19287,2,0,B|320:116|320:116|320:144|348:188,1,130,2|0,0:0|0:0,0:0:0:0:
424,296,20115,6,0,P|384:344|308:344,1,130,2|0,0:0|0:0,0:0:0:0:
191,349,20942,2,0,P|128:344|88:296,1,130,2|0,0:0|0:0,0:0:0:0:
8,192,21770,2,0,B|68:140|68:140|116:144|116:144|156:108|156:108|244:116,1,260,2|2,0:0|0:0,0:0:0:0:
340,192,23011,1,0,0:0:0:0:
256,292,23425,6,0,P|216:328|136:328,2,130,2|0|2,0:0|0:0|0:0,0:0:0:0:
340,192,24666,1,0,0:0:0:0:
256,92,25080,2,0,P|216:56|136:56,2,130,2|0|2,0:0|0:0|0:0,0:0:0:0:
256,224,26321,1,0,0:0:0:0:
188,336,26735,6,0,B|116:336|116:336|52:284,1,130,2|0,0:0|0:0,0:0:0:0:
148,192,27563,1,2,0:0:0:0:
70,84,27977,1,0,0:0:0:0:
200,64,28390,2,0,P|276:64|324:108,1,130,2|0,0:0|0:0,0:0:0:0:
404,192,29218,1,2,0:0:0:0:
328,296,29632,1,2,0:0:0:0:
256,188,30046,6,0,P|192:188|132:232,2,130,2|0|2,0:0|0:0|0:0,0:0:0:0:
328,296,31287,1,0,0:0:0:0:
404,192,31701,2,0,L|424:56,1,130,2|0,0:0|0:0,0:0:0:0:
292,60,32528,2,0,L|272:196,1,130,2|0,0:0|0:0,0:0:0:0:
176,272,33356,6,0,P|160:272|156:88,1,260,2|2,0:0|0:0,0:0:0:0:
256,56,34597,1,0,0:0:0:0:
381,95,35011,2,0,P|433:202|336:272,1,260,2|2,0:0|0:0,0:0:0:0:
136,108,36666,6,0,L|84:64,2,65,2|0|2,0:0|0:0|0:0,0:0:0:0:
112,236,37494,2,0,L|60:192,2,65,2|0|2,0:0|0:0|0:0,0:0:0:0:
200,332,38321,2,0,P|256:360|312:332,1,130,2|2,0:0|0:0,0:0:0:0:
368,212,39149,2,0,P|312:184|256:212,1,130,2|2,0:0|0:0,0:0:0:0:
132,256,39977,6,0,P|132:92|208:72,1,260,2|2,0:0|0:0,0:0:0:0:
256,188,41218,1,0,0:0:0:0:
314,71,41632,2,0,P|414:139|380:256,1,260,2|2,0:0|0:0,0:0:0:0:
132,332,43287,6,0,L|68:292,2,65,2|0|2,0:0|0:0|0:0,0:0:0:0:
256,288,44115,2,0,L|256:192,2,65,2|0|2,0:0|0:0|0:0,0:0:0:0:
380,332,44942,2,0,L|496:256,1,130,2|2,0:0|0:0,0:0:0:0:
488,132,45770,2,0,L|372:208,1,130,2|2,0:0|0:0,0:0:0:0:
256,248,46597,6,0,P|96:248|80:168,1,260,2|8,0:0|0:0,0:0:0:0:
132,60,47839,1,0,0:0:0:0:
256,100,48253,1,2,0:0:0:0:
384,60,48666,2,0,L|480:60,2,65,2|0|8,0:0|0:0|0:0,0:0:0:0:
160,196,49908,6,0,B|224:228|256:284|256:284|288:228|352:196,1,260,2|8,0:0|0:0,0:0:0:0:
380,72,51149,1,0,0:0:0:0:
256,32,51563,1,2,0:0:0:0:
132,72,51977,2,0,P|92:72|64:52,2,65,2|0|8,0:0|0:0|0:0,0:0:0:0:
372,168,53218,6,0,B|404:232|460:264|460:264|404:296|373:356,1,260,2|8,0:0|0:0,0:0:0:0:
256,296,54459,1,0,0:0:0:0:
140,356,54873,2,0,B|110:296|54:264|54:264|110:232|142:168,1,260,2|8,0:0|0:0,0:0:0:0:
380,64,56528,6,0,L|460:52,2,65,2|0|0,0:0|0:0|0:0,0:0:0:0:
256,108,57356,2,0,L|256:204,2,65,8|0|2,0:0|0:0|0:0,0:0:0:0:
132,64,58184,1,2,0:0:0:0:
132,64,61494,5,2,0:0:0:0:
104,192,61908,1,0,0:0:0:0:
132,320,62321,2,0,P|196:320|244:288,1,97.5,8|2,0:0|0:0,0:0:0:0:
312,260,62942,2,0,L|384:260,1,65,0|2,0:0|0:0,0:0:0:0:
488,192,63563,1,0,0:0:0:0:
377,124,63977,2,0,P|296:124|252:96,1,130,8|0,0:0|0:0,0:0:0:0:
144,168,64804,6,0,P|70:263|143:360,1,260,2|8,0:0|0:0,0:0:0:0:
256,296,66046,1,0,0:0:0:0:
368,360,66459,2,0,P|442:263|368:168,1,260,2|8,0:0|0:0,0:0:0:0:
256,104,67701,2,0,L|256:28,2,65,2|0|2,0:0|0:0|0:0,0:0:0:0:
256,236,68528,5,0,0:0:0:0:
164,328,68942,2,0,P|100:328|64:296,1,97.5,8|2,0:0|0:0,0:0:0:0:
44,216,69563,2,0,L|96:156,1,65,0|2,0:0|0:0,0:0:0:0:
184,80,70184,1,2,0:0:0:0:
256,188,70597,1,8,0:0:0:0:
328,80,71011,1,0,0:0:0:0:
460,80,71425,6,0,B|460:208|460:208|344:308,1,260,2|8,0:0|0:0,0:0:0:0:
256,216,72666,1,0,0:0:0:0:
151,294,73080,2,0,B|52:208|52:208|52:80,1,260,2|8,0:0|0:0,0:0:0:0:
180,72,74321,2,0,P|244:72|300:128,1,130,2|2,0:0|0:0,0:0:0:0:
396,192,75149,6,0,L|396:268,2,65,0|0|8,0:0|0:0|0:0,0:0:0:0:
376,64,75977,1,2,0:0:0:0:
256,116,76390,1,2,0:0:0:0:
136,64,76804,1,0,0:0:0:0:
116,192,77218,2,0,P|88:228|88:280,1,97.5,8|2,0:0|0:0,0:0:0:0:
160,344,77839,2,0,L|228:344,1,65,0|2,0:0|0:0,0:0:0:0:
352,320,78459,6,0,B|368:256|368:256|352:193,1,130,2|8,0:0|0:0,0:0:0:0:
256,104,79287,1,0,0:0:0:0:
159,193,79701,2,0,B|144:256|144:256|160:320,2,130,2|0|8,0:0|0:0|0:0,0:0:0:0:
256,104,80942,2,0,L|324:132,2,65,2|0|2,0:0|0:0|0:0,0:0:0:0:
128,72,81770,5,2,0:0:0:0:
76,192,82184,2,0,L|120:288,1,97.5,8|2,0:0|0:0,0:0:0:0:
192,340,82804,2,0,P|224:340|264:320,1,65,0|2,0:0|0:0,0:0:0:0:
372,272,83425,1,2,0:0:0:0:
268,192,83839,1,8,0:0:0:0:
372,112,84253,1,2,0:0:0:0:
256,56,84666,6,0,P|96:56|56:136,1,260,2|8,0:0|0:0,0:0:0:0:
172,192,85908,1,0,0:0:0:0:
56,254,86321,2,0,P|134:350|256:328,1,260,2|8,0:0|0:0,0:0:0:0:
336,224,87563,1,2,0:0:0:0:
256,120,87977,5,4,0:0:0:0:
412,328,88804,1,2,0:0:0:0:
256,120,89632,1,2,0:0:0:0:
100,328,90459,1,2,0:0:0:0:
336,224,91287,6,0,L|408:224,2,65,2|0|2,0:0|0:0|0:0,0:0:0:0:
256,120,92115,2,0,L|256:52,2,65,2|0|2,0:0|0:0|0:0,0:0:0:0:
176,224,92942,2,0,P|96:224|60:184,1,130,2|2,0:0|0:0,0:0:0:0:
48,60,93770,2,0,P|128:60|164:100,1,130,2|2,0:0|0:0,0:0:0:0:
256,180,94597,5,2,0:0:0:0:
56,348,95425,1,2,0:0:0:0:
256,180,96253,1,2,0:0:0:0:
456,348,97080,1,2,0:0:0:0:
196,324,97908,6,0,P|152:324|128:308,2,65,2|0|2,0:0|0:0|0:0,0:0:0:0:
256,208,98735,2,0,L|256:132,2,65,2|0|2,0:0|0:0|0:0,0:0:0:0:
316,324,99563,1,2,0:0:0:0:
424,252,99977,2,0,L|488:252,2,65,0|8|8,0:0|0:0|0:0,0:0:0:0:
308,192,100804,1,0,0:0:0:0:
420,128,101218,6,0,B|368:80|368:80|296:80|296:80|248:44|248:44|172:44,1,260,4|8,0:0|0:0,0:0:0:0:
72,100,102459,1,0,0:0:0:0:
164,192,102873,1,0,0:0:0:0:
72,284,103287,2,0,L|72:352,2,65,0|0|8,0:0|0:0|0:0,0:0:0:0:
176,48,104528,6,0,P|256:132|336:48,1,260,0|8,0:0|0:0,0:0:0:0:
456,100,105770,1,0,0:0:0:0:
456,232,106184,1,0,0:0:0:0:
336,284,106597,2,0,L|336:360,2,65,0|0|8,0:0|0:0|0:0,0:0:0:0:
256,36,107839,6,0,P|120:36|52:144,1,260,0|8,0:0|0:0,0:0:0:0:
168,192,109080,1,0,0:0:0:0:
53,255,109494,2,0,P|130:353|256:348,1,260,0|8,0:0|0:0,0:0:0:0:
360,108,111149,6,0,L|392:40,2,65,0|0|0,0:0|0:0|0:0,0:0:0:0:
256,188,111977,2,0,L|256:280,2,65,8|0|0,0:0|0:0|0:0,0:0:0:0:
152,108,112804,1,10,0:0:0:0:
152,108,114459,6,0,P|152:280|208:280,1,260,4|8,0:0|0:0,0:0:0:0:
256,176,115701,1,0,0:0:0:0:
327,284,116115,2,0,P|420:210|360:108,1,260,0|8,0:0|0:0,0:0:0:0:
256,32,117356,1,0,0:0:0:0:
152,107,117770,6,0,L|48:200,1,130,0|0,0:0|0:0,0:0:0:0:
76,324,118597,2,0,L|180:231,1,130,8|0,0:0|0:0,0:0:0:0:
256,140,119425,1,0,0:0:0:0:
338,237,119839,2,0,L|436:324,2,130,0|8|0,0:0|0:0|0:0,0:0:0:0:
256,140,121080,6,0,P|256:68|400:112,1,260,0|8,0:0|0:0,0:0:0:0:
472,192,122321,1,0,0:0:0:0:
398,298,122735,2,0,P|296:351|256:244,1,260,0|8,0:0|0:0,0:0:0:0:
344,144,123977,1,0,0:0:0:0:
256,52,124390,5,0,0:0:0:0:
168,144,124804,1,0,0:0:0:0:
160,272,125218,2,0,B|256:360|256:360|352:272,1,260,8|0,0:0|0:0,0:0:0:0:
452,192,126459,1,0,0:0:0:0:
328,156,126873,2,0,L|344:80,2,65,8|0|0,0:0|0:0|0:0,0:0:0:0:
256,264,127701,5,2,0:0:0:0:
100,56,128528,1,2,0:0:0:0:
256,264,129356,1,2,0:0:0:0:
412,56,130183,1,2,0:0:0:0:
176,160,131011,6,0,L|104:160,2,65,2|0|2,0:0|0:0|0:0,0:0:0:0:
256,264,131839,2,0,L|256:332,2,65,2|0|2,0:0|0:0|0:0,0:0:0:0:
336,160,132666,2,0,P|416:160|452:200,1,130,2|2,0:0|0:0,0:0:0:0:
464,324,133494,2,0,P|384:324|348:284,1,130,2|2,0:0|0:0,0:0:0:0:
256,204,134321,5,2,0:0:0:0:
456,36,135149,1,2,0:0:0:0:
256,204,135977,1,2,0:0:0:0:
56,36,136804,1,2,0:0:0:0:
316,60,137632,6,0,P|360:60|384:76,2,65,2|0|2,0:0|0:0|0:0,0:0:0:0:
256,176,138459,2,0,L|256:252,2,65,2|0|2,0:0|0:0|0:0,0:0:0:0:
196,60,139287,1,2,0:0:0:0:
88,132,139701,2,0,L|24:132,2,65,0|8|8,0:0|0:0|0:0,0:0:0:0:
204,192,140528,1,8,0:0:0:0:
92,256,140942,6,0,B|144:304|144:304|216:304|216:304|264:340|264:340|340:340,1,260,4|8,0:0|0:0,0:0:0:0:
440,284,142183,1,0,0:0:0:0:
348,192,142597,1,0,0:0:0:0:
440,100,143011,2,0,L|440:32,2,65,0|0|8,0:0|0:0|0:0,0:0:0:0:
336,336,144252,6,0,P|256:252|176:336,1,260,0|8,0:0|0:0,0:0:0:0:
56,284,145494,1,0,0:0:0:0:
56,152,145908,1,0,0:0:0:0:
176,100,146321,2,0,L|176:24,2,65,0|0|8,0:0|0:0|0:0,0:0:0:0:
256,348,147563,6,0,P|392:348|460:240,1,260,4|8,0:0|0:0,0:0:0:0:
344,192,148804,1,0,0:0:0:0:
458,128,149218,2,0,P|381:30|256:36,1,260,0|8,0:0|0:0,0:0:0:0:
152,276,150873,6,0,L|120:344,2,65,0|0|0,0:0|0:0|0:0,0:0:0:0:
256,196,151701,2,0,L|256:104,2,65,8|0|0,0:0|0:0|0:0,0:0:0:0:
360,276,152528,2,0,L|392:344,2,65,4|8|8,0:0|0:0|0:0,0:0:0:0:
428,164,153356,2,0,L|460:232,2,65,4|8|8,0:0|0:0|0:0,0:0:0:0:
368,48,154184,6,0,B|304:48|304:48|256:96|256:96|208:48|208:48|144:48,1,260,4|8,0:0|0:0,0:0:0:0:
32,108,155425,1,0,0:0:0:0:
132,192,155839,1,0,0:0:0:0:
32,276,156253,1,0,0:0:0:0:
132,356,156666,2,0,B|200:356|200:356|264:320,1,130,8|0,0:0|0:0,0:0:0:0:
380,288,157494,6,0,B|412:224|468:192|468:192|412:160|380:96,1,260,0|8,0:0|0:0,0:0:0:0:
256,132,158735,1,0,0:0:0:0:
130,99,159149,2,0,B|100:160|44:192|44:192|100:224|132:288,1,260,0|8,0:0|0:0,0:0:0:0:
256,248,160390,1,8,0:0:0:0:
380,287,160804,6,0,P|452:236|452:76,1,260,4|8,0:0|0:0,0:0:0:0:
332,28,162046,1,0,0:0:0:0:
256,136,162459,1,0,0:0:0:0:
180,28,162873,1,0,0:0:0:0:
59,76,163287,2,0,L|104:216,1,130,8|0,0:0|0:0,0:0:0:0:
184,300,164115,6,0,B|184:332|184:332|160:356,2,65,4|0|0,0:0|0:0|0:0,0:0:0:0:
256,192,164942,2,0,L|256:96,2,65,8|0|0,0:0|0:0|0:0,0:0:0:0:
328,300,165770,2,0,B|328:332|328:332|352:356,2,65,0|0|0,0:0|0:0|0:0,0:0:0:0:
452,256,166597,2,0,P|468:192|452:128,1,130,8|8,0:0|0:0,0:0:0:0:
360,40,167425,5,4,0:0:0:0:
256,120,167839,1,0,0:0:0:0:
152,40,168253,1,8,0:0:0:0:
152,300,169080,5,0,0:0:0:0:
256,224,169494,1,0,0:0:0:0:
360,300,169908,1,8,0:0:0:0:
