osu file format v14

[General]
AudioFilename: audio.mp3
AudioLeadIn: 0
PreviewTime: 87563
Countdown: 0
SampleSet: Soft
StackLeniency: 0.7
Mode: 0
LetterboxInBreaks: 0
WidescreenStoryboard: 0

[Editor]
Bookmarks: 5782,169851
DistanceSpacing: 1
BeatDivisor: 4
GridSize: 4
TimelineZoom: 1

[Metadata]
Title:Dreaming Alone feat. Taka from ONE OK ROCK
TitleUnicode:Dreaming Alone feat. Taka from ONE OK ROCK
Artist:Against The Current
ArtistUnicode:Against The Current
Creator:Nyukai
Version:Easy
Source:
Tags:ATC Gravity Christina Chrissy Costanza 森田寛貴 Takahiro Morita 森内 Moriuchi
BeatmapID:1445840
BeatmapSetID:683508

[Difficulty]
HPDrainRate:2
CircleSize:2.5
OverallDifficulty:2
ApproachRate:3
SliderMultiplier:1
SliderTickRate:1

[Events]
//Background and Video events
0,0,"16-9.jpg",0,0
//Break Periods
//Storyboard Layer 0 (Background)
//Storyboard Layer 1 (Fail)
//Storyboard Layer 2 (Pass)
//Storyboard Layer 3 (Foreground)
//Storyboard Sound Samples

[TimingPoints]
253,413.793103448276,4,2,1,40,1,0
5839,-100,4,2,1,40,0,0
46597,-100,4,2,1,50,0,0
61494,-100,4,2,1,60,0,0
87977,-100,4,2,1,50,0,0
100390,-100,4,1,1,60,0,0
101218,-100,4,1,1,70,0,1
112804,-100,4,2,1,50,0,0
114459,-100,4,1,1,60,0,0
127701,-100,4,2,1,50,0,0
140115,-100,4,1,1,60,0,0
140942,-100,4,1,1,70,0,1
167425,-100,4,1,1,40,0,0

[Colours]
Combo1 : 203,192,154
Combo2 : 182,147,200
Combo3 : 203,203,199

[HitObjects]
176,80,6873,6,0,P|260:28|336:80,1,200,2|2,0:0|0:0,0:0:0:0:
256,260,8528,2,0,P|172:312|96:260,1,200,2|2,0:0|0:0,0:0:0:0:
84,164,9770,1,0,0:0:0:0:
80,64,10184,1,2,0:0:0:0:
256,160,11011,1,2,0:0:0:0:
432,64,11839,1,2,0:0:0:0:
424,264,12666,6,0,P|352:264|252:352,1,200,2|2,0:0|0:0,0:0:0:0:
124,192,14321,1,2,0:0:0:0:
256,40,15149,2,0,B|332:40|332:40|384:64|384:64|460:64,2,200,2|2|2,0:0|0:0|0:0,0:0:0:0:
128,192,17632,1,2,0:0:0:0:
188,272,18046,1,0,0:0:0:0:
256,344,18459,2,0,B|332:344|332:344|384:320|384:320|460:320,1,200,2|2,0:0|0:0,0:0:0:0:
448,120,20115,5,2,0:0:0:0:
256,60,20942,1,2,0:0:0:0:
64,120,21770,2,0,P|64:236|132:284,1,200,2|2,0:0|0:0,0:0:0:0:
196,212,23011,1,0,0:0:0:0:
256,132,23425,1,2,0:0:0:0:
387,282,24253,2,0,P|457:216|448:120,2,200,2|2|2,0:0|0:0|0:0,0:0:0:0:
192,328,26735,5,2,0:0:0:0:
44,192,27563,1,2,0:0:0:0:
192,56,28390,2,0,B|300:52|288:116|388:112,1,200,2|2,0:0|0:0,0:0:0:0:
444,192,29632,1,2,0:0:0:0:
379,271,30046,2,0,B|288:268|300:332|192:328,2,200,2|2|2,0:0|0:0|0:0,0:0:0:0:
444,84,32528,2,0,L|340:84,1,100,2|0,0:0|0:0,0:0:0:0:
256,132,33356,5,2,0:0:0:0:
64,192,34184,1,2,0:0:0:0:
256,240,35011,1,2,0:0:0:0:
448,192,35839,1,2,0:0:0:0:
300,56,36666,2,0,P|184:56|124:120,1,200,2|2,0:0|0:0,0:0:0:0:
188,192,37908,1,2,0:0:0:0:
128,272,38321,2,0,P|202:335|300:328,1,200,2|2,0:0|0:0,0:0:0:0:
448,192,39977,5,2,0:0:0:0:
256,132,40804,1,2,0:0:0:0:
64,192,41632,1,2,0:0:0:0:
256,252,42459,1,2,0:0:0:0:
408,124,43287,2,0,P|408:56|316:92,1,200,2|2,0:0|0:0,0:0:0:0:
256,168,44528,1,2,0:0:0:0:
196,88,44942,2,0,P|125:41|104:124,1,200,2|2,0:0|0:0,0:0:0:0:
256,256,46597,6,0,P|352:256|432:180,1,200,2|8,0:0|0:0,0:0:0:0:
256,84,48253,2,0,P|160:84|80:160,1,200,2|8,0:0|0:0,0:0:0:0:
224,292,49908,2,0,B|316:344|316:344|412:344,2,200,2|8|2,0:0|0:0|0:0,0:0:0:0:
212,192,51977,1,2,0:0:0:0:
224,92,52390,1,8,0:0:0:0:
396,192,53218,6,0,P|396:284|304:276,1,200,2|8,0:0|0:0,0:0:0:0:
256,196,54459,1,0,0:0:0:0:
203,281,54873,2,0,P|113:281|116:192,1,200,2|8,0:0|0:0,0:0:0:0:
256,48,56528,2,0,B|304:92|304:92|384:92|384:92|421:132,1,200,2|8,0:0|0:0,0:0:0:0:
500,192,57770,1,2,0:0:0:0:
421,251,58184,1,2,0:0:0:0:
421,251,61494,6,0,P|384:308|252:308,1,200,2|8,0:0|0:0,0:0:0:0:
104,192,63149,2,0,P|141:135|273:135,1,200,2|8,0:0|0:0,0:0:0:0:
428,240,64804,2,0,L|472:32,2,200,2|8|2,0:0|0:0|0:0,0:0:0:0:
356,312,66873,1,0,0:0:0:0:
284,240,67287,1,8,0:0:0:0:
224,160,67701,1,2,0:0:0:0:
164,80,68115,6,0,P|96:80|36:196,2,200,2|8|2,0:0|0:0|0:0,0:0:0:0:
256,124,70184,1,2,0:0:0:0:
348,80,70597,2,0,P|416:80|476:196,1,200,8|2,0:0|0:0,0:0:0:0:
424,268,71839,1,0,0:0:0:0:
360,348,72253,1,8,0:0:0:0:
256,176,73080,1,2,0:0:0:0:
152,348,73908,2,0,L|84:256,1,100,8|2,0:0|0:0,0:0:0:0:
28,192,74735,6,0,B|28:140|28:140|104:140|160:76,1,200,2|8,0:0|0:0,0:0:0:0:
256,60,75977,1,2,0:0:0:0:
354,78,76390,2,0,B|408:140|484:140|484:140|484:192,1,200,2|8,0:0|0:0,0:0:0:0:
356,348,78046,1,2,0:0:0:0:
256,176,78873,1,8,0:0:0:0:
156,348,79701,2,0,P|96:296|96:176,1,200,2|8,0:0|0:0,0:0:0:0:
172,120,80942,1,2,0:0:0:0:
256,68,81356,6,0,B|328:68|328:68|392:104|392:104|472:104,1,200,2|8,0:0|0:0,0:0:0:0:
448,304,83011,2,0,B|376:304|376:304|312:268|312:268|232:268,1,200,2|8,0:0|0:0,0:0:0:0:
192,192,84253,1,2,0:0:0:0:
257,116,84666,2,0,B|312:116|312:116|376:80|376:80|448:80,2,200,2|8|2,0:0|0:0|0:0,0:0:0:0:
100,240,87149,2,0,P|148:240|196:276,1,100,8|2,0:0|0:0,0:0:0:0:
256,344,87977,5,4,0:0:0:0:
388,192,88804,1,2,0:0:0:0:
256,40,89632,1,2,0:0:0:0:
124,192,90459,1,2,0:0:0:0:
324,196,91287,2,0,P|364:196|324:312,1,200,2|2,0:0|0:0,0:0:0:0:
256,316,92528,1,0,0:0:0:0:
155,313,92942,2,0,P|108:237|188:196,2,200,2|2|2,0:0|0:0|0:0,0:0:0:0:
352,340,95425,5,2,0:0:0:0:
488,192,96253,1,2,0:0:0:0:
352,44,97080,1,2,0:0:0:0:
156,80,97908,2,0,B|136:172|208:176|192:276,1,200,2|2,0:0|0:0,0:0:0:0:
256,348,99149,1,2,0:0:0:0:
319,271,99563,2,0,B|304:176|376:172|356:80,1,200,2|8,0:0|0:0,0:0:0:0:
256,60,100804,1,0,0:0:0:0:
155,80,101218,6,0,P|92:80|20:200,1,200,4|8,0:0|0:0,0:0:0:0:
160,320,102873,2,0,P|223:320|295:200,1,200,0|8,0:0|0:0,0:0:0:0:
144,84,104528,1,0,0:0:0:0:
340,40,105356,1,8,0:0:0:0:
472,188,106184,2,0,B|472:240|472:240|440:280,2,100,0|0|8,0:0|0:0|0:0,0:0:0:0:
336,40,107839,6,0,B|256:100|256:100|176:40,1,200,0|8,0:0|0:0,0:0:0:0:
44,192,109494,1,0,0:0:0:0:
176,344,110321,1,8,0:0:0:0:
348,240,111149,2,0,P|360:192|348:144,2,100,0|0|8,0:0|0:0|0:0,0:0:0:0:
256,280,112390,1,0,0:0:0:0:
164,240,112804,1,10,0:0:0:0:
164,240,114459,5,4,0:0:0:0:
256,60,115287,2,0,B|308:60|308:60|344:96|344:96|396:92|396:92|436:128,1,200,8|0,0:0|0:0,0:0:0:0:
500,192,116528,1,0,0:0:0:0:
429,261,116942,2,0,B|396:292|396:292|344:288|344:288|308:324|308:324|256:324,1,200,8|0,0:0|0:0,0:0:0:0:
104,192,118597,2,0,L|168:116,1,100,8|0,0:0|0:0,0:0:0:0:
256,64,119425,2,0,P|368:64|416:132,2,200,0|8|0,0:0|0:0|0:0,0:0:0:0:
116,204,121908,5,8,0:0:0:0:
256,348,122735,2,0,L|364:348,1,100,0|0,0:0|0:0,0:0:0:0:
436,288,123563,2,0,P|436:204|340:148,1,200,8|0,0:0|0:0,0:0:0:0:
256,196,124804,1,0,0:0:0:0:
167,147,125218,2,0,P|82:192|76:288,1,200,8|0,0:0|0:0,0:0:0:0:
272,240,126873,1,8,0:0:0:0:
264,140,127287,1,0,0:0:0:0:
256,40,127701,5,2,0:0:0:0:
124,192,128528,1,2,0:0:0:0:
256,344,129356,1,2,0:0:0:0:
388,192,130183,1,2,0:0:0:0:
188,188,131011,2,0,P|148:188|188:72,1,200,2|2,0:0|0:0,0:0:0:0:
256,68,132252,1,2,0:0:0:0:
357,71,132666,2,0,P|404:147|324:188,2,200,2|2|2,0:0|0:0|0:0,0:0:0:0:
160,44,135149,5,2,0:0:0:0:
24,192,135977,1,2,0:0:0:0:
160,340,136804,1,2,0:0:0:0:
356,304,137632,2,0,B|376:212|304:208|320:108,1,200,2|2,0:0|0:0,0:0:0:0:
256,36,138873,1,2,0:0:0:0:
193,113,139287,2,0,B|208:208|136:212|156:304,1,200,2|8,0:0|0:0,0:0:0:0:
256,324,140528,1,8,0:0:0:0:
357,304,140942,6,0,P|420:304|492:184,1,200,4|8,0:0|0:0,0:0:0:0:
352,64,142597,2,0,P|289:64|217:184,1,200,0|8,0:0|0:0,0:0:0:0:
368,300,144252,1,0,0:0:0:0:
172,344,145080,1,8,0:0:0:0:
40,196,145908,2,0,B|40:144|40:144|72:104,2,100,0|0|8,0:0|0:0|0:0,0:0:0:0:
176,344,147563,6,0,B|256:284|256:284|336:344,1,200,4|8,0:0|0:0,0:0:0:0:
468,192,149218,1,0,0:0:0:0:
336,40,150045,1,8,0:0:0:0:
164,144,150873,2,0,P|152:192|164:240,2,100,0|0|8,0:0|0:0|0:0,0:0:0:0:
256,104,152114,1,0,0:0:0:0:
348,144,152528,2,0,P|360:192|348:240,2,100,4|8|4,0:0|0:0|0:0,0:0:0:0:
256,104,153770,1,8,0:0:0:0:
164,140,154184,6,0,P|152:140|176:256,1,200,4|8,0:0|0:0,0:0:0:0:
256,220,155425,1,0,0:0:0:0:
346,258,155839,2,0,P|413:199|348:140,1,200,0|8,0:0|0:0,0:0:0:0:
156,192,157494,1,0,0:0:0:0:
256,20,158321,2,0,L|352:60,1,100,8|0,0:0|0:0,0:0:0:0:
432,112,159149,2,0,P|482:192|430:271,1,200,0|8,0:0|0:0,0:0:0:0:
348,325,160390,1,8,0:0:0:0:
256,284,160804,6,0,B|184:284|184:284|128:304|128:304|56:304,2,200,4|8|0,0:0|0:0|0:0,0:0:0:0:
296,192,162873,1,0,0:0:0:0:
256,100,163287,1,8,0:0:0:0:
160,120,163701,1,0,0:0:0:0:
92,192,164115,2,0,P|41:272|93:351,1,200,4|8,0:0|0:0,0:0:0:0:
256,244,165770,2,0,P|306:163|254:84,1,200,0|8,0:0|0:0,0:0:0:0:
164,128,167011,1,8,0:0:0:0:
88,192,167425,5,4,0:0:0:0:
256,300,168253,1,8,0:0:0:0:
424,192,169080,1,0,0:0:0:0:
256,84,169908,1,8,0:0:0:0:
