osu file format v14

[General]
AudioFilename: 1-02 I Was a Teenage Anarchist.mp3
AudioLeadIn: 0
PreviewTime: -1
Countdown: 1
SampleSet: None
StackLeniency: 0.7
Mode: 0
LetterboxInBreaks: 0
WidescreenStoryboard: 0

[Editor]
DistanceSpacing: 0.8
BeatDivisor: 4
GridSize: 8
TimelineZoom: 1

[Metadata]
Title:I Was a Teenage Anarchist
TitleUnicode:I Was a Teenage Anarchist
Artist:Against Me!
ArtistUnicode:Against Me!
Creator:Kaetzchensaege
Version:Easy
Source:
Tags:
BeatmapID:835452
BeatmapSetID:381968

[Difficulty]
HPDrainRate:5
CircleSize:5
OverallDifficulty:5
ApproachRate:5
SliderMultiplier:1.4
SliderTickRate:1

[Events]
//Background and Video events
0,0,"Against-Me-White-Crosses.jpg",0,0
//Break Periods
2,111771,137137
//Storyboard Layer 0 (Background)
//Storyboard Layer 1 (Fail)
//Storyboard Layer 2 (Pass)
//Storyboard Layer 3 (Foreground)
//Storyboard Sound Samples

[TimingPoints]
6572.56735421441,392.156862745098,4,1,0,100,1,0

[HitObjects]
128,160,6376,5,0,0:0:0:0:
240,160,6768,1,0,0:0:0:0:
360,160,7160,1,0,0:0:0:0:
152,264,7847,2,0,L|336:264,2,175
112,160,9513,1,0,0:0:0:0:
200,160,9905,1,0,0:0:0:0:
296,160,10298,1,0,0:0:0:0:
360,72,11082,2,0,L|184:72,2,175
72,104,12847,2,0,L|72:304,1,175
72,344,13435,1,0,0:0:0:0:
184,344,14219,2,0,L|184:152,1,175
184,104,15003,1,0,0:0:0:0:
304,288,15788,2,0,P|432:88|352:304,1,665
360,184,18141,1,0,0:0:0:0:
112,104,18827,1,0,0:0:0:0:
104,248,19709,1,0,0:0:0:0:
240,104,20494,1,0,0:0:0:0:
232,248,21278,1,0,0:0:0:0:
128,160,25101,1,0,0:0:0:0:
216,160,25494,1,0,0:0:0:0:
312,160,25984,1,0,0:0:0:0:
312,232,26866,1,0,0:0:0:0:
208,232,27258,1,0,0:0:0:0:
112,232,27650,1,0,0:0:0:0:
352,136,28337,2,0,L|352:264,1,105
288,248,29219,2,0,L|288:128,1,105
224,144,30003,2,0,L|224:248,1,105
256,192,31572,12,0,35101,0:0:0:0:
112,304,37847,6,0,L|344:80,1,315
384,128,39219,2,0,L|136:368,1,315
152,120,40984,1,0,0:0:0:0:
152,120,41376,1,0,0:0:0:0:
152,120,41768,1,0,0:0:0:0:
344,120,42552,1,0,0:0:0:0:
344,120,42945,1,0,0:0:0:0:
144,288,44219,2,0,B|256:136|384:304,3,280
368,48,47356,2,0,B|256:176|144:32,3,245
144,112,50298,1,0,0:0:0:0:
224,120,51082,2,0,L|368:120,1,140
144,248,51964,1,0,0:0:0:0:
216,248,52650,2,0,L|376:248,1,140
144,104,53533,1,0,0:0:0:0:
144,104,53827,1,0,0:0:0:0:
144,104,54219,1,0,0:0:0:0:
344,104,55003,1,0,0:0:0:0:
344,104,55396,1,0,0:0:0:0:
344,104,55788,1,0,0:0:0:0:
152,152,56572,1,0,0:0:0:0:
248,152,57062,1,0,0:0:0:0:
352,152,57356,1,0,0:0:0:0:
184,256,58043,2,0,L|352:256,2,140
176,144,59807,1,0,0:0:0:0:
264,144,60200,1,0,0:0:0:0:
352,144,60592,1,0,0:0:0:0:
328,48,61278,2,0,L|160:48,2,140
88,104,62847,2,0,L|88:288,1,175
88,344,63631,1,0,0:0:0:0:
168,352,64513,2,0,L|168:160,1,175
176,112,65298,1,0,0:0:0:0:
304,120,66082,1,0,0:0:0:0:
304,216,66376,1,0,0:0:0:0:
304,320,66866,1,0,0:0:0:0:
424,320,67650,1,0,0:0:0:0:
424,208,67945,1,0,0:0:0:0:
424,112,68435,1,0,0:0:0:0:
160,192,69121,1,0,0:0:0:0:
256,192,69513,1,0,0:0:0:0:
360,192,69905,1,0,0:0:0:0:
160,304,70690,2,0,L|368:304,2,175
152,192,72356,1,0,0:0:0:0:
248,192,72749,1,0,0:0:0:0:
360,200,73141,1,0,0:0:0:0:
360,80,73827,2,0,L|128:80,1,210
256,136,75396,1,0,0:0:0:0:
256,216,75788,1,0,0:0:0:0:
256,296,76180,1,0,0:0:0:0:
408,304,76964,2,0,L|408:144,2,140
256,128,78533,1,0,0:0:0:0:
256,192,79023,1,0,0:0:0:0:
256,272,79415,1,0,0:0:0:0:
256,192,81670,12,0,86376,0:0:0:0:
128,288,87945,6,0,L|320:88,1,245
208,312,89513,2,0,L|384:104,1,245
152,112,91180,1,0,0:0:0:0:
152,112,91474,1,0,0:0:0:0:
152,112,91866,1,0,0:0:0:0:
352,120,92650,1,0,0:0:0:0:
352,120,93043,1,0,0:0:0:0:
352,120,93337,1,0,0:0:0:0:
144,320,94219,2,0,P|256:216|336:328,1,315
336,48,95788,2,0,P|256:144|152:32,1,315
32,96,97356,2,0,P|168:192|32:280,1,385
480,96,98925,2,0,P|352:192|480:280,1,350
136,104,100494,1,0,0:0:0:0:
208,104,100886,2,0,L|344:104,1,105
136,248,102062,1,0,0:0:0:0:
208,248,102454,2,0,L|328:248,1,105
184,280,106866,2,0,P|256:96|240:280,3,560
144,96,138337,5,0,0:0:0:0:
264,96,139023,1,0,0:0:0:0:
384,104,139807,1,0,0:0:0:0:
376,288,141376,1,0,0:0:0:0:
248,280,142160,1,0,0:0:0:0:
128,272,142847,1,0,0:0:0:0:
24,192,144415,2,0,L|112:192,2,70
176,192,146180,2,0,L|432:192,1,245
112,104,147650,1,0,0:0:0:0:
112,104,148043,1,0,0:0:0:0:
112,104,148533,1,0,0:0:0:0:
416,112,149317,1,0,0:0:0:0:
416,112,149611,1,0,0:0:0:0:
416,112,150003,1,0,0:0:0:0:
112,104,150886,1,0,0:0:0:0:
192,104,151082,2,0,L|320:104,1,105
104,264,152258,1,0,0:0:0:0:
184,264,152552,2,0,L|312:264,1,105
144,112,153925,1,0,0:0:0:0:
144,112,154219,1,0,0:0:0:0:
144,112,154611,1,0,0:0:0:0:
368,112,155494,1,0,0:0:0:0:
368,112,155788,1,0,0:0:0:0:
368,112,156180,1,0,0:0:0:0:
104,280,157062,2,0,L|288:96,1,245
152,312,158631,2,0,L|344:120,1,245
296,256,160101,1,0,0:0:0:0:
144,120,163239,1,0,0:0:0:0:
224,120,163631,2,0,L|336:120,2,105
144,240,164905,1,0,0:0:0:0:
216,240,165200,2,0,L|344:240,1,105
256,192,169611,12,0,175101,0:0:0:0:
