osu file format v14

[General]
AudioFilename: audio.mp3
AudioLeadIn: 0
PreviewTime: 52983
Countdown: 0
SampleSet: Drum
StackLeniency: 0.7
Mode: 0
LetterboxInBreaks: 0
WidescreenStoryboard: 1

[Editor]
DistanceSpacing: 0.8
BeatDivisor: 4
GridSize: 32
TimelineZoom: 2

[Metadata]
Title:Redo
TitleUnicode:Redo
Artist:Afterglow
ArtistUnicode:Afterglow
Creator:iPhong
Version:Zawajiro's Extreme
Source:バンドリ!ガールズバンドパーティ!
Tags:isekai quartet 異世界かるてっと re zero jpop cover bang dream girls band party video game re:ゼロから始める異世界生活 suzuki konomi echidna otto garfield ryuzu puck emilia subaru felt rem kirylln silent rock drinkpeachxd notabox viet8426 mqno jval93700 superjspectrixv toki_toyosaki yukki_yumi feruver sonin bubblekid azrael_- BaAr_Vendel kyle_y blitzifyyy emiki boomcicle kadokawa collaboration
BeatmapID:3399918
BeatmapSetID:927550

[Difficulty]
HPDrainRate:5.5
CircleSize:4
OverallDifficulty:9
ApproachRate:9.5
SliderMultiplier:2.1
SliderTickRate:1

[Events]
//Background and Video events
0,0,"BG.jpg",0,0
Video,-975,"BGA.mp4"
//Break Periods
//Storyboard Layer 0 (Background)
//Storyboard Layer 1 (Fail)
//Storyboard Layer 2 (Pass)
//Storyboard Layer 3 (Foreground)
//Storyboard Layer 4 (Overlay)
//Storyboard Sound Samples

[TimingPoints]
10,315.789473684211,4,3,1,60,1,0
5062,-133.333333333333,4,3,1,60,0,0
5141,-133.333333333333,4,3,1,5,0,0
5220,-133.333333333333,4,3,1,60,0,0
6404,-133.333333333333,4,3,1,5,0,0
6483,-133.333333333333,4,3,1,60,0,0
7667,-133.333333333333,4,3,1,5,0,0
7746,-133.333333333333,4,3,1,60,0,0
8852,-117.647058823529,4,3,1,60,0,0
8931,-117.647058823529,4,3,1,5,0,0
9010,-117.647058823529,4,3,1,60,0,0
10115,-133.333333333333,4,3,1,60,0,0
14457,-133.333333333333,4,3,1,5,0,0
14536,-133.333333333333,4,3,1,60,0,0
15720,-133.333333333333,4,3,1,5,0,0
15799,-133.333333333333,4,3,1,60,0,0
16036,-133.333333333333,4,3,1,5,0,0
16115,-133.333333333333,4,3,1,60,0,0
25194,-133.333333333333,4,3,1,5,0,0
25273,-133.333333333333,4,3,1,60,0,0
26457,-133.333333333333,4,3,1,5,0,0
26536,-133.333333333333,4,3,1,60,0,0
30325,-133.333333333333,4,3,1,40,0,0
30365,-133.333333333333,4,3,1,5,0,0
34904,-133.333333333333,4,3,1,60,0,0
34983,-133.333333333333,4,3,1,5,0,0
35062,-133.333333333333,4,3,1,60,0,0
35378,-129.87012987013,4,3,1,60,0,0
36404,-129.87012987013,4,3,1,5,0,0
36483,-129.87012987013,4,3,1,60,0,0
37825,-129.87012987013,4,3,1,60,0,0
37904,-129.87012987013,4,3,1,60,0,0
39878,-129.87012987013,4,3,1,5,0,0
39957,-129.87012987013,4,3,1,60,0,0
40036,-129.87012987013,4,3,1,60,0,0
40115,-129.87012987013,4,3,1,60,0,0
40194,-129.87012987013,4,3,1,60,0,0
40273,-129.87012987013,4,3,1,60,0,0
41694,-166.666666666667,4,3,1,60,0,0
42641,-166.666666666667,4,3,1,5,0,0
42957,-166.666666666667,4,3,1,60,0,0
43510,-166.666666666667,4,3,1,5,0,0
44220,-166.666666666667,4,3,1,60,0,0
45010,-133.333333333333,4,3,1,60,0,0
45483,-125,4,3,1,60,0,0
45720,-125,4,3,1,5,0,0
45799,-125,4,3,1,60,0,0
46510,-125,4,3,1,5,0,0
46588,-125,4,3,1,60,0,0
50536,-125,4,3,0,60,0,0
50615,-125,4,3,0,5,0,0
50694,-125,4,3,0,60,0,0
50931,-125,4,3,0,5,0,0
51010,-125,4,3,0,60,0,0
51088,-125,4,3,0,5,0,0
51167,-125,4,3,0,60,0,0
51404,-125,4,3,0,5,0,0
51483,-125,4,3,0,60,0,0
51562,-125,4,3,0,5,0,0
51641,-125,4,3,0,60,0,0
51878,-125,4,3,0,5,0,0
51957,-125,4,3,0,60,0,0
52036,-125,4,3,0,60,0,0
52115,-125,4,3,0,60,0,0
52352,-125,4,3,0,60,0,0
52431,-125,4,3,0,60,0,0
52510,-125,4,3,0,5,0,0
52588,-125,4,3,0,60,0,0
53062,-100,4,3,1,75,0,1
53773,-100,4,3,1,5,0,1
53852,-100,4,3,1,75,0,1
55194,-100,4,3,1,5,0,1
55273,-100,4,3,1,75,0,1
55510,-100,4,3,1,5,0,1
55588,-100,4,3,1,75,0,1
55667,-100,4,3,1,5,0,1
55746,-100,4,3,1,75,0,1
55825,-100,4,3,1,5,0,1
55904,-100,4,3,1,75,0,1
56299,-100,4,3,1,5,0,1
56378,-100,4,3,1,75,0,1
56457,-100,4,3,1,5,0,1
56536,-100,4,3,1,75,0,1
56931,-100,4,3,1,5,0,1
57010,-100,4,3,1,75,0,1
58352,-100,4,3,1,5,0,1
58431,-100,4,3,1,75,0,1
59141,-100,4,3,1,5,0,1
59220,-100,4,3,1,75,0,1
60404,-100,4,3,1,5,0,1
60483,-100,4,3,1,75,0,1
61746,-100,4,3,1,75,0,0
61983,-100,4,3,1,5,0,0
62062,-100,4,3,1,75,0,0
62457,-100,4,3,1,75,0,0
62536,-100,4,3,1,75,0,0
63167,-100,4,3,1,75,0,1
63878,-100,4,3,1,5,0,1
63957,-100,4,3,1,75,0,1
65299,-100,4,3,1,5,0,1
65378,-100,4,3,1,75,0,1
65615,-100,4,3,1,5,0,1
65694,-100,4,3,1,75,0,1
65773,-100,4,3,1,5,0,1
65852,-100,4,3,1,75,0,1
65931,-100,4,3,1,5,0,1
66010,-100,4,3,1,75,0,1
66404,-100,4,3,1,5,0,1
66483,-100,4,3,1,75,0,1
66562,-100,4,3,1,5,0,1
66641,-100,4,3,1,75,0,1
68220,-100,4,3,1,75,0,0
68299,-100,4,3,1,5,0,0
68378,-100,4,3,1,75,0,0
68457,-100,4,3,1,5,0,0
68536,-100,4,3,1,75,0,0
69562,-100,4,3,1,5,0,0
69641,-100,4,3,1,75,0,0
69720,-100,4,3,1,5,0,0
69799,-100,4,3,1,75,0,0
70825,-100,4,3,1,5,0,0
70904,-100,4,3,1,75,0,0
70983,-100,4,3,1,5,0,0
71062,-100,4,3,1,75,0,0
73273,-100,4,3,1,75,0,1
77299,-100,4,3,1,5,0,1
77378,-100,4,3,1,75,0,1
78325,-100,4,3,1,60,0,0
79588,-100,4,3,1,60,0,1
81720,-100,4,3,1,5,0,1
81799,-100,4,3,1,60,0,1
82036,-100,4,3,1,5,0,1
82115,-100,4,3,1,60,0,1
84088,-100,4,3,1,5,0,1
84167,-100,4,3,1,60,0,1
84207,-100,4,3,1,5,0,1
84641,-250,4,3,1,60,0,0
85273,-181.818181818182,4,3,1,60,0,0
85983,-181.818181818182,4,3,1,5,0,0
86062,-181.818181818182,4,3,1,60,0,0
86141,-181.818181818182,4,3,1,5,0,0
86220,-181.818181818182,4,3,1,60,0,0
86299,-181.818181818182,4,3,1,5,0,0
86378,-181.818181818182,4,3,1,60,0,0
86694,-100,4,3,1,60,0,0
86733,-100,4,3,1,5,0,0
87128,-100,4,3,1,60,0,0
87641,-133.333333333333,4,3,1,60,0,0
88273,-500,4,3,1,60,0,0
88746,-500,4,3,1,5,0,0

[Colours]
Combo1 : 128,128,192
Combo2 : 255,0,66

[HitObjects]
348,77,4588,6,0,P|389:61|429:60,1,52.5,0|0,0:0|0:0,0:0:0:0:
482,174,4746,2,0,P|437:236|345:223,1,157.5,14|0,0:2|0:0,0:0:0:0:
274,288,5062,6,0,L|245:183,1,78.7500030040742,8|2,0:0|0:0,0:0:0:0:
161,136,5378,2,0,L|143:212,1,78.7500030040742,0|2,0:0|0:0,0:0:0:0:
132,354,5694,1,12,0:0:0:0:
37,247,5852,1,2,0:0:0:0:
174,286,6010,1,4,0:0:0:0:
43,346,6167,1,6,0:0:0:0:
0,181,6325,6,0,P|2:128|92:119,1,157.500006008148,8|0,0:0|0:0,0:0:0:0:
221,196,6799,1,2,0:0:0:0:
110,277,6957,1,12,0:0:0:0:
165,115,7115,1,0,0:0:0:0:
91,266,7273,1,4,0:0:0:0:
229,206,7431,1,0,0:0:0:0:
344,306,7588,6,0,P|359:253|372:217,1,78.7500030040742,4|2,0:2|0:0,0:0:0:0:
243,133,7904,2,0,P|255:170|265:208,1,78.7500030040742,0|2,0:0|0:0,0:0:0:0:
424,280,8220,1,4,0:0:0:0:
333,163,8378,1,2,0:0:0:0:
412,92,8536,1,8,0:0:0:0:
344,256,8694,1,2,0:0:0:0:
278,62,8852,6,0,P|325:29|356:33,1,89.2500017023087,4|0,0:2|0:0,0:0:0:0:
198,161,9167,2,0,P|159:165|115:139,1,89.2500017023087,0|0,0:0|0:0,0:0:0:0:
61,50,9483,1,4,0:2:0:0:
61,50,9562,1,0,0:0:0:0:
61,50,9641,2,0,P|38:83|33:98,1,44.6250008511543,0|0,0:0|0:0,0:0:0:0:
145,274,9799,2,0,P|142:237|137:221,1,44.6250008511543,4|0,0:2|0:0,0:0:0:0:
0,169,9957,1,0,0:0:0:0:
0,186,10036,1,0,0:0:0:0:
0,203,10115,6,0,B|96:226|61:127|162:156,1,157.500006008148,8|2,0:0|0:0,0:0:0:0:
280,152,10588,1,0,0:0:0:0:
198,293,10746,2,0,P|192:249|179:208,1,78.7500030040742,4|0,0:0|0:0,0:0:0:0:
305,135,11062,2,0,P|294:172|289:211,1,78.7500030040742,2|0,0:0|0:0,0:0:0:0:
171,116,11378,6,0,P|200:51|295:71,1,157.500006008148,8|2,0:0|0:0,0:0:0:0:
380,89,11852,1,0,0:0:0:0:
315,221,12010,2,0,P|269:199|259:154,1,78.7500030040742,4|2,0:0|0:2,0:0:0:0:
431,160,12325,2,0,P|416:218|409:249,1,78.7500030040742,2|2,0:0|0:2,0:0:0:0:
331,365,12641,6,0,B|386:321|424:347|424:347|396:343|354:366,1,157.500006008148,8|2,0:0|0:0,0:0:0:0:
233,334,13115,1,0,0:0:0:0:
233,334,13273,2,0,B|217:264|198:213|198:213|149:245,1,157.500006008148,4|2,0:0|0:0,0:0:0:0:
57,223,13746,1,0,0:0:0:0:
29,351,13904,6,0,P|111:361|144:291,1,157.500006008148,8|2,0:0|0:0,0:0:0:0:
117,175,14378,1,2,0:2:0:0:
256,240,14536,2,0,P|270:183|294:123,1,118.125004506111,4|0,0:0|0:0,0:0:0:0:
190,35,14852,2,0,P|206:87|213:121,1,78.7500030040742,2|2,0:0|0:2,0:0:0:0:
276,324,15167,5,8,0:0:0:0:
195,290,15325,2,0,B|291:313|256:214|357:243,1,157.500006008148,2|2,0:2|0:2,0:0:0:0:
429,339,15799,2,0,P|381:337|351:308,1,78.7500030040742,4|0,0:0|0:0,0:0:0:0:
466,187,16115,2,0,P|484:239|499:274,1,78.7500030040742,2|2,0:0|0:2,0:0:0:0:
314,164,16431,5,8,0:0:0:0:
394,116,16588,1,2,0:2:0:0:
511,91,16746,5,2,0:0:0:0:
359,22,16904,1,2,0:2:0:0:
314,164,17062,2,0,P|362:154|383:129,1,78.7500030040742,4|2,0:0|0:2,0:0:0:0:
221,35,17378,2,0,P|235:91|239:130,1,78.7500030040742,2|2,0:0|0:2,0:0:0:0:
148,252,17694,6,0,B|93:235|93:235|117:124,1,157.500006008148,8|2,0:0|0:0,0:0:0:0:
114,137,18167,1,0,0:0:0:0:
266,208,18325,2,0,P|282:274|198:320,1,157.500006008148,4|2,0:0|0:0,0:0:0:0:
217,322,18799,1,0,0:0:0:0:
149,248,18957,2,0,P|218:276|260:334,1,118.125004506111,8|0,0:0|0:0,0:0:0:0:
253,317,19273,2,0,P|302:303|348:299,1,78.7500030040742,2|0,0:0|0:0,0:0:0:0:
499,235,19588,5,4,0:0:0:0:
423,384,19746,1,0,0:0:0:0:
399,263,19904,1,2,0:0:0:0:
512,325,20062,1,0,0:0:0:0:
312,186,20220,6,0,B|273:231|273:231|322:337,1,157.500006008148,8|2,0:0|0:0,0:0:0:0:
452,201,20694,1,0,0:0:0:0:
452,201,20852,2,0,P|420:134|330:117,1,157.500006008148,4|2,0:0|0:0,0:0:0:0:
232,163,21325,1,0,0:0:0:0:
232,163,21483,2,0,B|174:193|140:181|140:181|174:137,1,118.125004506111,8|0,0:0|0:0,0:0:0:0:
161,153,21799,2,0,P|170:104|125:79,1,78.7500030040742,2|0,0:0|0:0,0:0:0:0:
32,183,22115,5,4,0:0:0:0:
78,285,22273,1,2,0:2:0:0:
183,282,22431,1,2,0:0:0:0:
66,328,22588,1,0,0:0:0:0:
155,206,22746,6,0,B|255:182|255:182|319:229,1,157.500006008148,8|2,0:0|0:0,0:0:0:0:
309,208,23220,1,0,0:0:0:0:
256,375,23378,2,0,B|237:322|233:273|233:273|259:294|288:310,1,157.500006008148,4|2,0:0|0:0,0:0:0:0:
270,296,23852,1,0,0:0:0:0:
402,383,24010,2,0,P|418:313|454:217,1,157.500006008148,8|2,0:0|0:0,0:0:0:0:
450,246,24483,1,0,0:0:0:0:
311,131,24641,6,0,B|335:197|335:197|409:170,1,118.125004506111,4|0,0:0|0:0,0:0:0:0:
433,129,24957,2,0,P|411:68|333:45,1,118.125004506111,2|0,0:0|0:0,0:0:0:0:
213,78,25273,6,0,L|230:185,1,78.7500030040742,8|2,0:0|0:2,0:0:0:0:
288,215,25588,1,2,0:0:0:0:
177,278,25746,1,2,0:2:0:0:
99,176,25904,2,0,P|155:189|171:287,1,157.500006008148,4|2,0:0|0:0,0:0:0:0:
106,357,26378,5,2,0:2:0:0:
50,253,26536,1,8,0:0:0:0:
0,333,26694,1,2,0:2:0:0:
121,191,26852,1,2,0:0:0:0:
0,198,27010,1,2,0:2:0:0:
141,320,27167,6,0,P|183:319|215:286,1,78.7500030040742,4|2,0:0|0:2,0:0:0:0:
302,215,27483,1,6,0:0:0:0:
304,226,27561,1,4,0:0:0:0:
306,238,27640,1,4,0:0:0:0:
368,359,27799,5,10,0:0:0:0:
512,291,27957,1,0,0:0:0:0:
384,152,28115,1,4,0:0:0:0:
287,278,28273,5,6,0:0:0:0:
482,384,28431,1,0,0:0:0:0:
484,154,28588,1,0,0:0:0:0:
343,373,28746,5,4,0:0:0:0:
512,258,28904,1,2,0:0:0:0:
286,177,29062,1,8,0:0:0:0:
486,87,29220,5,2,0:0:0:0:
449,101,29298,1,0,0:0:0:0:
418,125,29377,1,4,0:0:0:0:
393,155,29456,1,0,0:0:0:0:
376,190,29536,1,6,0:0:0:0:
371,159,29614,1,0,0:0:0:0:
357,131,29693,1,8,0:0:0:0:
335,109,29772,1,0,0:0:0:0:
307,96,29851,1,0,0:0:0:0:
275,91,29930,1,0,0:0:0:0:
217,152,30010,5,4,0:0:0:0:
154,344,30325,6,0,L|150:323,1,19.6875007510186,4|0,0:2|0:0,0:0:0:0:
364,109,34904,1,2,0:0:0:0:
347,235,35062,2,0,L|360:111,1,118.125004506111,4|0,0:0|0:0,0:0:0:0:
288,95,35378,6,0,P|308:139|341:177,1,80.849998396225,8|2,0:0|0:0,0:0:0:0:
474,230,35694,2,0,P|429:255|409:290,1,80.849998396225,4|2,0:0|0:0,0:0:0:0:
285,335,36010,2,0,P|272:284|261:257,1,80.849998396225,8|2,0:0|0:0,0:0:0:0:
171,160,36325,1,4,0:0:0:0:
110,293,36483,1,2,0:0:0:0:
115,278,36562,1,0,0:0:0:0:
108,261,36641,5,8,0:0:0:0:
26,185,36799,2,0,B|54:141|54:141|153:149,1,121.274997594338,2|0,0:0|0:0,0:0:0:0:
139,165,37115,1,2,0:0:0:0:
213,265,37273,1,8,0:0:0:0:
309,126,37431,2,0,P|306:175|267:197,1,80.849998396225,2|4,0:0|0:0,0:0:0:0:
237,46,37746,1,0,0:0:0:0:
271,48,37825,1,0,0:0:0:0:
306,35,37904,6,0,P|376:28|413:95,1,121.274997594338,8|0,0:0|0:0,0:0:0:0:
404,84,38220,2,0,P|393:141|389:178,1,80.849998396225,4|2,0:0|0:0,0:0:0:0:
512,266,38536,2,0,P|506:210|502:176,1,80.849998396225,8|2,0:0|0:0,0:0:0:0:
357,266,38852,1,4,0:0:0:0:
445,344,39010,1,2,0:0:0:0:
430,362,39088,1,0,0:0:0:0:
403,363,39167,5,4,0:0:0:0:
196,251,39325,1,8,0:0:0:0:
375,238,39483,5,6,0:0:0:0:
119,348,39641,1,8,0:0:0:0:
320,384,39799,5,4,0:0:0:0:
211,205,39957,1,4,0:0:0:0:
217,165,40035,1,4,0:0:0:0:
241,132,40114,1,6,0:0:0:0:
276,112,40193,1,4,0:0:0:0:
316,109,40272,1,4,0:0:0:0:
353,125,40351,1,4,0:0:0:0:
388,195,40431,5,2,0:2:0:0:
109,302,41694,2,0,B|84:230|3:168|34:98|34:98|121:58|159:123|123:168,1,377.999988464356,2|2,0:2|0:2,0:0:0:0:
181,257,42957,6,0,P|250:219|403:190,1,220.499993270874,2|0,0:2|0:0,0:0:0:0:
391,204,43588,2,0,P|330:171|228:45,1,220.499993270874,2|0,0:2|0:0,0:0:0:0:
294,0,44220,5,6,0:2:0:0:
152,340,44852,1,4,0:2:0:0:
81,209,45010,5,4,0:0:0:0:
107,237,45088,1,4,0:0:0:0:
145,243,45167,1,4,0:0:0:0:
178,224,45246,1,4,0:0:0:0:
192,188,45325,1,4,0:0:0:0:
181,151,45404,1,4,0:0:0:0:
149,129,45483,6,0,P|214:142|246:128,1,84,8|0,0:0|0:0,0:0:0:0:
331,16,45799,2,0,P|309:64|303:107,1,84,4|2,0:0|0:0,0:0:0:0:
441,199,46115,1,8,0:0:0:0:
385,96,46273,1,2,0:0:0:0:
255,225,46431,2,0,L|355:210,1,84,4|2,0:0|0:0,0:0:0:0:
357,214,46667,1,0,0:0:0:0:
357,214,46746,1,8,0:0:0:0:
395,329,46904,5,2,0:0:0:0:
276,380,47062,1,4,0:0:0:0:
184,285,47220,1,2,0:0:0:0:
290,252,47378,1,8,0:0:0:0:
162,369,47536,1,2,0:0:0:0:
88,239,47694,1,4,0:0:0:0:
189,120,47852,5,2,0:0:0:0:
179,135,47931,1,0,0:0:0:0:
163,151,48010,2,0,L|76:140,1,84,8|2,0:0|0:0,0:0:0:0:
0,26,48325,2,0,L|94:-5,1,84,4|2,0:0|0:0,0:0:0:0:
198,15,48641,1,8,0:0:0:0:
96,103,48799,1,2,0:0:0:0:
197,33,48957,6,0,P|247:51|279:78,1,84,4|2,0:0|0:0,0:0:0:0:
276,88,49194,1,0,0:0:0:0:
276,87,49273,5,8,0:0:0:0:
210,291,49431,1,0,0:0:0:0:
189,138,49588,5,4,0:0:0:0:
326,345,49746,1,2,0:0:0:0:
366,167,49904,5,8,0:0:0:0:
203,351,50062,1,0,0:0:0:0:
162,360,50140,1,0,0:0:0:0:
124,346,50219,1,4,0:0:0:0:
100,312,50298,1,0,0:0:0:0:
99,271,50377,1,0,0:0:0:0:
121,236,50456,1,0,0:0:0:0:
159,220,50535,5,4,0:0:0:0:
384,324,50694,1,4,0:0:0:0:
512,133,51010,5,4,0:0:0:0:
287,193,51167,1,4,0:0:0:0:
512,332,51483,5,4,0:0:0:0:
440,207,51641,1,4,0:0:0:0:
303,360,51957,5,4,0:0:0:0:
307,346,52036,1,0,0:0:0:0:
313,333,52115,1,4,0:0:0:0:
200,149,52273,5,0,0:0:0:0:
210,158,52352,1,0,0:0:0:0:
223,166,52431,5,4,0:0:0:0:
512,332,52588,1,4,0:0:0:0:
101,298,53062,6,0,L|128:169,1,105,8|0,0:0|0:0,0:0:0:0:
67,40,53378,1,4,0:0:0:0:
245,141,53536,1,2,0:0:0:0:
20,199,53694,1,0,0:0:0:0:
239,33,53852,2,0,P|291:15|356:89,1,157.5,2|0,0:0|0:0,0:0:0:0:
323,157,54167,6,0,P|308:224|307:276,1,105,2|8,0:0|0:0,0:0:0:0:
435,384,54483,1,2,0:0:0:0:
389,213,54641,1,4,0:0:0:0:
250,344,54799,2,0,P|322:386|366:365,1,105,2|8,0:0|0:0,0:0:0:0:
484,194,55115,2,0,P|436:231|432:306,1,105,2|4,0:0|0:0,0:0:0:0:
512,383,55431,5,0,0:0:0:0:
379,177,55588,1,8,0:0:0:0:
322,304,55746,5,2,0:0:0:0:
460,105,55904,1,4,0:0:0:0:
512,257,56062,5,2,0:0:0:0:
285,65,56220,1,8,0:0:0:0:
283,278,56378,1,2,0:0:0:0:
425,80,56536,1,4,0:0:0:0:
191,166,56694,1,2,0:0:0:0:
426,300,56852,6,0,P|364:272|316:256,1,105,8|2,0:0|0:0,0:0:0:0:
162,286,57167,1,4,0:0:0:0:
321,375,57325,1,2,0:0:0:0:
232,191,57483,1,8,0:0:0:0:
231,139,57561,1,0,0:0:0:0:
263,99,57640,1,6,0:0:0:0:
313,89,57719,1,4,0:0:0:0:
359,113,57799,1,4,0:0:0:0:
320,117,57877,1,4,0:0:0:0:
282,107,57956,1,4,0:0:0:0:
249,85,58035,1,4,0:0:0:0:
225,54,58115,6,0,P|163:68|117:93,1,105,8|0,0:0|0:0,0:0:0:0:
96,290,58431,2,0,P|166:251|154:158,1,157.5,4|0,0:0|0:0,0:0:0:0:
155,165,58746,1,8,0:0:0:0:
1,219,58904,1,2,0:0:0:0:
130,364,59062,1,4,0:0:0:0:
269,237,59220,6,0,B|395:278|338:151|478:188,1,210,2|2,0:0|0:0,0:0:0:0:
446,368,59694,2,0,L|434:262,1,105,4|2,0:0|0:0,0:0:0:0:
293,146,60010,1,8,0:0:0:0:
355,322,60167,1,2,0:0:0:0:
446,147,60325,1,4,0:0:0:0:
222,312,60483,6,0,P|154:276|158:199,1,157.5,4|0,0:2|0:0,0:0:0:0:
88,153,60799,2,0,P|159:102|196:113,1,105,4|0,0:2|0:0,0:0:0:0:
183,115,61036,1,0,0:0:0:0:
183,115,61115,2,0,L|232:131,3,52.5,4|4|4|0,0:0|0:0|0:0|0:0,0:0:0:0:
295,62,61431,5,4,0:0:0:0:
345,72,61509,1,4,0:0:0:0:
381,110,61588,1,4,0:0:0:0:
390,160,61667,1,0,0:0:0:0:
369,208,61746,1,4,0:2:0:0:
238,209,62062,5,0,0:0:0:0:
255,211,62141,1,0,0:0:0:0:
267,218,62220,1,2,0:0:0:0:
316,371,62378,1,0,0:0:0:0:
316,371,62457,1,0,0:0:0:0:
316,371,62536,1,4,0:0:0:0:
149,337,62694,5,0,0:0:0:0:
141,295,62772,1,0,0:0:0:0:
134,254,62851,1,0,0:0:0:0:
127,212,62930,1,0,0:0:0:0:
119,171,63009,1,0,0:0:0:0:
112,130,63088,1,0,0:0:0:0:
105,88,63167,5,6,0:0:0:0:
335,0,63325,1,8,0:0:0:0:
63,234,63483,5,4,0:0:0:0:
211,0,63641,1,10,0:0:0:0:
225,285,63799,5,4,0:0:0:0:
31,60,63957,1,10,0:0:0:0:
266,109,64115,1,4,0:0:0:0:
43,325,64273,2,0,P|134:280|259:259,1,210,2|2,0:0|0:0,0:0:0:0:
446,380,64746,5,4,0:0:0:0:
297,116,64904,1,10,0:0:0:0:
289,327,65062,5,4,0:0:0:0:
412,75,65220,1,10,0:0:0:0:
466,250,65378,5,4,0:0:0:0:
234,44,65536,1,8,0:0:0:0:
169,231,65694,6,0,L|166:267,1,26.25,12|0,0:0|0:0,0:0:0:0:
394,0,65852,1,10,0:0:0:0:
99,24,66010,5,4,0:0:0:0:
316,249,66167,1,10,0:0:0:0:
268,0,66325,5,12,0:0:0:0:
99,288,66483,1,10,0:0:0:0:
46,104,66641,5,4,0:0:0:0:
240,329,66799,1,10,0:0:0:0:
327,112,66957,5,12,0:0:0:0:
300,68,67035,1,4,0:0:0:0:
251,54,67114,1,6,0:0:0:0:
205,78,67193,1,4,0:0:0:0:
189,127,67272,1,4,0:0:0:0:
210,173,67351,1,4,0:0:0:0:
258,192,67430,1,6,0:0:0:0:
405,193,67746,5,2,0:0:0:0:
394,201,67825,1,0,0:0:0:0:
385,211,67904,1,4,0:0:0:0:
325,346,68062,1,0,0:0:0:0:
248,76,68220,5,8,0:0:0:0:
179,26,68378,1,0,0:0:0:0:
103,60,68536,1,8,0:0:0:0:
82,141,68694,1,0,0:0:0:0:
136,204,68852,1,4,0:0:0:0:
294,148,69167,1,8,0:0:0:0:
202,288,69483,5,8,0:0:0:0:
291,319,69641,1,0,0:0:0:0:
362,380,69799,1,8,0:0:0:0:
428,312,69957,1,0,0:0:0:0:
358,247,70115,1,4,0:0:0:0:
103,301,70588,5,2,0:0:0:0:
103,301,70667,1,0,0:0:0:0:
103,301,70746,1,8,0:0:0:0:
155,209,70904,1,0,0:0:0:0:
111,113,71062,1,8,0:0:0:0:
25,52,71220,1,0,0:0:0:0:
1,154,71378,1,4,0:0:0:0:
290,102,71852,5,2,0:0:0:0:
250,272,72010,1,8,0:0:0:0:
400,198,72167,1,0,0:0:0:0:
400,198,72246,1,0,0:0:0:0:
400,198,72325,2,0,P|413:159|414:137,3,52.5,8|0|2|0,0:0|0:0|0:0|0:0,0:0:0:0:
383,76,72641,5,4,0:0:0:0:
350,35,72719,1,4,0:0:0:0:
302,16,72798,1,4,0:0:0:0:
251,25,72877,1,4,0:0:0:0:
211,58,72956,1,4,0:0:0:0:
92,349,73273,5,4,0:2:0:0:
175,140,73431,1,0,0:0:0:0:
37,62,73588,5,4,0:2:0:0:
199,270,73746,1,0,0:0:0:0:
286,61,73904,5,4,0:2:0:0:
42,290,74062,1,0,0:0:0:0:
259,345,74220,5,4,0:2:0:0:
134,71,74378,1,0,0:0:0:0:
124,310,74536,5,4,0:2:0:0:
375,130,74694,1,0,0:0:0:0:
156,148,74852,5,4,0:2:0:0:
452,244,75010,1,0,0:0:0:0:
226,297,75167,5,4,0:2:0:0:
462,130,75325,1,0,0:0:0:0:
307,384,75483,5,4,0:2:0:0:
330,121,75641,1,0,0:0:0:0:
512,271,75799,5,4,0:2:0:0:
437,34,75957,1,2,0:2:0:0:
212,263,76115,6,0,P|289:309|316:293,1,105,4|2,0:2|0:2,0:0:0:0:
97,89,76431,2,0,P|31:117|14:173,1,105,4|2,0:2|0:2,0:0:0:0:
288,198,76746,1,4,0:2:0:0:
288,198,76825,1,0,0:0:0:0:
288,198,76904,1,2,0:2:0:0:
177,0,77062,5,4,0:2:0:0:
126,346,77378,6,0,P|92:253|65:192,1,157.5,4|0,0:0|0:0,0:0:0:0:
127,134,77694,2,0,P|108:198|100:257,1,105,8|2,0:0|0:0,0:0:0:0:
270,259,78010,2,0,P|242:202|188:191,1,105,4|2,0:0|0:0,0:0:0:0:
138,357,78325,6,0,B|192:351|232:375|232:375|258:369|258:369|273:360|273:360|327:361|365:383|365:383|412:353|404:326|380:308|380:308|394:282|407:275,1,367.5,8|4,0:0|0:0,0:0:0:0:
349,224,78957,1,4,0:0:0:0:
338,172,79035,1,4,0:0:0:0:
327,121,79114,1,4,0:0:0:0:
316,69,79193,1,4,0:0:0:0:
305,18,79273,5,4,0:0:0:0:
296,59,79351,1,4,0:0:0:0:
287,100,79430,1,4,0:0:0:0:
277,141,79510,1,4,0:0:0:0:
269,182,79588,5,8,0:0:0:0:
118,53,79746,1,2,0:0:0:0:
84,236,79904,1,4,0:0:0:0:
269,182,80062,5,2,0:0:0:0:
107,66,80220,1,8,0:0:0:0:
89,251,80378,1,2,0:0:0:0:
269,182,80536,5,4,0:0:0:0:
97,80,80694,1,2,0:0:0:0:
95,266,80852,1,8,0:0:0:0:
269,182,81010,5,2,0:0:0:0:
88,95,81168,1,4,0:0:0:0:
102,280,81326,1,2,0:0:0:0:
173,184,81483,1,8,0:0:0:0:
110,293,81641,1,0,0:0:0:0:
370,360,81799,5,4,0:0:0:0:
297,140,81957,1,0,0:0:0:0:
480,193,82115,1,8,0:0:0:0:
240,302,82273,1,2,0:0:0:0:
442,116,82431,5,4,0:0:0:0:
360,337,82588,1,2,0:0:0:0:
297,140,82746,1,8,0:0:0:0:
468,273,82904,5,2,0:0:0:0:
179,157,83062,1,4,0:0:0:0:
382,157,83220,5,2,0:0:0:0:
89,316,83378,1,8,0:0:0:0:
336,293,83536,5,2,0:0:0:0:
74,146,83694,1,4,0:0:0:0:
231,351,83852,5,2,0:0:0:0:
215,119,84010,1,8,0:0:0:0:
9,289,84167,2,0,L|4:256,1,26.25,2|0,0:0|0:0,0:0:0:0:
392,73,84641,6,0,B|374:120|374:120|385:148|385:148|375:171|394:187|370:229,1,147,8|0,0:0|0:0,0:0:0:0:
371,299,85273,6,0,P|322:219|237:183,1,173.250005287171,4|0,0:0|0:0,0:0:0:0:
234,197,85825,1,0,0:0:0:0:
234,197,85904,1,4,0:0:0:0:
206,346,86062,5,0,0:0:0:0:
62,138,86220,1,4,0:0:0:0:
274,85,86378,1,4,0:0:0:0:
53,337,86536,1,4,0:0:0:0:
321,177,86694,6,0,L|351:171,1,26.25,0|0,0:0|0:0,0:0:0:0:
433,337,87167,5,0,0:0:0:0:
473,237,87325,1,0,0:0:0:0:
331,27,87641,6,0,L|351:164,1,118.125004506111,0|0,0:0|0:0,0:0:0:0:
365,166,87957,1,0,0:0:0:0:
296,250,88115,1,0,0:0:0:0:
219,110,88273,6,0,B|218:125|218:125|214:128|214:128|218:131|218:131|214:135|214:135|217:140|217:140|212:143|212:143|216:147|216:147|212:151|212:151|215:155|215:155|211:158|211:158|211:164,1,63,0|0,0:0|0:0,0:0:0:0:
