osu file format v14

[General]
AudioFilename: audio.mp3
AudioLeadIn: 0
PreviewTime: 52983
Countdown: 0
SampleSet: Normal
StackLeniency: 0.7
Mode: 0
LetterboxInBreaks: 0
WidescreenStoryboard: 0

[Editor]
DistanceSpacing: 0.6
BeatDivisor: 4
GridSize: 16
TimelineZoom: 2

[Metadata]
Title:Redo
TitleUnicode:Redo
Artist:Afterglow
ArtistUnicode:Afterglow
Creator:iPhong
Version:Special
Source:バンドリ!ガールズバンドパーティ!
Tags:isekai quartet 異世界かるてっと re zero jpop cover bang dream girls band party video game re:ゼロから始める異世界生活 suzuki konomi echidna otto garfield ryuzu puck emilia subaru felt rem kirylln silent rock drinkpeachxd notabox viet8426 mqno jval93700 superjspectrixv toki_toyosaki yukki_yumi feruver sonin bubblekid azrael_- BaAr_Vendel kyle_y blitzifyyy emiki boomcicle kadokawa collaboration
BeatmapID:1937307
BeatmapSetID:927550

[Difficulty]
HPDrainRate:5.5
CircleSize:4
OverallDifficulty:9
ApproachRate:9.5
SliderMultiplier:1.6
SliderTickRate:1

[Events]
//Background and Video events
0,0,"BG.jpg",0,0
Video,-975,"BGA.mp4"
//Break Periods
2,30525,34324
2,40631,44272
//Storyboard Layer 0 (Background)
//Storyboard Layer 1 (Fail)
//Storyboard Layer 2 (Pass)
//Storyboard Layer 3 (Foreground)
//Storyboard Layer 4 (Overlay)
//Storyboard Sound Samples

[TimingPoints]
10,315.789473684211,4,1,12,40,1,0
10,-83.3333333333333,4,1,12,40,0,0
404,-100,4,1,12,5,0,0
483,-100,4,1,12,40,0,0
1273,-83.3333333333333,4,1,12,40,0,0
1667,-83.3333333333333,4,1,12,5,0,0
1746,-100,4,1,12,40,0,0
2536,-83.3333333333333,4,1,12,40,0,0
2931,-83.3333333333333,4,1,12,5,0,0
3010,-100,4,1,12,40,0,0
3799,-83.3333333333333,4,1,12,40,0,0
4194,-83.3333333333333,4,1,12,5,0,0
4273,-100,4,1,12,40,0,0
4746,-100,4,1,12,40,0,0
4983,-100,4,1,12,5,0,0
5062,-83.3333333333333,4,1,12,60,0,0
10115,-100,4,1,12,60,0,0
29062,-83.3333333333333,4,1,12,60,0,0
35378,-100,4,1,12,60,0,0
48010,-83.3333333333333,4,1,12,60,0,0
53062,-66.6666666666667,4,1,12,75,0,1
53299,-66.6666666666667,4,1,12,5,0,1
53378,-66.6666666666667,4,1,12,75,0,1
54483,-66.6666666666667,4,1,12,75,0,1
55273,-66.6666666666667,4,1,12,75,0,1
56852,-100,4,1,12,75,0,1
57799,-66.6666666666667,4,1,12,75,0,1
61746,-66.6666666666667,4,1,12,75,0,0
61983,-66.6666666666667,4,1,12,5,0,0
62062,-66.6666666666667,4,1,12,75,0,0
63167,-66.6666666666667,4,1,12,75,0,1
68141,-66.6666666666667,4,1,12,5,0,1
68220,-100,4,1,12,75,0,0
69957,-100,4,1,12,45,0,0
70115,-100,4,1,12,75,0,0
73194,-100,4,1,12,5,0,0
73273,-66.6666666666667,4,1,12,75,0,1
74588,-66.6666666666667,4,1,12,5,0,1
74694,-66.6666666666667,4,1,12,75,0,1
74904,-66.6666666666667,4,1,12,5,0,1
75010,-66.6666666666667,4,1,12,75,0,1
75220,-66.6666666666667,4,1,12,5,0,1
75325,-66.6666666666667,4,1,12,75,0,1
75536,-66.6666666666667,4,1,12,5,0,1
75641,-66.6666666666667,4,1,12,75,0,1
75852,-66.6666666666667,4,1,12,5,0,1
75957,-66.6666666666667,4,1,12,75,0,1
76167,-66.6666666666667,4,1,12,5,0,1
76273,-66.6666666666667,4,1,12,75,0,1
76483,-66.6666666666667,4,1,12,5,0,1
76588,-66.6666666666667,4,1,12,75,0,1
78325,-66.6666666666667,4,1,12,45,0,0
78641,-66.6666666666667,4,1,12,57,0,0
78799,-66.6666666666667,4,1,12,75,0,0
79588,-66.6666666666667,4,1,12,75,0,1
84010,-100,4,1,12,75,0,1
84641,-100,4,1,12,75,0,0
85983,-100,4,1,12,5,0,0
86062,-100,4,1,12,75,0,0
86141,-100,4,1,12,5,0,0
86220,-100,4,1,12,75,0,0
86299,-100,4,1,12,5,0,0
86378,-100,4,1,12,75,0,0
86457,-100,4,1,12,5,0,0
86536,-100,4,1,12,75,0,0
87010,-100,4,1,12,60,0,0
87167,-100,4,1,12,60,0,0
87562,-100,4,1,12,5,0,0
87641,-100,4,1,12,60,0,0

[Colours]
Combo1 : 128,128,192
Combo2 : 255,0,66

[HitObjects]
105,79,10,6,0,L|204:103,1,95.9999970703126,0|0,0:0|0:0,0:0:0:0:
303,294,483,2,0,L|210:272,1,80,0|0,0:0|0:0,0:0:0:0:
168,194,799,1,0,0:0:0:0:
75,313,957,1,0,0:0:0:0:
377,235,1115,1,0,0:0:0:0:
275,108,1273,6,0,L|204:42,1,95.9999970703126
168,194,1746,2,0,L|232:255,1,80,0|0,0:0|0:0,0:0:0:0:
196,351,2062,1,0,0:0:0:0:
327,240,2220,1,0,0:0:0:0:
51,273,2378,1,0,0:0:0:0:
101,121,2536,6,0,L|136:28,1,95.9999970703126,0|0,0:0|0:0,0:0:0:0:
168,194,3010,2,0,L|135:281,1,80,0|0,0:0|0:0,0:0:0:0:
235,121,3325,1,0,0:0:0:0:
360,235,3483,1,0,0:0:0:0:
485,121,3641,1,0,0:0:0:0:
248,219,3799,6,0,L|155:262,1,95.9999970703126,0|0,0:0|0:0,0:0:0:0:
24,203,4273,2,0,L|112:160,1,80,0|0,0:0|0:0,0:0:0:0:
213,357,4588,1,0,0:0:0:0:
389,85,4746,2,0,P|429:76|427:116,1,80,4|0,0:0|0:0,0:0:0:0:
388,189,5062,5,4,0:0:0:0:
366,307,5220,1,0,0:0:0:0:
512,261,5378,1,0,0:0:0:0:
352,311,5536,1,0,0:0:0:0:
228,197,5694,6,0,L|135:119,1,95.9999970703126,8|0,0:0|0:0,0:0:0:0:
166,18,6010,2,0,L|259:96,1,95.9999970703126,0|8,0:0|0:0,0:0:0:0:
426,198,6325,5,8,0:0:0:0:
334,38,6483,1,8,0:0:0:0:
320,260,6641,1,0,0:0:0:0:
412,100,6799,1,0,0:0:0:0:
192,102,6957,6,0,L|70:102,1,95.9999970703126,8|0,0:0|0:0,0:0:0:0:
0,213,7273,2,0,L|122:213,1,95.9999970703126,8|8,0:0|0:0,0:0:0:0:
177,281,7588,5,4,0:0:0:0:
177,281,7746,2,0,L|236:369,1,95.9999970703126,0|0,0:0|0:0,0:0:0:0:
228,197,8062,1,8,0:0:0:0:
228,197,8220,2,0,L|169:109,2,95.9999970703126,8|0|0,0:0|0:0|0:0,0:0:0:0:
321,219,8694,1,8,0:0:0:0:
414,197,8852,5,12,0:0:0:0:
414,197,9010,2,0,L|473:109,1,95.9999970703126,0|0,0:0|0:0,0:0:0:0:
489,255,9325,1,8,0:0:0:0:
489,255,9483,2,0,L|489:362,2,95.9999970703126,8|0|8,0:0|0:0|0:0,0:0:0:0:
410,304,9957,1,0,0:0:0:0:
327,260,10115,6,0,P|246:237|176:282,1,160,4|0,0:0|0:0,0:0:0:0:
117,334,10588,1,0,0:0:0:0:
117,334,10746,2,0,P|198:357|268:312,1,160,0|0,0:0|0:0,0:0:0:0:
183,272,11220,1,0,0:0:0:0:
183,272,11378,2,0,P|102:249|32:294,1,160,0|0,0:0|0:0,0:0:0:0:
117,334,11852,5,0,0:0:0:0:
97,167,12010,2,0,L|87:83,2,80,0|0|0,0:0|0:0|0:0,0:0:0:0:
171,221,12483,1,0,0:0:0:0:
245,167,12641,2,0,P|272:93|359:68,1,160,0|0,0:0|0:0,0:0:0:0:
343,166,13115,1,0,0:0:0:0:
343,166,13273,2,0,P|312:234|229:265,1,160,0|0,0:0|0:0,0:0:0:0:
129,319,13746,1,0,0:0:0:0:
129,319,13904,2,0,P|190:350|280:341,1,160,0|0,0:0|0:0,0:0:0:0:
368,311,14378,5,0,0:0:0:0:
368,311,14536,2,0,L|438:348,1,80,0|0,0:0|0:0,0:0:0:0:
512,290,14852,2,0,P|454:253|448:146,1,160,0|4,0:0|0:0,0:0:0:0:
485,82,15325,5,0,0:0:0:0:
245,157,15483,1,0,0:0:0:0:
438,167,15641,1,0,0:0:0:0:
173,82,15799,2,0,P|124:73|78:97,1,80,0|0,0:0|0:0,0:0:0:0:
135,167,16115,5,0,0:0:0:0:
208,351,16273,1,0,0:0:0:0:
78,217,16431,1,0,0:0:0:0:
259,295,16588,1,0,0:0:0:0:
83,292,16746,5,0,0:0:0:0:
266,219,16904,1,0,0:0:0:0:
134,351,17062,2,0,L|169:274,1,80,0|0,0:0|0:0,0:0:0:0:
211,169,17378,2,0,L|246:92,1,80,0|0,0:0|0:0,0:0:0:0:
346,56,17694,2,0,L|478:357,3,320
305,248,19904,1,0,0:0:0:0:
235,317,20220,6,0,P|210:242|241:171,1,160,4|0,0:0|0:0,0:0:0:0:
311,102,20694,1,0,0:0:0:0:
311,102,20852,2,0,P|335:176|304:247,1,160,0|0,0:0|0:0,0:0:0:0:
241,38,21325,1,0,0:0:0:0:
241,38,21483,2,0,P|315:13|386:44,1,160,0|0,0:0|0:0,0:0:0:0:
456,118,21957,1,0,0:0:0:0:
303,157,22115,5,0,0:0:0:0:
379,240,22273,1,0,0:0:0:0:
164,293,22431,2,0,L|76:317,1,80,0|0,0:0|0:0,0:0:0:0:
219,196,22746,6,0,P|267:243|260:343,1,160
164,293,23220,1,0,0:0:0:0:
164,293,23378,2,0,P|116:246|123:146,1,160,0|0,0:0|0:0,0:0:0:0:
171,60,23852,1,0,0:0:0:0:
171,60,24010,2,0,P|219:107|212:207,1,160,0|0,0:0|0:0,0:0:0:0:
164,293,24483,1,0,0:0:0:0:
304,162,24641,2,0,P|390:128|454:169,1,160
375,223,25115,5,0,0:0:0:0:
354,363,25273,1,4,0:0:0:0:
432,302,25431,2,0,L|512:302,2,80
276,310,25904,2,0,P|227:297|183:311,1,80,0|0,0:0|0:0,0:0:0:0:
110,330,26220,1,0,0:0:0:0:
187,148,26378,1,0,0:0:0:0:
59,271,26536,1,0,0:0:0:0:
242,198,26694,1,0,0:0:0:0:
54,196,26852,5,0,0:0:0:0:
235,274,27010,1,0,0:0:0:0:
111,146,27167,2,0,L|75:56,1,80,0|0,0:0|0:0,0:0:0:0:
184,330,27483,1,8,0:0:0:0:
169,292,27561,1,8,0:0:0:0:
154,255,27640,1,8,0:0:0:0:
226,163,27799,5,12,0:0:0:0:
341,243,27957,1,0,0:0:0:0:
328,384,28115,1,0,0:0:0:0:
341,243,28273,5,12,0:0:0:0:
226,163,28431,1,0,0:0:0:0:
237,21,28588,1,0,0:0:0:0:
226,163,28746,5,12,0:0:0:0:
341,243,28904,1,0,0:0:0:0:
452,158,29062,5,12,0:0:0:0:
115,236,29220,1,8,0:0:0:0:
73,214,29299,1,8,0:0:0:0:
53,171,29378,1,8,0:0:0:0:
63,125,29457,1,8,0:0:0:0:
99,95,29536,1,8,0:0:0:0:
146,94,29615,1,8,0:0:0:0:
185,121,29694,1,8,0:0:0:0:
221,151,29773,1,0,0:0:0:0:
265,170,29852,1,0,0:0:0:0:
313,175,29931,1,0,0:0:0:0:
360,166,30010,2,0,P|415:120|315:68,1,191.999994140625,8|4,0:0|0:0,0:0:0:0:
115,297,34904,6,0,L|86:200,1,95.9999970703126,8|8,0:0|0:0,0:0:0:0:
254,134,35378,5,4,0:0:0:0:
57,79,35536,1,0,0:0:0:0:
272,139,35694,2,0,L|367:168,1,80,8|8,0:0|0:0,0:0:0:0:
212,50,36010,1,8,0:0:0:0:
165,147,36167,1,0,0:0:0:0:
225,236,36325,1,8,0:0:0:0:
178,333,36483,5,0,0:0:0:0:
178,333,36562,1,0,0:0:0:0:
178,333,36641,1,0,0:0:0:0:
131,236,36799,2,0,L|60:206,2,40,0|0|8,0:0|0:0|0:0,0:0:0:0:
356,345,37115,5,8,0:0:0:0:
356,345,37273,2,0,P|390:305|393:270,1,80,8|0,0:0|0:0,0:0:0:0:
348,205,37588,2,0,P|314:245|311:280,1,80,8|0,0:0|0:0,0:0:0:0:
512,205,37904,5,4,0:0:0:0:
451,101,38062,1,0,0:0:0:0:
329,102,38220,1,8,0:0:0:0:
268,207,38378,1,8,0:0:0:0:
207,313,38536,1,8,0:0:0:0:
85,314,38694,1,0,0:0:0:0:
22,210,38852,1,8,0:0:0:0:
81,104,39010,1,8,0:0:0:0:
297,333,39167,5,12,0:0:0:0:
215,51,39325,1,0,0:0:0:0:
204,368,39483,5,12,0:0:0:0:
307,15,39641,1,0,0:0:0:0:
114,232,39799,5,12,0:0:0:0:
396,150,39957,1,8,0:0:0:0:
57,133,40115,5,8,0:0:0:0:
57,133,40194,1,8,0:0:0:0:
57,133,40273,1,8,0:0:0:0:
460,249,40431,5,12,0:0:0:0:
327,310,44852,6,0,L|267:359,3,40,4|0|8|8,0:0|0:0|0:0|0:0,0:0:0:0:
181,301,45167,2,0,L|241:252,3,40,8|8|8|8,0:0|0:0|0:0|0:0,0:0:0:0:
185,152,45483,5,12,0:0:0:0:
34,263,45641,1,0,0:0:0:0:
198,142,45799,2,0,L|260:86,1,80,8|8,0:0|0:0,0:0:0:0:
87,122,46115,5,8,0:0:0:0:
126,229,46273,1,0,0:0:0:0:
238,248,46431,1,8,0:0:0:0:
277,355,46588,1,0,0:0:0:0:
277,355,46667,1,0,0:0:0:0:
277,355,46746,1,0,0:0:0:0:
337,278,46904,6,0,L|378:283,2,40,0|0|8,0:0|0:0|0:0,0:0:0:0:
144,254,47220,1,8,0:0:0:0:
144,254,47378,2,0,P|106:243|69:256,1,80,8|8,0:0|0:0,0:0:0:0:
30,348,47694,2,0,P|67:358|104:345,1,80,8|0,0:0|0:0,0:0:0:0:
0,205,48010,5,4,0:0:0:0:
60,101,48168,1,0,0:0:0:0:
182,102,48326,1,8,0:0:0:0:
243,207,48484,1,8,0:0:0:0:
304,313,48642,1,8,0:0:0:0:
426,314,48800,1,0,0:0:0:0:
489,210,48958,1,8,0:0:0:0:
430,104,49116,1,8,0:0:0:0:
215,333,49273,5,12,0:0:0:0:
297,51,49431,1,0,0:0:0:0:
308,368,49588,5,12,0:0:0:0:
205,15,49746,1,0,0:0:0:0:
397,232,49904,5,12,0:0:0:0:
115,150,50062,1,8,0:0:0:0:
92,142,50140,1,8,0:0:0:0:
69,134,50219,1,8,0:0:0:0:
46,126,50298,1,8,0:0:0:0:
24,119,50377,1,8,0:0:0:0:
479,351,50536,5,12,0:0:0:0:
398,30,50694,1,8,0:0:0:0:
363,351,51010,5,12,0:0:0:0:
166,30,51167,1,8,0:0:0:0:
247,351,51483,5,12,0:0:0:0:
282,30,51641,1,8,0:0:0:0:
131,351,51957,5,12,0:0:0:0:
50,30,52115,1,8,0:0:0:0:
0,224,52273,5,0,0:0:0:0:
0,224,52352,1,0,0:0:0:0:
0,224,52431,1,8,0:0:0:0:
512,160,52588,1,8,0:0:0:0:
131,351,53062,6,0,P|122:259|151:212,1,120.000004577637,4|0,0:0|0:0,0:0:0:0:
352,191,53378,1,8,0:0:0:0:
142,89,53536,2,0,L|23:82,1,120.000004577637
291,14,53852,1,0,0:0:0:0:
250,212,54010,1,8,0:0:0:0:
467,70,54167,6,0,P|409:54|352:68,1,120.000004577637,4|0,0:0|0:0,0:0:0:0:
309,298,54483,2,0,P|349:231|351:185,1,120.000004577637,4|0,0:0|0:0,0:0:0:0:
174,34,54799,2,0,P|196:94|250:129,1,120.000004577637,4|0,0:0|0:0,0:0:0:0:
408,136,55115,1,0,0:0:0:0:
189,297,55273,1,8,0:0:0:0:
240,125,55431,1,8,0:0:0:0:
178,327,55588,5,12,0:0:0:0:
62,131,55746,1,0,0:0:0:0:
93,286,55904,1,8,0:0:0:0:
209,90,56062,1,0,0:0:0:0:
373,331,56220,5,0,0:0:0:0:
341,132,56378,1,0,0:0:0:0:
225,328,56536,1,8,0:0:0:0:
240,125,56694,1,0,0:0:0:0:
392,305,56852,6,0,L|411:396,2,80,0|0|4,0:0|0:0|0:0,0:0:0:0:
239,226,57325,1,8,0:0:0:0:
338,57,57483,1,8,0:0:0:0:
369,33,57562,1,8,0:0:0:0:
409,28,57641,1,8,0:0:0:0:
446,42,57720,1,8,0:0:0:0:
471,72,57799,2,0,L|463:160,2,60.0000022888184
480,231,58115,5,4,0:0:0:0:
228,147,58273,1,0,0:0:0:0:
370,211,58431,2,0,P|382:291|338:356,1,120.000004577637,8|8,0:0|0:0,0:0:0:0:
226,262,58746,2,0,P|214:182|258:117,1,120.000004577637,8|0,0:0|0:0,0:0:0:0:
333,36,59062,1,8,0:0:0:0:
443,143,59220,6,0,P|455:223|320:352,1,240.000009155274,4|0,0:0|0:0,0:0:0:0:
68,301,59694,1,8,0:0:0:0:
300,211,59852,1,8,0:0:0:0:
248,347,60010,6,0,P|165:264|167:147,1,240.000009155274,8|8,0:0|0:0,0:0:0:0:
221,47,60483,1,4,0:0:0:0:
221,47,60799,6,0,L|287:113,1,60.0000022888184,4|0,0:0|0:0,0:0:0:0:
346,47,60957,2,0,L|412:113,1,60.0000022888184,8|8,0:0|0:0,0:0:0:0:
333,151,61115,2,0,L|399:217,1,60.0000022888184,8|8,0:0|0:0,0:0:0:0:
458,151,61273,2,0,L|524:217,1,60.0000022888184,8|8,0:0|0:0,0:0:0:0:
445,255,61431,5,8,0:0:0:0:
403,297,61510,1,8,0:0:0:0:
348,319,61588,1,8,0:0:0:0:
288,318,61667,1,8,0:0:0:0:
234,293,61746,2,0,P|162:275|110:307,1,120.000004577637,12|0,0:0|0:0,0:0:0:0:
314,174,62062,5,8,0:0:0:0:
78,153,62220,1,8,0:0:0:0:
357,40,62378,1,8,0:0:0:0:
177,368,62536,1,8,0:0:0:0:
228,102,62694,5,8,0:0:0:0:
263,67,62773,1,8,0:0:0:0:
308,45,62852,1,8,0:0:0:0:
357,40,62931,1,8,0:0:0:0:
406,51,63010,1,8,0:0:0:0:
448,77,63088,1,8,0:0:0:0:
479,116,63167,5,12,0:0:0:0:
192,243,63325,1,0,0:0:0:0:
414,201,63483,5,8,0:0:0:0:
127,74,63641,1,0,0:0:0:0:
368,102,63799,5,8,0:0:0:0:
81,229,63957,1,0,0:0:0:0:
307,328,64115,1,8,0:0:0:0:
205,56,64273,6,0,P|181:133|118:157,1,120.000004577637,0|12,0:0|0:0,0:0:0:0:
307,56,64588,2,0,P|331:133|394:157,1,120.000004577637,0|8,0:0|0:0,0:0:0:0:
205,223,64904,2,0,P|128:238|78:203,1,120.000004577637,0|8,0:0|0:0,0:0:0:0:
307,223,65220,2,0,P|384:238|434:203,1,120.000004577637,0|8,0:0|0:0,0:0:0:0:
256,142,65536,1,0,0:0:0:0:
93,220,65694,5,12,0:0:0:0:
205,56,65852,1,0,0:0:0:0:
419,220,66010,1,8,0:0:0:0:
307,56,66167,1,0,0:0:0:0:
93,220,66325,5,8,0:0:0:0:
470,134,66483,1,0,0:0:0:0:
42,134,66641,1,8,0:0:0:0:
419,220,66799,1,0,0:0:0:0:
256,142,66957,5,8,0:0:0:0:
240,176,67036,1,8,0:0:0:0:
256,208,67115,1,8,0:0:0:0:
272,240,67194,1,8,0:0:0:0:
256,272,67273,2,0,L|256:373,1,60.0000022888184,8|8,0:0|0:0,0:0:0:0:
156,305,67431,2,0,P|256:184|351:332,1,360.000013732911,12|12,0:0|0:0,0:0:0:0:
433,166,68220,5,0,0:0:0:0:
490,304,68378,1,0,0:0:0:0:
427,148,68536,2,0,P|420:83|488:15,1,160,8|12,0:0|0:0,0:0:0:0:
332,161,69167,5,0,0:0:0:0:
332,161,69325,1,0,0:0:0:0:
512,108,69483,5,0,0:0:0:0:
305,49,69641,2,0,L|220:27,2,80,8|0|0,0:0|0:0|0:0,0:0:0:0:
233,205,70115,1,12,0:0:0:0:
233,205,70273,2,0,P|146:237|88:197,1,160,0|8,0:0|0:0,0:0:0:0:
115,158,70667,1,8,0:0:0:0:
165,145,70746,5,8,0:0:0:0:
132,334,70904,1,8,0:0:0:0:
347,145,71062,1,0,0:0:0:0:
380,334,71220,1,0,0:0:0:0:
54,223,71378,1,12,0:0:0:0:
256,94,71536,2,0,P|279:60|264:11,2,80,0|0|8,0:0|0:0|0:0,0:0:0:0:
372,51,72010,5,0,0:0:0:0:
410,59,72088,1,0,0:0:0:0:
444,80,72167,1,0,0:0:0:0:
469,111,72246,1,0,0:0:0:0:
483,149,72325,1,12,0:0:0:0:
483,189,72404,1,0,0:0:0:0:
470,226,72483,1,0,0:0:0:0:
446,258,72562,1,0,0:0:0:0:
413,280,72641,1,0,0:0:0:0:
374,289,72720,1,0,0:0:0:0:
334,285,72799,1,0,0:0:0:0:
298,269,72878,1,0,0:0:0:0:
269,242,72957,2,0,P|210:216|162:227,1,80,12|0,0:0|0:0,0:0:0:0:
53,319,73273,6,0,P|112:345|176:325,1,120.000004577637,12|0,0:0|0:0,0:0:0:0:
459,65,73588,2,0,P|399:38|336:59,1,120.000004577637,12|0,0:0|0:0,0:0:0:0:
333,251,73904,2,0,P|390:264|444:239,1,120.000004577637,12|0,0:0|0:0,0:0:0:0:
164,51,74220,2,0,P|106:39|53:65,1,120.000004577637,12|0,0:0|0:0,0:0:0:0:
0,227,74536,6,0,P|52:252|111:242,1,120.000004577637,12|0,0:0|0:0,0:0:0:0:
512,155,74852,2,0,P|458:129|401:142,1,120.000004577637,12|0,0:0|0:0,0:0:0:0:
347,332,75167,2,0,P|404:344|458:319,1,120.000004577637,12|0,0:0|0:0,0:0:0:0:
177,130,75483,2,0,P|120:119|67:145,1,120.000004577637,12|0,0:0|0:0,0:0:0:0:
333,251,75799,5,12,0:0:0:0:
177,130,75957,1,0,0:0:0:0:
401,141,76115,1,12,0:0:0:0:
111,241,76273,1,0,0:0:0:0:
444,239,76431,5,12,0:0:0:0:
66,145,76588,1,0,0:0:0:0:
512,155,76746,1,8,0:0:0:0:
0,227,76904,1,8,0:0:0:0:
321,363,77062,5,4,0:0:0:0:
191,19,77220,1,0,0:0:0:0:
214,294,77378,1,8,0:0:0:0:
294,81,77536,1,0,0:0:0:0:
335,252,77694,5,0,0:0:0:0:
178,131,77852,1,0,0:0:0:0:
256,191,78010,1,8,0:0:0:0:
93,252,78167,1,0,0:0:0:0:
121,80,78325,5,8,0:0:0:0:
165,81,78404,1,8,0:0:0:0:
204,102,78483,1,8,0:0:0:0:
229,139,78562,1,8,0:0:0:0:
234,184,78641,1,8,0:0:0:0:
218,225,78720,1,8,0:0:0:0:
184,255,78799,1,8,0:0:0:0:
141,265,78878,1,8,0:0:0:0:
93,252,78957,5,8,0:0:0:0:
117,197,79036,1,8,0:0:0:0:
160,156,79115,1,8,0:0:0:0:
216,135,79194,1,8,0:0:0:0:
276,137,79273,1,8,0:0:0:0:
330,162,79352,1,8,0:0:0:0:
371,205,79431,1,8,0:0:0:0:
392,261,79510,1,8,0:0:0:0:
404,319,79588,5,12,0:0:0:0:
254,177,79746,1,0,0:0:0:0:
451,120,79904,1,0,0:0:0:0:
384,322,80062,5,4,0:0:0:0:
263,158,80220,1,0,0:0:0:0:
464,136,80378,1,0,0:0:0:0:
364,317,80536,5,12,0:0:0:0:
276,143,80694,1,0,0:0:0:0:
469,156,80852,1,0,0:0:0:0:
193,349,81010,5,4,0:0:0:0:
318,34,81167,1,0,0:0:0:0:
306,318,81325,1,0,0:0:0:0:
206,66,81483,1,12,0:0:0:0:
195,37,81562,1,0,0:0:0:0:
185,9,81641,5,0,0:0:0:0:
256,192,81799,2,0,P|261:257|215:291,1,120.000004577637,12|0,0:0|0:0,0:0:0:0:
90,334,82115,5,4,0:0:0:0:
257,176,82273,1,0,0:0:0:0:
37,112,82431,1,0,0:0:0:0:
112,337,82588,5,4,0:0:0:0:
247,155,82746,1,0,0:0:0:0:
23,130,82904,1,0,0:0:0:0:
134,332,83062,5,4,0:0:0:0:
232,138,83220,1,0,0:0:0:0:
17,152,83378,1,0,0:0:0:0:
319,349,83536,5,4,0:0:0:0:
194,34,83694,1,0,0:0:0:0:
206,318,83852,5,0,0:0:0:0:
326,9,84010,1,4,0:0:0:0:
326,9,84088,1,0,0:0:0:0:
326,9,84167,1,4,0:0:0:0:
256,192,84641,6,0,P|386:278|503:183,1,320,12|0,0:0|0:0,0:0:0:0:
378,139,85746,5,8,0:0:0:0:
378,139,85825,1,8,0:0:0:0:
378,139,85904,1,8,0:0:0:0:
134,245,86062,1,8,0:0:0:0:
422,210,86220,5,8,0:0:0:0:
91,173,86378,1,8,0:0:0:0:
493,167,86536,5,0,0:0:0:0:
20,216,86694,1,12,0:0:0:0:
407,79,87167,6,0,L|311:101,1,80
209,294,87641,2,0,L|302:273,1,80
344,194,87957,1,0,0:0:0:0:
437,313,88115,1,0,0:0:0:0:
135,235,88273,1,0,0:0:0:0:
135,235,88352,6,0,P|58:235|2:290,1,160
