osu file format v14

[General]
AudioFilename: audio.mp3
AudioLeadIn: 0
PreviewTime: 52983
Countdown: 0
SampleSet: Normal
StackLeniency: 0.7
Mode: 0
LetterboxInBreaks: 0
WidescreenStoryboard: 0

[Editor]
DistanceSpacing: 0.8
BeatDivisor: 4
GridSize: 16
TimelineZoom: 2

[Metadata]
Title:Redo
TitleUnicode:Redo
Artist:Afterglow
ArtistUnicode:Afterglow
Creator:iPhong
Version:Normal
Source:バンドリ!ガールズバンドパーティ!
Tags:isekai quartet 異世界かるてっと re zero jpop cover bang dream girls band party video game re:ゼロから始める異世界生活 suzuki konomi echidna otto garfield ryuzu puck emilia subaru felt rem kirylln silent rock drinkpeachxd notabox viet8426 mqno jval93700 superjspectrixv toki_toyosaki yukki_yumi feruver sonin bubblekid azrael_- BaAr_Vendel kyle_y blitzifyyy emiki boomcicle kadokawa collaboration
BeatmapID:1937306
BeatmapSetID:927550

[Difficulty]
HPDrainRate:3
CircleSize:2.5
OverallDifficulty:3.5
ApproachRate:4
SliderMultiplier:1.2
SliderTickRate:1

[Events]
//Background and Video events
0,0,"BG.jpg",0,0
Video,-975,"BGA.mp4"
//Break Periods
2,30525,34058
2,40630,44163
//Storyboard Layer 0 (Background)
//Storyboard Layer 1 (Fail)
//Storyboard Layer 2 (Pass)
//Storyboard Layer 3 (Foreground)
//Storyboard Layer 4 (Overlay)
//Storyboard Sound Samples

[TimingPoints]
10,315.789473684211,4,1,12,60,1,0
53062,-100,4,1,12,75,0,1
61746,-100,4,1,12,75,0,0
63167,-100,4,1,12,75,0,1
68220,-100,4,1,12,75,0,0
73273,-100,4,1,12,75,0,1
78325,-100,4,1,12,75,0,0
79588,-100,4,1,12,75,0,1
84641,-100,4,1,12,60,0,0
87167,-100,4,1,12,60,0,0

[Colours]
Combo1 : 128,128,192
Combo2 : 255,0,66

[HitObjects]
470,321,10,6,0,P|403:345|328:300,1,120,0|0,0:0|0:0,0:0:0:0:
318,304,483,2,0,P|260:290|206:314,1,120,0|0,0:0|0:0,0:0:0:0:
170,346,957,1,0,0:0:0:0:
79,312,1273,6,0,B|65:226|65:226|95:184,1,120,0|0,0:0|0:0,0:0:0:0:
113,161,1746,2,0,B|132:134|132:134|118:48,1,120,0|0,0:0|0:0,0:0:0:0:
111,0,2220,1,0,0:0:0:0:
204,22,2536,6,0,P|299:46|363:4,2,180,0|0|0,0:0|0:0|0:0,0:0:0:0:
163,109,3799,2,0,P|68:133|4:91,2,180,0|0|4,0:0|0:0|0:0,0:0:0:0:
236,171,5062,6,0,P|257:241|223:303,1,120,4|0,0:0|0:0,0:0:0:0:
210,319,5536,1,0,0:0:0:0:
162,326,5694,2,0,L|78:318,1,60,8|0,0:0|0:0,0:0:0:0:
73,281,6010,2,0,L|81:197,1,60,0|8,0:0|0:0,0:0:0:0:
54,179,6325,6,0,P|33:109|67:47,1,120,8|0,0:0|0:0,0:0:0:0:
80,31,6799,1,0,0:0:0:0:
128,24,6957,2,0,L|212:32,1,60,8|0,0:0|0:0,0:0:0:0:
220,64,7273,2,0,L|304:72,1,60,8|8,0:0|0:0,0:0:0:0:
320,44,7588,6,0,P|390:23|452:57,1,120,4|0,0:0|0:0,0:0:0:0:
471,65,8062,1,8,0:0:0:0:
495,106,8220,2,0,L|502:170,2,60,8|0|0,0:0|0:0|0:0,0:0:0:0:
409,151,8852,6,0,P|339:172|277:138,1,120,12|0,0:0|0:0,0:0:0:0:
258,130,9326,1,8,0:0:0:0:
213,147,9484,2,0,L|191:209,2,60,8|0|8,0:0|0:0|0:0,0:0:0:0:
143,81,10115,6,0,B|74:82|39:132|39:132|58:62|21:11,2,240,4|0|0,0:0|0:0|0:0,0:0:0:0:
326,23,12010,2,0,P|344:82|308:148,1,120,0|0,0:0|0:0,0:0:0:0:
291,170,12483,1,0,0:0:0:0:
306,215,12641,6,0,B|341:280|315:331|315:331|374:289|451:322,2,240,0|0|0,0:0|0:0|0:0,0:0:0:0:
180,285,14378,1,0,0:0:0:0:
135,303,14536,2,0,P|80:317|14:276,1,120,0|0,0:0|0:0,0:0:0:0:
1,248,15010,1,0,0:0:0:0:
21,204,15167,6,0,L|25:134,1,60,4|0,0:0|0:0,0:0:0:0:
55,107,15483,2,0,L|59:37,2,60,0|0|0,0:0|0:0|0:0,0:0:0:0:
141,148,16115,6,0,L|211:152,1,60,0|0,0:0|0:0,0:0:0:0:
242,127,16431,2,0,L|312:131,1,60,0|0,0:0|0:0,0:0:0:0:
343,106,16746,2,0,L|413:110,1,60,0|0,0:0|0:0,0:0:0:0:
444,85,17062,2,0,L|514:89,2,60,0|0|0,0:0|0:0|0:0,0:0:0:0:
470,177,17694,6,0,P|489:242|458:302,1,120,0|0,0:0|0:0,0:0:0:0:
437,322,18167,1,0,0:0:0:0:
392,339,18325,6,0,P|327:358|267:327,1,120,0|0,0:0|0:0,0:0:0:0:
247,306,18798,1,0,0:0:0:0:
230,261,18958,6,0,P|211:196|242:136,1,120,0|0,0:0|0:0,0:0:0:0:
263,116,19431,1,0,0:0:0:0:
259,68,19588,2,0,L|248:2,2,60,0|0|0,0:0|0:0|0:0,0:0:0:0:
163,78,20220,6,0,P|107:59|51:78,1,120,4|0,0:0|0:0,0:0:0:0:
107,156,20852,2,0,P|88:211|107:267,1,120,0|0,0:0|0:0,0:0:0:0:
185,212,21483,2,0,P|240:230|296:211,1,120,0|0,0:0|0:0,0:0:0:0:
241,134,22115,2,0,L|241:66,2,60,0|0|0,0:0|0:0|0:0,0:0:0:0:
336,121,22746,6,0,P|391:102|447:121,1,120,0|0,0:0|0:0,0:0:0:0:
391,199,23378,2,0,P|435:238|446:295,1,120,0|0,0:0|0:0,0:0:0:0:
350,285,24010,2,0,P|338:342|293:381,1,120,0|0,0:0|0:0,0:0:0:0:
255,292,24641,6,0,L|242:229,1,60,0|0,0:0|0:0,0:0:0:0:
265,190,24957,2,0,L|252:127,1,60,0|0,0:0|0:0,0:0:0:0:
275,88,25273,6,0,L|262:25,1,60,4|0,0:0|0:0,0:0:0:0:
224,0,25588,2,0,L|161:13,1,60,0|0,0:0|0:0,0:0:0:0:
135,49,25904,2,0,P|115:108|147:164,1,120,0|0,0:0|0:0,0:0:0:0:
170,193,26378,1,0,0:0:0:0:
211,217,26536,6,0,L|282:217,1,60,0|0,0:0|0:0,0:0:0:0:
310,188,26852,2,0,L|381:188,1,60,0|0,0:0|0:0,0:0:0:0:
409,159,27167,2,0,L|480:159,2,60,0|0|8,0:0|0:0|0:0,0:0:0:0:
445,248,27799,6,0,P|453:313|334:280,2,240,12|0|12,0:0|0:0|0:0,0:0:0:0:
420,206,29220,1,8,0:0:0:0:
423,158,29378,6,0,L|426:83,1,60,8|8,0:0|0:0,0:0:0:0:
392,62,29694,2,0,L|317:59,2,60,8|0|8,0:0|0:0|0:0,0:0:0:0:
466,1,30325,1,4,0:0:0:0:
466,1,35378,6,0,B|509:148|378:226|479:371|479:371|386:326|310:322|255:333|218:406|-4:407|50:387|-64:397|-58:218|-22:98|44:71|151:31|235:49|313:98|331:235|288:310|141:340|63:293|7:182|53:33|53:33|145:0|254:15|303:83,1,1920,4|12,0:0|0:0,0:0:0:0:
295,74,45483,6,0,P|34:268|315:320,1,780,12|0,0:0|0:0,0:0:0:0:
348,288,47694,1,8,0:0:0:0:
425,344,48010,6,0,L|493:339,1,60,12|0,0:0|0:0,0:0:0:0:
512,300,48325,2,0,L|507:232,1,60,8|8,0:0|0:0,0:0:0:0:
468,213,48641,2,0,L|400:218,2,60,8|0|8,0:0|0:0|0:0,0:0:0:0:
511,127,49273,6,0,B|498:43|498:43|458:16,1,120,12|12,0:0|0:0,0:0:0:0:
426,0,49746,1,0,0:0:0:0:
385,25,49904,2,0,P|330:50|258:28,1,120,12|8,0:0|0:0,0:0:0:0:
184,0,50536,5,12,0:0:0:0:
45,39,51010,1,12,0:0:0:0:
9,178,51483,1,12,0:0:0:0:
112,278,51958,1,12,0:0:0:0:
250,240,52431,1,8,0:0:0:0:
286,101,53062,6,0,P|351:81|410:113,1,120,4|8,0:0|0:0,0:0:0:0:
434,130,53536,1,0,0:0:0:0:
462,168,53694,2,0,L|468:236,1,60,0|0,0:0|0:0,0:0:0:0:
445,270,54010,2,0,L|451:338,1,60,8|4,0:0|0:0,0:0:0:0:
354,326,54483,6,0,L|348:258,1,60,0|8,0:0|0:0,0:0:0:0:
311,235,54799,1,0,0:0:0:0:
277,201,54957,2,0,L|271:133,2,60,0|0|8,0:0|0:0|0:0,0:0:0:0:
206,266,55588,6,0,P|149:283|83:253,1,120,12|8,0:0|0:0,0:0:0:0:
57,231,56062,1,0,0:0:0:0:
36,187,56220,2,0,L|44:115,1,60,0|0,0:0|0:0,0:0:0:0:
49,79,56536,1,8,0:0:0:0:
143,60,56852,6,0,L|151:-12,2,60,0|0|4,0:0|0:0|0:0,0:0:0:0:
181,89,57325,1,8,0:0:0:0:
223,111,57483,2,0,P|336:136|441:75,1,240,8|4,0:0|0:0,0:0:0:0:
511,141,58431,6,0,L|500:281,1,120,8|8,0:0|0:0,0:0:0:0:
423,315,59062,1,8,0:0:0:0:
384,286,59220,2,0,P|305:255|212:287,1,180,4|8,0:0|0:0,0:0:0:0:
179,311,59852,1,8,0:0:0:0:
139,338,60010,6,0,L|62:330,1,60,8|0,0:0|0:0,0:0:0:0:
59,287,60325,2,0,L|-18:279,1,60,8|4,0:0|0:0,0:0:0:0:
0,184,60799,6,0,L|77:192,1,60,4|8,0:0|0:0,0:0:0:0:
96,159,61115,2,0,L|173:167,1,60,8|8,0:0|0:0,0:0:0:0:
192,134,61431,2,0,L|269:142,1,60,8|8,0:0|0:0,0:0:0:0:
299,145,61746,1,12,0:0:0:0:
357,68,62062,6,0,L|434:76,1,60,8|8,0:0|0:0,0:0:0:0:
453,43,62379,2,0,L|530:51,2,60,8|8|8,0:0|0:0|0:0,0:0:0:0:
511,174,63167,5,12,0:0:0:0:
498,269,63483,1,8,0:0:0:0:
439,344,63799,1,8,0:0:0:0:
350,380,64115,1,8,0:0:0:0:
255,366,64431,5,12,0:0:0:0:
179,306,64746,1,8,0:0:0:0:
143,217,65062,1,8,0:0:0:0:
156,121,65377,1,8,0:0:0:0:
216,45,65694,5,12,0:0:0:0:
305,8,66009,1,8,0:0:0:0:
399,26,66325,1,8,0:0:0:0:
475,84,66640,1,8,0:0:0:0:
511,174,66957,6,0,B|506:249|506:249|462:247|462:247|457:315,2,180,8|12|12,0:0|0:0|0:0,0:0:0:0:
415,163,68220,6,0,B|322:134|274:144|226:172|196:197|118:269|73:273|26:255|-5:185|-6:91|37:49|104:45|156:53|175:86|197:117|215:166|223:217|234:275|218:378|218:378|404:317|242:120|400:-5,1,1320,0|0,0:0|0:0,0:0:0:0:
492,22,72010,2,0,B|523:314|523:314|467:361,1,360,0|12,3:0|0:0,0:0:0:0:
379,381,73273,6,0,L|369:302,1,60,12|0,0:0|0:0,0:0:0:0:
396,280,73588,2,0,L|386:201,1,60,12|0,0:0|0:0,0:0:0:0:
413,179,73904,2,0,L|403:100,1,60,12|0,0:0|0:0,0:0:0:0:
400,71,74220,1,12,0:0:0:0:
303,74,74536,6,0,L|313:153,1,60,12|0,0:0|0:0,0:0:0:0:
286,175,74851,2,0,L|296:254,1,60,12|0,0:0|0:0,0:0:0:0:
269,276,75167,2,0,L|279:355,1,60,12|0,0:0|0:0,0:0:0:0:
282,384,75483,1,12,0:0:0:0:
187,366,75799,6,0,L|108:376,1,60,12|0,0:0|0:0,0:0:0:0:
92,340,76115,2,0,L|82:261,1,60,12|0,0:0|0:0,0:0:0:0:
118,245,76431,2,0,L|197:235,1,60,12|0,0:0|0:0,0:0:0:0:
210,201,76746,2,0,L|203:142,1,60,8|8,0:0|0:0,0:0:0:0:
166,108,77062,2,0,L|106:115,1,60,4|0,0:0|0:0,0:0:0:0:
69,81,77378,6,0,L|62:22,2,60,8|0|0,0:0|0:0|0:0,0:0:0:0:
0,149,78010,1,8,0:0:0:0:
0,149,78167,1,0,0:0:0:0:
0,149,78325,6,0,B|20:337|20:337|78:370|78:370|132:328|132:328|127:281,1,360,8|8,0:0|0:0,0:0:0:0:
114,197,79588,5,12,0:0:0:0:
171,64,80062,1,4,0:0:0:0:
314,46,80536,1,12,0:0:0:0:
400,161,81009,1,4,0:0:0:0:
344,294,81483,2,0,L|354:363,2,60,12|0|12,0:0|0:0|0:0,0:0:0:0:
200,312,82115,6,0,L|131:322,1,60,12|0,0:0|0:0,0:0:0:0:
110,358,82431,2,0,L|41:368,1,60,0|12,0:0|0:0,0:0:0:0:
0,284,82904,1,0,0:0:0:0:
26,243,83062,6,0,L|95:233,1,60,12|0,0:0|0:0,0:0:0:0:
116,197,83378,2,0,L|185:187,1,60,0|12,0:0|0:0,0:0:0:0:
206,151,83694,2,0,L|275:141,1,60,0|0,0:0|0:0,0:0:0:0:
304,170,84010,1,12,0:0:0:0:
343,196,84167,6,0,P|398:215|453:195,1,120,4|0,0:0|0:0,0:0:0:0:
490,163,84641,1,12,0:0:0:0:
124,45,85904,6,0,L|134:114,1,60,8|8,0:0|0:0,0:0:0:0:
169,135,86220,2,0,L|179:204,1,60,8|8,0:0|0:0,0:0:0:0:
214,225,86536,2,0,L|224:294,1,60,0|12,0:0|0:0,0:0:0:0:
229,332,86852,1,0,0:0:0:0:
256,192,87167,12,0,88352,0:0:0:0:
