osu file format v14

[General]
AudioFilename: audio.mp3
AudioLeadIn: 0
PreviewTime: 52983
Countdown: 0
SampleSet: Normal
StackLeniency: 0.7
Mode: 0
LetterboxInBreaks: 0
WidescreenStoryboard: 0

[Editor]
DistanceSpacing: 0.6
BeatDivisor: 4
GridSize: 8
TimelineZoom: 2

[Metadata]
Title:Redo
TitleUnicode:Redo
Artist:Afterglow
ArtistUnicode:Afterglow
Creator:iPhong
Version:Feruver's Special
Source:バンドリ!ガールズバンドパーティ!
Tags:isekai quartet 異世界かるてっと re zero jpop cover bang dream girls band party video game re:ゼロから始める異世界生活 suzuki konomi echidna otto garfield ryuzu puck emilia subaru felt rem kirylln silent rock drinkpeachxd notabox viet8426 mqno jval93700 superjspectrixv toki_toyosaki yukki_yumi feruver sonin bubblekid azrael_- BaAr_Vendel kyle_y blitzifyyy emiki boomcicle kadokawa collaboration
BeatmapID:1944835
BeatmapSetID:927550

[Difficulty]
HPDrainRate:5
CircleSize:4.2
OverallDifficulty:9
ApproachRate:9.4
SliderMultiplier:1.6
SliderTickRate:1

[Events]
//Background and Video events
0,0,"BG.jpg",0,0
Video,-975,"BGA.mp4"
//Break Periods
2,30525,34340
2,40631,44288
//Storyboard Layer 0 (Background)
//Storyboard Layer 1 (Fail)
//Storyboard Layer 2 (Pass)
//Storyboard Layer 3 (Foreground)
//Storyboard Layer 4 (Overlay)
//Storyboard Sound Samples

[TimingPoints]
10,315.789473684211,4,1,12,60,1,0
10,-133.333333333333,4,1,12,60,0,0
404,-133.333333333333,4,1,12,5,0,0
483,-133.333333333333,4,1,12,60,0,0
1667,-133.333333333333,4,1,12,5,0,0
1746,-133.333333333333,4,1,12,60,0,0
2931,-133.333333333333,4,1,12,5,0,0
3010,-133.333333333333,4,1,12,60,0,0
4194,-133.333333333333,4,1,12,5,0,0
4273,-133.333333333333,4,1,12,60,0,0
4588,-111.111111111111,4,1,12,60,0,0
4983,-111.111111111111,4,1,12,5,0,0
5062,-111.111111111111,4,1,12,60,0,0
6483,-100,4,1,12,60,0,0
10115,-117.647058823529,4,1,12,60,0,0
25273,-100,4,1,12,60,0,0
27483,-86.9565217391304,4,1,12,60,0,0
44852,-80,4,1,12,60,0,0
53062,-71.4285714285714,4,1,12,75,0,1
53299,-71.4285714285714,4,1,12,5,0,1
53378,-71.4285714285714,4,1,12,75,0,1
61983,-71.4285714285714,4,1,12,5,0,1
62062,-71.4285714285714,4,1,12,75,0,1
66957,-66.6666666666667,4,1,12,75,0,1
68141,-66.6666666666667,4,1,12,5,0,1
68220,-100,4,1,12,75,0,0
69957,-100,4,1,12,45,0,0
70115,-100,4,1,12,75,0,0
72010,-66.6666666666667,4,1,12,75,0,0
72325,-66.6666666666667,4,1,12,75,0,0
72404,-66.6666666666667,4,1,12,75,0,0
73194,-66.6666666666667,4,1,12,5,0,0
73273,-66.6666666666667,4,1,12,75,0,1
74536,-57.1428571428571,4,1,12,75,0,1
74588,-66.6666666666667,4,1,12,5,0,1
74694,-57.1428571428571,4,1,12,75,0,1
74904,-66.6666666666667,4,1,12,5,0,1
75010,-57.1428571428571,4,1,12,75,0,1
75220,-66.6666666666667,4,1,12,5,0,1
75325,-66.6666666666667,4,1,12,75,0,1
75483,-57.1428571428571,4,1,12,75,0,1
75536,-66.6666666666667,4,1,12,5,0,1
75641,-66.6666666666667,4,1,12,75,0,1
75852,-66.6666666666667,4,1,12,5,0,1
75957,-66.6666666666667,4,1,12,75,0,1
76167,-66.6666666666667,4,1,12,5,0,1
76273,-66.6666666666667,4,1,12,75,0,1
76483,-66.6666666666667,4,1,12,5,0,1
76588,-66.6666666666667,4,1,12,75,0,1
78325,-66.6666666666667,4,1,12,33,0,1
78641,-66.6666666666667,4,1,12,55,0,1
78799,-66.6666666666667,4,1,12,75,0,1
79588,-66.6666666666667,4,1,12,75,0,0
84641,-200,4,1,12,75,0,0
85667,-100,4,1,12,75,0,0
85746,-100,4,1,12,75,0,0
85983,-100,4,1,12,5,0,0
86062,-100,4,1,12,75,0,0
86141,-100,4,1,12,5,0,0
86220,-100,4,1,12,75,0,0
86299,-100,4,1,12,5,0,0
86378,-100,4,1,12,75,0,0
86457,-100,4,1,12,5,0,0
86536,-100,4,1,12,75,0,0
87010,-100,4,1,12,60,0,0
87562,-100,4,1,12,5,0,0
87641,-100,4,1,12,60,0,0
88588,-100,4,1,12,5,0,0
88746,-100,4,1,12,60,0,0

[Colours]
Combo1 : 128,128,192
Combo2 : 255,0,66

[HitObjects]
62,68,10,5,0,0:0:0:0:
166,130,167,2,0,L|267:116,1,90.0000034332277
289,82,483,6,0,P|310:118|300:154,1,60.0000022888184
230,288,799,1,0,0:0:0:0:
269,191,957,1,0,0:0:0:0:
255,303,1115,1,0,0:0:0:0:
243,175,1273,1,0,0:0:0:0:
205,273,1431,2,0,L|103:267,1,90.0000034332277
66,290,1746,6,0,P|62:244|70:213,1,60.0000022888184
103,39,2062,1,0,0:0:0:0:
124,135,2220,1,0,0:0:0:0:
189,73,2378,1,0,0:0:0:0:
210,169,2536,1,0,0:0:0:0:
275,107,2694,2,0,L|367:98,1,90.0000034332277
398,72,3010,6,0,P|403:122|391:140,1,60.0000022888184
347,225,3325,2,0,L|427:221,1,60.0000022888184
289,300,3641,1,0,0:0:0:0:
228,194,3799,1,0,0:0:0:0:
157,289,3957,2,0,P|119:306|64:283,1,90.0000034332277
48,274,4273,2,0,L|55:191,1,60.0000022888184
50,98,4588,6,0,L|46:78,2,17.9999994506836
135,143,4746,2,0,B|208:154|185:109|266:122,1,107.999996704102,4|0,0:0|0:0,0:0:0:0:
286,121,5062,6,0,L|281:210,1,71.9999978027344,4|0,0:0|0:0,0:0:0:0:
271,309,5378,1,0,0:0:0:0:
170,232,5536,1,0,0:0:0:0:
281,192,5694,2,0,L|368:197,1,71.9999978027344,8|0,0:0|0:0,0:0:0:0:
423,285,6010,1,0,0:0:0:0:
423,136,6167,1,8,0:0:0:0:
433,92,6246,1,8,0:0:0:0:
468,63,6325,1,8,0:0:0:0:
502,137,6483,6,0,L|495:242,1,80,8|0,0:0|0:0,0:0:0:0:
483,344,6799,1,0,0:0:0:0:
327,303,6957,2,0,P|278:295|221:304,1,80,8|0,0:0|0:0,0:0:0:0:
92,305,7273,1,8,0:0:0:0:
193,368,7431,1,8,0:0:0:0:
174,229,7588,2,0,L|164:133,1,80,4|0,0:0|0:0,0:0:0:0:
150,16,7904,1,0,0:0:0:0:
88,98,8062,1,8,0:0:0:0:
222,82,8220,6,0,P|277:83|327:93,1,80,8|0,0:0|0:0,0:0:0:0:
334,183,8536,1,0,0:0:0:0:
373,35,8694,1,8,0:0:0:0:
475,127,8852,5,12,0:0:0:0:
475,127,9010,2,0,L|472:229,1,80
471,333,9325,1,8,0:0:0:0:
361,274,9483,1,8,0:0:0:0:
287,362,9641,1,0,0:0:0:0:
238,259,9799,2,0,L|242:212,3,40,8|0|0|0,0:0|0:0|0:0|0:0,0:0:0:0:
248,170,10115,6,0,L|96:175,1,136.000002593994,4|0,0:0|0:0,0:0:0:0:
13,330,10746,2,0,L|165:325,1,136.000002593994
303,129,11378,2,0,L|151:134,1,136.000002593994
13,96,12010,5,0,0:0:0:0:
43,47,12167,1,0,0:0:0:0:
95,23,12325,1,0,0:0:0:0:
153,28,12483,1,0,0:0:0:0:
203,54,12641,6,0,P|252:82|329:80,1,136.000002593994
354,15,13273,2,0,P|399:82|358:142,1,136.000002593994
344,225,13904,2,0,L|193:213,1,136.000002593994
62,174,14378,5,0,0:0:0:0:
166,79,14536,2,0,L|154:167,1,68.0000012969971
143,296,14852,2,0,B|222:329|205:270|299:296,1,136.000002593994,0|4,0:0|0:0,0:0:0:0:
319,354,15325,6,0,P|346:315|347:285,1,68.0000012969971
357,163,15641,1,0,0:0:0:0:
440,270,15799,2,0,L|453:191,1,68.0000012969971
439,92,16115,1,0,0:0:0:0:
357,163,16273,1,0,0:0:0:0:
316,71,16431,2,0,P|280:70|244:76,1,68.0000012969971
166,152,16746,2,0,P|158:191|160:231,1,68.0000012969971
269,183,17062,2,0,B|247:226|283:264|253:314,1,102.000001945496
255,321,17378,2,0,L|170:319,1,68.0000012969971
33,303,17694,6,0,L|44:162,1,136.000002593994
54,35,18325,2,0,P|120:12|184:26,1,136.000002593994
257,83,18799,1,0,0:0:0:0:
328,143,18957,2,0,P|394:166|458:152,1,136.000002593994
384,44,19588,2,0,B|308:48|323:90|240:82,1,136.000002593994
88,84,20220,6,0,P|63:151|75:222,1,136.000002593994,4|0,0:0|0:0,0:0:0:0:
240,332,20852,2,0,P|265:265|253:194,1,136.000002593994
47,42,21483,2,0,P|22:109|34:180,1,136.000002593994
285,140,22115,6,0,P|252:133|220:142,2,68.0000012969971
442,212,22746,2,0,L|437:352,1,136.000002593994
251,338,23378,2,0,L|256:198,1,136.000002593994
507,240,24010,2,0,L|502:380,1,136.000002593994
347,184,24641,6,0,P|343:150|352:113,1,68.0000012969971
418,223,24957,2,0,P|422:257|413:294,1,68.0000012969971
317,354,25273,2,0,L|223:348,1,80,4|0,0:0|0:0,0:0:0:0:
123,331,25588,1,0,0:0:0:0:
196,239,25746,1,0,0:0:0:0:
81,226,25904,2,0,P|57:171|63:115,1,80
100,44,26220,5,0,0:0:0:0:
192,125,26378,1,0,0:0:0:0:
55,150,26536,2,0,P|24:96|16:61,2,80
174,52,27010,1,0,0:0:0:0:
274,154,27167,2,0,P|276:197|260:235,1,80
291,80,27483,5,8,0:0:0:0:
329,104,27562,1,8,0:0:0:0:
347,146,27641,1,8,0:0:0:0:
186,183,27799,5,12,0:0:0:0:
389,48,27957,1,0,0:0:0:0:
421,282,28115,1,0,0:0:0:0:
274,154,28273,5,12,0:0:0:0:
477,19,28431,1,0,0:0:0:0:
509,253,28588,1,0,0:0:0:0:
329,104,28746,6,0,P|319:55|327:3,1,92.0000017547608,12|0,0:0|0:0,0:0:0:0:
462,142,29062,1,12,0:0:0:0:
321,208,29220,1,8,0:0:0:0:
275,212,29299,1,8,0:0:0:0:
240,240,29378,1,8,0:0:0:0:
225,283,29457,1,8,0:0:0:0:
235,327,29536,1,8,0:0:0:0:
267,359,29615,1,8,0:0:0:0:
312,369,29694,2,0,L|364:358,3,46.0000008773804,8|0|0|0,0:0|0:0|0:0|0:0,0:0:0:0:
308,286,30010,6,0,B|389:264|419:349|499:321,1,184.000003509522,8|4,0:0|0:0,0:0:0:0:
181,182,34904,5,8,0:0:0:0:
284,69,35062,2,0,L|296:212,1,138.000002632141,8|0,0:0|0:0,0:0:0:0:
303,245,35378,6,0,P|357:256|405:244,1,92.0000017547608,4|0,0:0|0:0,0:0:0:0:
386,114,35694,1,8,0:0:0:0:
181,182,35852,1,8,0:0:0:0:
135,184,35931,1,8,0:0:0:0:
97,160,36010,2,0,P|98:106|105:54,1,92.0000017547608,8|0,0:0|0:0,0:0:0:0:
255,34,36325,5,8,0:0:0:0:
237,269,36483,1,0,0:0:0:0:
236,223,36562,1,0,0:0:0:0:
258,183,36641,2,0,P|296:157|352:167,1,92.0000017547608
474,254,36957,1,8,0:0:0:0:
365,225,37115,5,8,0:0:0:0:
322,242,37194,1,8,0:0:0:0:
311,283,37273,2,0,P|287:332|231:354,1,92.0000017547608,8|0,0:0|0:0,0:0:0:0:
68,338,37588,2,0,B|36:278|97:255|59:164,1,138.000002632141,8|0,0:0|0:0,0:0:0:0:
53,177,37904,2,0,P|55:126|75:81,1,92.0000017547608,4|0,0:0|0:0,0:0:0:0:
223,39,38220,5,8,0:0:0:0:
307,159,38378,1,8,0:0:0:0:
261,154,38457,1,8,0:0:0:0:
220,150,38536,2,0,L|108:141,1,92.0000017547608,8|0,0:0|0:0,0:0:0:0:
318,83,38852,2,0,P|371:117|380:168,1,92.0000017547608,8|8,0:0|0:0,0:0:0:0:
381,182,39088,1,8,0:0:0:0:
358,219,39167,5,12,0:0:0:0:
117,230,39325,1,0,0:0:0:0:
281,351,39483,5,12,0:0:0:0:
155,80,39641,1,0,0:0:0:0:
229,286,39799,5,12,0:0:0:0:
273,274,39878,1,8,0:0:0:0:
317,283,39957,1,8,0:0:0:0:
354,311,40036,1,8,0:0:0:0:
391,339,40115,1,8,0:0:0:0:
435,348,40194,1,8,0:0:0:0:
480,337,40273,2,0,L|520:305,1,46.0000008773804
427,264,40431,5,12,0:0:0:0:
130,117,44852,5,4,0:0:0:0:
199,172,45010,1,8,0:0:0:0:
217,126,45088,1,8,0:0:0:0:
210,77,45167,1,8,0:0:0:0:
179,39,45246,1,8,0:0:0:0:
132,23,45325,1,8,0:0:0:0:
84,33,45404,1,8,0:0:0:0:
48,67,45483,2,0,B|29:121|66:127|48:200,1,100,12|0,0:0|0:0,0:0:0:0:
14,297,45799,5,8,0:0:0:0:
162,267,45957,1,8,0:0:0:0:
211,260,46036,1,8,0:0:0:0:
259,270,46115,2,0,P|315:288|357:279,1,100,8|0,0:0|0:0,0:0:0:0:
440,151,46431,1,8,0:0:0:0:
310,18,46588,1,0,0:0:0:0:
310,67,46667,1,0,0:0:0:0:
312,116,46746,2,0,L|314:232,1,100
159,111,47062,5,8,0:0:0:0:
34,214,47220,1,8,0:0:0:0:
20,166,47299,1,8,0:0:0:0:
29,117,47378,2,8,P|40:62|19:14,1,100,8|0,0:0|0:0,0:0:0:0:
158,37,47694,2,0,P|214:63|235:126,1,100,8|8,0:0|0:0,0:0:0:0:
241,136,47931,1,8,0:0:0:0:
243,180,48010,2,0,P|270:220|317:237,1,100,12|0,0:0|0:0,0:0:0:0:
480,234,48325,5,8,0:0:0:0:
382,122,48483,1,8,0:0:0:0:
386,171,48562,1,8,0:0:0:0:
391,221,48641,2,0,P|382:280|345:318,1,100,8|0,0:0|0:0,0:0:0:0:
205,302,48957,1,8,0:0:0:0:
108,118,49115,5,8,0:0:0:0:
133,169,49194,1,8,0:0:0:0:
189,191,49273,5,12,0:0:0:0:
283,0,49431,1,0,0:0:0:0:
358,310,49588,5,12,0:0:0:0:
255,85,49746,1,0,0:0:0:0:
150,254,49904,1,12,0:0:0:0:
131,299,49983,1,8,0:0:0:0:
144,346,50062,1,8,0:0:0:0:
185,373,50141,1,8,0:0:0:0:
234,369,50220,1,8,0:0:0:0:
279,348,50299,1,8,0:0:0:0:
329,342,50378,1,8,0:0:0:0:
377,352,50457,1,8,0:0:0:0:
419,380,50536,5,12,0:0:0:0:
338,151,50694,1,8,0:0:0:0:
508,111,51010,5,12,0:0:0:0:
302,246,51167,1,8,0:0:0:0:
307,13,51483,5,12,0:0:0:0:
302,275,51641,1,8,0:0:0:0:
125,120,51957,5,12,0:0:0:0:
83,135,52036,1,8,0:0:0:0:
61,176,52115,1,8,0:0:0:0:
342,175,52273,1,0,0:0:0:0:
236,0,52431,5,8,0:0:0:0:
198,325,52588,1,8,0:0:0:0:
427,81,53062,6,0,B|393:149|469:168|414:280,1,167.999994873047,4|0,0:0|0:0,0:0:0:0:
410,290,53378,1,8,0:0:0:0:
234,259,53536,2,0,P|178:253|132:291,1,111.999996582031
373,354,53852,2,0,P|429:360|475:322,1,111.999996582031,0|8,0:0|0:0,0:0:0:0:
341,174,54167,2,0,B|254:116|199:205|112:116,1,223.999993164063,4|0,0:0|0:0,0:0:0:0:
72,6,54641,1,8,0:0:0:0:
196,88,54799,2,0,P|202:156|133:192,1,111.999996582031
126,60,55115,2,0,P|167:23|239:30,1,111.999996582031,0|8,0:0|0:0,0:0:0:0:
329,72,55431,5,8,0:0:0:0:
364,118,55510,1,8,0:0:0:0:
374,171,55588,1,12,0:0:0:0:
223,229,55746,1,0,0:0:0:0:
252,98,55904,1,8,0:0:0:0:
327,275,56062,1,0,0:0:0:0:
170,158,56220,1,0,0:0:0:0:
405,142,56378,1,0,0:0:0:0:
214,328,56536,1,8,0:0:0:0:
159,81,56694,1,0,0:0:0:0:
415,239,56852,5,0,0:0:0:0:
148,370,57010,2,0,P|117:315|126:239,1,111.999996582031,0|4,0:0|0:0,0:0:0:0:
159,81,57325,1,8,0:0:0:0:
354,125,57483,1,8,0:0:0:0:
405,143,57562,1,8,0:0:0:0:
451,115,57641,1,8,0:0:0:0:
460,62,57720,1,8,0:0:0:0:
425,20,57799,1,8,0:0:0:0:
371,21,57878,1,8,0:0:0:0:
320,44,57957,1,8,0:0:0:0:
265,43,58036,1,8,0:0:0:0:
214,20,58115,2,0,P|156:6|80:33,1,111.999996582031,4|0,0:0|0:0,0:0:0:0:
16,177,58431,5,8,0:0:0:0:
176,149,58588,1,8,0:0:0:0:
231,143,58667,1,8,0:0:0:0:
283,162,58746,2,0,P|341:191|402:190,1,111.999996582031,8|0,0:0|0:0,0:0:0:0:
458,56,59062,1,8,0:0:0:0:
471,291,59220,2,0,P|432:349|331:273,1,223.999993164063,4|0,0:0|0:0,0:0:0:0:
352,116,59694,5,8,0:0:0:0:
225,276,59852,1,8,0:0:0:0:
170,285,59931,1,8,0:0:0:0:
114,283,60010,2,0,P|63:253|44:193,1,111.999996582031,8|0,0:0|0:0,0:0:0:0:
75,65,60325,1,8,0:0:0:0:
125,199,60483,2,0,L|245:200,1,111.999996582031,4|0,0:0|0:0,0:0:0:0:
365,190,60799,1,4,0:0:0:0:
262,54,60957,5,8,0:0:0:0:
219,20,61036,1,8,0:0:0:0:
168,35,61115,1,8,0:0:0:0:
151,87,61194,1,8,0:0:0:0:
184,129,61273,1,8,0:0:0:0:
243,129,61352,1,8,0:0:0:0:
289,98,61431,1,8,0:0:0:0:
343,85,61510,1,8,0:0:0:0:
399,92,61588,1,8,0:0:0:0:
448,117,61667,1,8,0:0:0:0:
486,158,61746,2,0,B|558:240|473:316,1,167.999994873047,12|0,0:0|0:0,0:0:0:0:
455,333,62062,6,0,L|379:351,1,55.9999982910157,8|0,0:0|0:0,0:0:0:0:
256,283,62220,2,0,L|332:301,1,55.9999982910157,8|0,0:0|0:0,0:0:0:0:
448,233,62378,2,0,L|407:185,1,55.9999982910157,8|0,0:0|0:0,0:0:0:0:
305,55,62536,1,8,0:0:0:0:
177,187,62694,5,8,0:0:0:0:
154,237,62773,1,8,0:0:0:0:
156,293,62852,1,8,0:0:0:0:
182,342,62931,1,8,0:0:0:0:
227,374,63010,1,8,0:0:0:0:
282,384,63088,1,8,0:0:0:0:
332,380,63167,5,12,0:0:0:0:
328,187,63325,1,0,0:0:0:0:
409,332,63483,5,8,0:0:0:0:
317,154,63641,1,0,0:0:0:0:
474,279,63799,5,8,0:0:0:0:
306,122,63957,1,0,0:0:0:0:
506,200,64115,5,8,0:0:0:0:
296,90,64273,1,0,0:0:0:0:
239,316,64431,5,12,0:0:0:0:
317,154,64588,1,0,0:0:0:0:
151,236,64746,5,8,0:0:0:0:
327,121,64904,1,0,0:0:0:0:
100,139,65062,5,8,0:0:0:0:
338,89,65220,1,0,0:0:0:0:
103,34,65378,5,8,0:0:0:0:
348,57,65536,1,0,0:0:0:0:
159,242,65694,5,12,0:0:0:0:
240,17,65852,1,0,0:0:0:0:
288,257,66010,5,8,0:0:0:0:
171,53,66167,1,0,0:0:0:0:
100,294,66325,5,8,0:0:0:0:
247,90,66483,1,0,0:0:0:0:
309,348,66641,5,8,0:0:0:0:
109,156,66799,1,0,0:0:0:0:
29,335,66957,5,8,0:0:0:0:
98,369,67036,1,8,0:0:0:0:
166,333,67115,1,8,0:0:0:0:
176,256,67194,1,8,0:0:0:0:
186,179,67273,1,8,0:0:0:0:
254,143,67352,1,8,0:0:0:0:
323,178,67431,2,0,P|377:215|449:91,1,240.000009155274,12|0,0:0|0:0,0:0:0:0:
383,99,67825,5,0,0:0:0:0:
394,143,67904,2,0,P|392:216|276:239,1,180.000006866455,12|0,0:0|0:0,0:0:0:0:
264,233,68220,5,0,0:0:0:0:
135,295,68378,1,0,0:0:0:0:
249,384,68536,1,8,0:0:0:0:
131,221,68852,6,0,P|67:260|100:357,1,160,12|0,0:0|0:0,0:0:0:0:
432,280,69483,5,0,0:0:0:0:
333,131,69641,1,8,0:0:0:0:
248,274,69799,2,0,P|254:331|282:366,1,80
312,237,70115,2,0,P|264:202|177:251,1,160,12|0,0:0|0:0,0:0:0:0:
76,356,70588,5,8,0:0:0:0:
76,356,70667,1,8,0:0:0:0:
76,356,70746,1,8,0:0:0:0:
19,238,70904,1,8,0:0:0:0:
107,173,71062,2,0,L|104:75,1,80
187,22,71378,2,0,B|257:-4|288:58|370:18,1,160,12|0,0:0|0:0,0:0:0:0:
468,15,71852,1,8,0:0:0:0:
344,129,72010,5,0,3:0:0:0:
312,185,72088,1,0,3:0:0:0:
331,247,72167,1,0,3:0:0:0:
390,276,72246,1,0,3:0:0:0:
450,253,72325,1,12,0:0:0:0:
496,203,72404,5,8,3:0:0:0:
435,180,72483,1,8,3:0:0:0:
372,196,72562,1,8,3:0:0:0:
331,247,72641,1,8,3:0:0:0:
289,297,72720,1,8,3:0:0:0:
226,313,72799,1,8,3:0:0:0:
165,289,72878,1,8,3:0:0:0:
112,249,72957,2,0,P|90:186|142:89,1,180.000006866455,12|0,0:0|0:0,0:0:0:0:
183,78,73273,5,12,0:0:0:0:
226,313,73431,1,0,0:0:0:0:
320,26,73588,5,12,0:0:0:0:
176,178,73746,1,0,0:0:0:0:
157,5,73904,5,12,0:0:0:0:
331,247,74062,1,0,0:0:0:0:
259,73,74220,5,12,0:0:0:0:
166,291,74378,1,0,0:0:0:0:
418,357,74536,6,0,L|344:339,1,46.6666671117147,12|0,0:0|0:0,0:0:0:0:
117,277,74694,1,0,0:0:0:0:
210,23,74852,6,0,L|192:97,1,46.6666671117147,12|0,0:0|0:0,0:0:0:0:
130,327,75010,1,0,0:0:0:0:
117,21,75167,6,0,L|191:39,1,46.6666671117147,12|0,0:0|0:0,0:0:0:0:
418,101,75325,1,0,0:0:0:0:
325,355,75483,6,0,L|343:281,1,46.6666671117147,12|0,0:0|0:0,0:0:0:0:
405,54,75641,1,0,0:0:0:0:
82,191,75799,6,0,L|131:196,1,40.000001525879,12|0,0:0|0:0,0:0:0:0:
455,226,75957,1,0,0:0:0:0:
228,22,76115,6,0,L|248:97,1,40.000001525879,12|0,0:0|0:0,0:0:0:0:
325,355,76273,1,0,0:0:0:0:
430,147,76431,6,0,L|386:167,1,40.000001525879,12|0,0:0|0:0,0:0:0:0:
73,288,76588,1,0,0:0:0:0:
185,134,76746,5,8,0:0:0:0:
241,122,76825,1,8,0:0:0:0:
286,160,76904,1,8,0:0:0:0:
284,218,76983,1,8,0:0:0:0:
226,190,77062,2,0,L|260:72,1,120.000004577637,4|0,0:0|0:0,0:0:0:0:
395,189,77378,6,0,P|330:220|279:216,1,120.000004577637,8|0,0:0|0:0,0:0:0:0:
161,36,77694,6,0,P|220:74|242:121,1,120.000004577637
148,320,78010,6,0,P|150:247|181:206,1,120.000004577637,8|0,0:0|0:0,0:0:0:0:
297,334,78325,5,8,0:0:0:0:
343,367,78404,1,8,0:0:0:0:
401,364,78483,1,8,0:0:0:0:
446,325,78562,1,8,0:0:0:0:
470,271,78641,1,8,0:0:0:0:
446,218,78720,1,8,0:0:0:0:
403,194,78799,1,8,0:0:0:0:
356,166,78878,1,8,0:0:0:0:
332,113,78957,1,8,0:0:0:0:
356,59,79036,1,8,0:0:0:0:
408,32,79115,1,8,0:0:0:0:
466,44,79194,1,8,0:0:0:0:
447,100,79273,1,8,0:0:0:0:
399,134,79352,1,8,0:0:0:0:
340,133,79431,1,8,0:0:0:0:
293,97,79510,1,8,0:0:0:0:
254,65,79588,5,12,0:0:0:0:
44,43,79746,2,0,L|45:182,1,120.000004577637
168,122,80062,5,4,0:0:0:0:
0,168,80220,2,0,L|55:295,1,120.000004577637
195,341,80536,5,12,0:0:0:0:
368,346,80694,2,0,L|352:207,1,120.000004577637
236,280,81010,5,4,0:0:0:0:
398,217,81167,2,0,L|329:95,1,120.000004577637
203,28,81483,6,0,P|131:15|69:45,1,120.000004577637,12|0,0:0|0:0,0:0:0:0:
38,252,81799,2,0,P|110:265|172:235,1,120.000004577637,12|0,0:0|0:0,0:0:0:0:
307,99,82115,5,12,0:0:0:0:
462,36,82273,1,0,0:0:0:0:
439,202,82431,1,0,0:0:0:0:
326,52,82588,5,12,0:0:0:0:
492,75,82746,1,0,0:0:0:0:
389,208,82904,1,0,0:0:0:0:
366,22,83062,5,12,0:0:0:0:
498,125,83220,1,0,0:0:0:0:
343,188,83378,1,0,0:0:0:0:
415,16,83535,5,12,0:0:0:0:
479,171,83693,1,0,0:0:0:0:
312,148,83851,1,0,0:0:0:0:
402,113,84010,5,12,0:0:0:0:
396,347,84167,1,4,0:0:0:0:
226,138,84641,6,0,P|152:114|163:256,1,280,12|8,0:0|0:0,0:0:0:0:
187,269,85825,1,8,0:0:0:0:
214,300,85904,6,0,L|230:247,1,40,8|0,0:0|0:0,0:0:0:0:
364,282,86062,2,0,L|353:222,1,40,8|0,0:0|0:0,0:0:0:0:
170,182,86220,2,0,L|179:120,1,40,8|0,0:0|0:0,0:0:0:0:
362,110,86378,2,0,L|353:48,1,40,8|0,0:0|0:0,0:0:0:0:
174,5,86536,5,0,0:0:0:0:
305,176,86694,1,12,0:0:0:0:
490,54,87010,5,0,0:0:0:0:
397,89,87167,1,0,0:0:0:0:
424,175,87325,2,0,P|393:243|335:241,1,120
318,239,87641,6,0,P|263:236|230:253,1,80
211,352,87957,1,0,0:0:0:0:
138,242,88115,1,0,0:0:0:0:
40,312,88273,1,0,0:0:0:0:
35,268,88352,2,0,B|37:222|15:218|15:218|36:214|29:190|58:189|54:166|76:165|76:165|54:156|54:111,1,200
