osu file format v14

[General]
AudioFilename: audio.mp3
AudioLeadIn: 0
PreviewTime: 52983
Countdown: 0
SampleSet: Normal
StackLeniency: 0.7
Mode: 0
LetterboxInBreaks: 0
WidescreenStoryboard: 0

[Editor]
DistanceSpacing: 0.6
BeatDivisor: 4
GridSize: 16
TimelineZoom: 2

[Metadata]
Title:Redo
TitleUnicode:Redo
Artist:Afterglow
ArtistUnicode:Afterglow
Creator:iPhong
Version:Extra
Source:バンドリ!ガールズバンドパーティ!
Tags:isekai quartet 異世界かるてっと re zero jpop cover bang dream girls band party video game re:ゼロから始める異世界生活 suzuki konomi echidna otto garfield ryuzu puck emilia subaru felt rem kirylln silent rock drinkpeachxd notabox viet8426 mqno jval93700 superjspectrixv toki_toyosaki yukki_yumi feruver sonin bubblekid azrael_- BaAr_Vendel kyle_y blitzifyyy emiki boomcicle kadokawa collaboration
BeatmapID:1937305
BeatmapSetID:927550

[Difficulty]
HPDrainRate:5
CircleSize:3
OverallDifficulty:8
ApproachRate:9
SliderMultiplier:1.2
SliderTickRate:1

[Events]
//Background and Video events
0,0,"BG.jpg",0,0
Video,-975,"BGA.mp4"
//Break Periods
2,30525,34144
2,40631,44092
//Storyboard Layer 0 (Background)
//Storyboard Layer 1 (Fail)
//Storyboard Layer 2 (Pass)
//Storyboard Layer 3 (Foreground)
//Storyboard Layer 4 (Overlay)
//Storyboard Sound Samples

[TimingPoints]
10,315.789473684211,4,1,12,60,1,0
10,-83.3333333333333,4,1,12,60,0,0
404,-100,4,1,12,5,0,0
483,-100,4,1,12,60,0,0
1273,-83.3333333333333,4,1,12,60,0,0
1667,-83.3333333333333,4,1,12,5,0,0
1746,-100,4,1,12,60,0,0
2536,-83.3333333333333,4,1,12,60,0,0
2931,-83.3333333333333,4,1,12,5,0,0
3010,-100,4,1,12,60,0,0
3799,-83.3333333333333,4,1,12,60,0,0
4194,-83.3333333333333,4,1,12,5,0,0
4273,-100,4,1,12,60,0,0
4746,-83.3333333333333,4,1,12,60,0,0
4983,-83.3333333333333,4,1,12,5,0,0
5062,-83.3333333333333,4,1,12,60,0,0
10115,-100,4,1,12,60,0,0
29062,-83.3333333333333,4,1,12,60,0,0
35378,-100,4,1,12,60,0,0
48010,-83.3333333333333,4,1,12,60,0,0
53062,-66.6666666666667,4,1,12,75,0,1
53299,-66.6666666666667,4,1,12,5,0,1
53378,-66.6666666666667,4,1,12,75,0,1
61746,-66.6666666666667,4,1,12,75,0,0
61983,-66.6666666666667,4,1,12,5,0,0
62062,-66.6666666666667,4,1,12,75,0,0
63167,-66.6666666666667,4,1,12,75,0,1
68141,-66.6666666666667,4,1,12,5,0,1
68220,-100,4,1,12,75,0,0
69957,-100,4,1,12,45,0,0
70115,-100,4,1,12,75,0,0
73194,-100,4,1,12,5,0,0
73273,-66.6666666666667,4,1,12,75,0,1
74588,-66.6666666666667,4,1,12,5,0,1
74694,-66.6666666666667,4,1,12,75,0,1
74904,-66.6666666666667,4,1,12,5,0,1
75010,-66.6666666666667,4,1,12,75,0,1
75220,-66.6666666666667,4,1,12,5,0,1
75325,-66.6666666666667,4,1,12,75,0,1
75536,-66.6666666666667,4,1,12,5,0,1
75641,-66.6666666666667,4,1,12,75,0,1
75852,-66.6666666666667,4,1,12,5,0,1
75957,-66.6666666666667,4,1,12,75,0,1
76167,-66.6666666666667,4,1,12,5,0,1
76273,-66.6666666666667,4,1,12,75,0,1
76483,-66.6666666666667,4,1,12,5,0,1
76588,-66.6666666666667,4,1,12,75,0,1
78325,-66.6666666666667,4,1,12,33,0,0
78641,-66.6666666666667,4,1,12,55,0,0
78799,-66.6666666666667,4,1,12,75,0,0
79588,-66.6666666666667,4,1,12,75,0,1
84010,-100,4,1,12,75,0,1
84641,-100,4,1,12,75,0,0
85983,-100,4,1,12,5,0,0
86062,-100,4,1,12,75,0,0
86141,-100,4,1,12,5,0,0
86220,-100,4,1,12,75,0,0
86299,-100,4,1,12,5,0,0
86378,-100,4,1,12,75,0,0
86457,-100,4,1,12,5,0,0
86536,-100,4,1,12,75,0,0
87010,-100,4,1,12,60,0,0
87167,-100,4,1,12,60,0,0
87562,-100,4,1,12,5,0,0
87641,-100,4,1,12,60,0,0
88588,-100,4,1,12,5,0,0
88746,-100,4,1,12,60,0,0

[Colours]
Combo1 : 128,128,192
Combo2 : 255,0,66

[HitObjects]
457,83,10,6,0,L|432:159,1,71.9999978027344,0|0,0:0|0:0,0:0:0:0:
309,220,483,2,0,L|331:152,1,60,0|0,0:0|0:0,0:0:0:0:
268,78,799,1,0,0:0:0:0:
166,88,957,1,0,0:0:0:0:
123,181,1115,1,0,0:0:0:0:
182,264,1273,6,0,L|232:328,1,71.9999978027344,0|0,0:0|0:0,0:0:0:0:
91,318,1746,2,0,L|41:253,1,60,0|0,0:0|0:0,0:0:0:0:
123,181,2062,1,0,0:0:0:0:
47,101,2220,1,0,0:0:0:0:
123,21,2378,1,0,0:0:0:0:
199,101,2536,6,0,L|295:101,1,71.9999978027344,0|0,0:0|0:0,0:0:0:0:
352,199,3010,2,0,L|266:199,1,60,0|0,0:0|0:0,0:0:0:0:
379,102,3325,1,0,0:0:0:0:
449,173,3483,1,0,0:0:0:0:
422,269,3641,1,0,0:0:0:0:
325,293,3799,6,0,L|238:293,1,71.9999978027344,0|0,0:0|0:0,0:0:0:0:
185,198,4273,2,0,L|264:198,1,60,0|0,0:0|0:0,0:0:0:0:
130,290,4588,1,0,0:0:0:0:
130,290,4746,2,0,L|48:290,1,71.9999978027344,4|0,0:0|0:0,0:0:0:0:
16,199,5062,6,0,L|16:119,2,71.9999978027344,4|0|0,0:0|0:0|0:0,0:0:0:0:
108,133,5536,1,0,0:0:0:0:
200,199,5694,2,0,P|256:209|293:193,1,71.9999978027344,8|0,0:0|0:0,0:0:0:0:
331,114,6010,2,0,P|272:105|238:120,1,71.9999978027344,0|8,0:0|0:0,0:0:0:0:
419,45,6325,5,8,0:0:0:0:
419,45,6483,2,0,L|453:129,1,71.9999978027344,8|0,0:0|0:0,0:0:0:0:
374,208,6799,1,0,0:0:0:0:
374,208,6957,2,0,L|340:124,2,71.9999978027344,8|0|8,0:0|0:0|0:0,0:0:0:0:
488,260,7431,1,8,0:0:0:0:
408,351,7588,5,4,0:0:0:0:
408,351,7746,2,0,L|308:351,1,71.9999978027344,0|0,0:0|0:0,0:0:0:0:
255,277,8062,1,8,0:0:0:0:
164,337,8220,2,0,P|120:348|83:332,1,71.9999978027344,8|0,0:0|0:0,0:0:0:0:
42,247,8536,2,0,P|86:236|123:252,1,71.9999978027344,0|8,0:0|0:0,0:0:0:0:
166,151,8852,5,12,0:0:0:0:
166,151,9010,2,0,L|209:72,1,71.9999978027344,0|0,0:0|0:0,0:0:0:0:
326,60,9325,1,8,0:0:0:0:
326,60,9483,2,0,L|283:139,2,71.9999978027344,8|0|8,0:0|0:0|0:0,0:0:0:0:
412,138,9957,1,0,0:0:0:0:
371,237,10115,6,0,P|372:277|423:342,1,120,4|0,0:0|0:0,0:0:0:0:
486,243,10588,1,0,0:0:0:0:
486,243,10746,2,0,P|485:203|434:138,1,120,0|0,0:0|0:0,0:0:0:0:
371,237,11220,1,0,0:0:0:0:
371,237,11378,2,0,P|331:238|266:289,1,120,0|0,0:0|0:0,0:0:0:0:
367,352,11852,1,0,0:0:0:0:
234,115,12010,5,0,0:0:0:0:
326,68,12167,1,0,0:0:0:0:
50,115,12325,1,0,0:0:0:0:
142,68,12483,1,0,0:0:0:0:
141,237,12641,6,0,P|140:277|89:342,1,120,0|0,0:0|0:0,0:0:0:0:
26,243,13115,1,0,0:0:0:0:
26,243,13273,2,0,P|27:203|78:138,1,120,0|0,0:0|0:0,0:0:0:0:
141,237,13746,1,0,0:0:0:0:
141,237,13904,2,0,P|181:238|246:289,1,120,0|0,0:0|0:0,0:0:0:0:
328,216,14378,1,0,0:0:0:0:
398,346,14536,1,0,0:0:0:0:
447,244,14694,1,0,0:0:0:0:
218,323,14852,2,0,P|160:325|106:284,1,120,0|4,0:0|0:0,0:0:0:0:
75,227,15325,5,0,0:0:0:0:
149,57,15483,1,0,0:0:0:0:
188,171,15641,1,0,0:0:0:0:
75,126,15799,2,0,L|10:102,1,60,0|0,0:0|0:0,0:0:0:0:
262,102,16115,5,0,0:0:0:0:
366,282,16273,1,0,0:0:0:0:
361,132,16431,1,0,0:0:0:0:
257,312,16588,1,0,0:0:0:0:
426,205,16746,1,0,0:0:0:0:
219,187,16904,1,0,0:0:0:0:
426,205,17062,2,0,L|477:266,1,60,0|0,0:0|0:0,0:0:0:0:
219,187,17378,2,0,L|168:248,1,60,0|0,0:0|0:0,0:0:0:0:
218,84,17694,6,0,P|163:38|93:45,1,120,0|0,0:0|0:0,0:0:0:0:
325,175,18167,1,0,0:0:0:0:
325,175,18325,2,0,P|380:129|450:136,1,120,0|0,0:0|0:0,0:0:0:0:
222,263,18799,1,0,0:0:0:0:
222,263,18957,2,0,P|167:217|97:224,1,120,0|0,0:0|0:0,0:0:0:0:
329,351,19431,1,0,0:0:0:0:
329,351,19588,2,0,P|384:305|454:312,1,120,0|0,0:0|0:0,0:0:0:0:
371,147,20220,6,0,P|372:107|423:42,1,120,4|0,0:0|0:0,0:0:0:0:
486,141,20694,1,0,0:0:0:0:
486,141,20852,2,0,P|485:181|434:246,1,120,0|0,0:0|0:0,0:0:0:0:
371,147,21325,1,0,0:0:0:0:
371,147,21483,2,0,P|331:146|266:95,1,120,0|0,0:0|0:0,0:0:0:0:
367,32,21957,1,0,0:0:0:0:
234,269,22115,5,0,0:0:0:0:
326,316,22273,1,0,0:0:0:0:
50,269,22431,1,0,0:0:0:0:
142,316,22588,1,0,0:0:0:0:
141,147,22746,6,0,P|140:107|89:42,1,120,0|0,0:0|0:0,0:0:0:0:
26,141,23220,1,0,0:0:0:0:
26,141,23378,2,0,P|27:181|78:246,1,120,0|0,0:0|0:0,0:0:0:0:
141,147,23852,1,0,0:0:0:0:
141,147,24010,2,0,P|181:146|246:95,1,120,0|0,0:0|0:0,0:0:0:0:
328,168,24483,1,0,0:0:0:0:
398,38,24641,1,0,0:0:0:0:
447,140,24799,1,0,0:0:0:0:
218,61,24957,6,0,P|160:59|106:100,1,120,0|4,0:0|0:0,0:0:0:0:
75,157,25431,5,0,0:0:0:0:
149,327,25588,1,0,0:0:0:0:
188,213,25746,1,0,0:0:0:0:
75,258,25904,2,0,L|10:282,1,60,0|0,0:0|0:0,0:0:0:0:
262,282,26220,5,0,0:0:0:0:
366,102,26378,1,0,0:0:0:0:
361,252,26536,1,0,0:0:0:0:
257,72,26694,1,0,0:0:0:0:
426,179,26852,1,0,0:0:0:0:
219,197,27010,1,0,0:0:0:0:
426,179,27167,2,0,L|477:118,1,60,0|0,0:0|0:0,0:0:0:0:
219,197,27483,2,0,L|168:136,1,60,8|8,0:0|0:0,0:0:0:0:
328,277,27799,5,12,0:0:0:0:
175,326,27957,1,0,0:0:0:0:
22,277,28115,5,0,0:0:0:0:
175,326,28273,1,12,0:0:0:0:
328,277,28431,1,0,0:0:0:0:
481,326,28588,5,0,0:0:0:0:
328,277,28746,1,12,0:0:0:0:
294,120,28904,1,0,0:0:0:0:
414,13,29062,6,0,L|427:104,1,71.9999978027344,12|8,0:0|0:0,0:0:0:0:
180,241,29378,2,0,L|167:150,1,71.9999978027344,8|8,0:0|0:0,0:0:0:0:
442,268,29694,2,0,L|455:363,2,71.9999978027344,8|0|8,0:0|0:0|0:0,0:0:0:0:
146,41,30325,1,4,0:0:0:0:
384,73,34904,6,0,L|403:160,1,71.9999978027344,8|8,0:0|0:0,0:0:0:0:
394,317,35378,5,4,0:0:0:0:
394,317,35536,1,0,0:0:0:0:
394,317,35694,2,0,P|347:318|315:300,1,60,8|8,0:0|0:0,0:0:0:0:
274,205,36010,2,0,P|321:204|353:222,1,60,8|0,0:0|0:0,0:0:0:0:
214,290,36325,1,8,0:0:0:0:
214,290,36483,6,0,L|170:346,1,60,0|0,0:0|0:0,0:0:0:0:
123,234,36799,2,0,L|175:170,1,60,0|8,0:0|0:0,0:0:0:0:
4,221,37115,1,8,0:0:0:0:
34,108,37273,1,8,0:0:0:0:
146,77,37431,2,0,P|181:104|262:90,1,120,0|0,0:0|0:0,0:0:0:0:
345,39,37904,5,4,0:0:0:0:
345,39,38062,1,0,0:0:0:0:
345,39,38220,2,0,P|378:72|387:101,1,60,8|8,0:0|0:0,0:0:0:0:
511,105,38536,1,8,0:0:0:0:
511,105,38694,1,0,0:0:0:0:
511,105,38852,2,0,P|478:72|469:43,1,60,8|8,0:0|0:0,0:0:0:0:
442,191,39167,5,12,0:0:0:0:
259,303,39325,1,0,0:0:0:0:
370,303,39483,5,12,0:0:0:0:
187,191,39641,1,0,0:0:0:0:
297,190,39799,5,12,0:0:0:0:
114,302,39957,1,8,0:0:0:0:
225,302,40115,5,8,0:0:0:0:
42,190,40273,1,0,0:0:0:0:
225,78,40431,5,12,0:0:0:0:
337,250,44852,6,0,L|297:250,3,30,4|0|8|8,0:0|0:0|0:0|0:0,0:0:0:0:
253,337,45167,2,0,L|213:337,3,30,8|8|8|8,0:0|0:0|0:0|0:0,0:0:0:0:
140,252,45483,5,12,0:0:0:0:
140,252,45641,1,0,0:0:0:0:
140,252,45799,2,0,P|174:216|177:189,1,60,8|8,0:0|0:0,0:0:0:0:
121,102,46115,2,0,P|87:138|84:165,1,60,8|0,0:0|0:0,0:0:0:0:
234,113,46431,5,8,0:0:0:0:
234,113,46588,2,0,L|265:30,1,60,0|0,0:0|0:0,0:0:0:0:
340,127,46904,1,0,0:0:0:0:
340,127,47062,2,0,L|314:197,1,60,8|8,0:0|0:0,0:0:0:0:
380,266,47378,1,8,0:0:0:0:
304,343,47536,5,0,0:0:0:0:
199,315,47694,1,8,0:0:0:0:
170,210,47852,1,8,0:0:0:0:
141,105,48010,6,0,L|120:17,1,71.9999978027344,12|0,0:0|0:0,0:0:0:0:
340,127,48325,2,0,L|365:214,1,71.9999978027344,8|8,0:0|0:0,0:0:0:0:
199,315,48641,6,0,L|173:229,1,71.9999978027344,8|0,0:0|0:0,0:0:0:0:
383,348,48957,5,8,0:0:0:0:
495,270,49115,1,8,0:0:0:0:
495,270,49194,1,8,0:0:0:0:
495,270,49273,1,12,0:0:0:0:
272,204,49431,1,0,0:0:0:0:
272,204,49588,2,0,L|204:255,1,71.9999978027344,12|0,0:0|0:0,0:0:0:0:
74,246,49904,1,12,0:0:0:0:
65,122,50062,5,8,0:0:0:0:
97,106,50141,1,8,0:0:0:0:
132,101,50220,1,8,0:0:0:0:
168,106,50299,1,8,0:0:0:0:
200,122,50378,1,8,0:0:0:0:
287,43,50536,5,12,0:0:0:0:
287,43,50694,1,8,0:0:0:0:
376,231,51010,5,12,0:0:0:0:
376,231,51167,1,8,0:0:0:0:
220,270,51483,5,12,0:0:0:0:
220,270,51641,1,8,0:0:0:0:
402,97,51957,5,12,0:0:0:0:
402,97,52115,1,8,0:0:0:0:
472,348,52431,5,8,0:0:0:0:
472,348,52588,1,8,0:0:0:0:
104,327,53062,6,0,L|87:232,1,90.0000034332277,4|0,0:0|0:0,0:0:0:0:
166,156,53378,1,8,0:0:0:0:
166,156,53536,2,0,P|204:189|254:189,1,90.0000034332277,0|0,0:0|0:0,0:0:0:0:
346,128,53852,2,0,P|308:95|258:95,1,90.0000034332277,0|8,0:0|0:0,0:0:0:0:
317,308,54167,2,0,P|350:270|350:220,1,90.0000034332277,4|0,0:0|0:0,0:0:0:0:
214,55,54483,2,0,P|181:93|181:143,1,90.0000034332277,0|8,0:0|0:0,0:0:0:0:
222,262,54799,2,0,L|285:171,1,90.0000034332277,0|0,0:0|0:0,0:0:0:0:
134,219,55115,2,0,P|84:267|3:176,1,180.000006866455,0|8,0:0|0:0,0:0:0:0:
29,101,55588,5,12,0:0:0:0:
119,46,55746,1,0,0:0:0:0:
211,96,55904,1,8,0:0:0:0:
303,46,56062,1,0,0:0:0:0:
395,96,56220,6,0,L|477:43,2,90.0000034332277,0|0|8,0:0|0:0|0:0,0:0:0:0:
303,146,56694,1,0,0:0:0:0:
477,232,56852,1,0,0:0:0:0:
302,318,57010,2,0,L|254:240,2,90.0000034332277,0|4|8,0:0|0:0|0:0,0:0:0:0:
374,228,57483,5,8,0:0:0:0:
393,200,57562,1,8,0:0:0:0:
402,168,57641,1,8,0:0:0:0:
400,134,57720,1,8,0:0:0:0:
387,103,57799,2,0,L|358:59,2,45.0000017166138,8|8|8,0:0|0:0|0:0,0:0:0:0:
303,146,58115,6,0,P|240:154|202:141,1,90.0000034332277,4|0,0:0|0:0,0:0:0:0:
147,58,58431,2,0,P|210:50|248:63,1,90.0000034332277,8|8,0:0|0:0,0:0:0:0:
107,152,58746,2,0,L|57:227,1,90.0000034332277,8|0,0:0|0:0,0:0:0:0:
159,252,59062,1,8,0:0:0:0:
159,252,59220,2,0,P|290:306|401:245,1,270.000010299683,4|8,0:0|0:0,0:0:0:0:
268,199,59852,1,8,0:0:0:0:
268,199,60010,2,0,P|149:143|70:170,1,180.000006866455,8|8,0:0|0:0,0:0:0:0:
35,319,60483,1,4,0:0:0:0:
35,319,60799,6,0,L|80:319,1,45.0000017166138,4|0,0:0|0:0,0:0:0:0:
162,221,60957,2,0,L|117:221,1,45.0000017166138,8|8,0:0|0:0,0:0:0:0:
199,319,61115,2,0,L|244:319,1,45.0000017166138,8|8,0:0|0:0,0:0:0:0:
326,221,61273,2,0,L|281:221,1,45.0000017166138,8|8,0:0|0:0,0:0:0:0:
363,319,61431,2,0,L|408:319,1,45.0000017166138,8|8,0:0|0:0,0:0:0:0:
490,221,61588,2,0,L|445:221,1,45.0000017166138,8|8,0:0|0:0,0:0:0:0:
512,319,61746,1,12,0:0:0:0:
413,115,62062,5,8,0:0:0:0:
413,70,62141,1,0,0:0:0:0:
413,25,62220,1,8,0:0:0:0:
254,231,62378,5,8,0:0:0:0:
254,186,62457,1,0,0:0:0:0:
254,141,62536,1,8,0:0:0:0:
95,347,62694,5,8,0:0:0:0:
95,302,62773,1,8,0:0:0:0:
95,257,62852,1,8,0:0:0:0:
95,212,62931,1,8,0:0:0:0:
95,167,63010,1,8,0:0:0:0:
95,121,63088,1,8,0:0:0:0:
95,77,63167,5,12,0:0:0:0:
194,226,63325,1,0,0:0:0:0:
284,39,63483,5,8,0:0:0:0:
295,217,63641,1,0,0:0:0:0:
475,66,63799,5,8,0:0:0:0:
395,225,63957,1,0,0:0:0:0:
396,132,64115,5,8,0:0:0:0:
476,291,64273,2,0,L|514:374,1,90.0000034332277,0|12,0:0|0:0,0:0:0:0:
252,293,64588,2,0,L|211:376,1,90.0000034332277,0|8,0:0|0:0,0:0:0:0:
379,336,64904,2,0,L|343:251,1,90.0000034332277,0|8,0:0|0:0,0:0:0:0:
112,331,65220,2,0,P|131:246|80:172,1,180.000006866455,0|0,0:0|0:0,0:0:0:0:
34,263,65694,5,12,0:0:0:0:
203,141,65852,1,0,0:0:0:0:
371,263,66010,1,8,0:0:0:0:
62,128,66167,1,0,0:0:0:0:
271,225,66325,5,8,0:0:0:0:
135,225,66483,1,0,0:0:0:0:
371,162,66641,5,8,0:0:0:0:
102,297,66799,1,0,0:0:0:0:
256,87,66957,2,0,L|255:25,4,45.0000017166138,8|8|8|8|8,0:0|0:0|0:0|0:0|0:0,0:0:0:0:
371,263,67431,2,0,L|371:356,1,90.0000034332277,12|0,0:0|0:0,0:0:0:0:
474,149,67746,1,0,0:0:0:0:
474,149,67825,1,0,0:0:0:0:
474,149,67904,2,0,L|474:35,1,90.0000034332277,12|0,0:0|0:0,0:0:0:0:
372,102,68220,5,0,0:0:0:0:
289,36,68378,1,0,0:0:0:0:
203,112,68536,2,0,L|153:71,1,60,8|0,0:0|0:0,0:0:0:0:
60,100,68852,2,0,L|14:151,1,60,12|0,0:0|0:0,0:0:0:0:
42,249,69167,2,0,L|94:294,1,60,0|0,0:0|0:0,0:0:0:0:
212,249,69483,1,0,0:0:0:0:
297,326,69641,2,0,L|346:279,1,60,8|0,0:0|0:0,0:0:0:0:
425,207,69957,1,0,0:0:0:0:
474,305,70115,2,0,L|428:355,2,60,12|0|0,0:0|0:0|0:0,0:0:0:0:
505,118,70588,5,8,0:0:0:0:
505,118,70667,1,8,0:0:0:0:
505,118,70746,1,8,0:0:0:0:
418,34,70904,1,8,0:0:0:0:
328,99,71062,2,0,P|280:122|201:100,1,120,0|12,0:0|0:0,0:0:0:0:
128,56,71536,1,0,0:0:0:0:
199,312,71852,5,8,0:0:0:0:
292,240,72010,2,0,L|304:185,3,30,0|0|0|0,3:0|3:0|3:0|3:0,0:0:0:0:
149,183,72325,2,0,L|137:128,3,30,12|0|0|0,0:0|3:0|3:0|3:0,0:0:0:0:
207,71,72641,5,0,3:0:0:0:
240,58,72720,1,0,3:0:0:0:
276,55,72799,1,0,3:0:0:0:
312,60,72878,1,0,3:0:0:0:
345,73,72957,1,12,0:0:0:0:
433,135,73115,1,0,0:0:0:0:
433,135,73273,6,0,L|396:228,1,90.0000034332277,12|0,0:0|0:0,0:0:0:0:
79,249,73588,2,0,L|115:157,1,90.0000034332277,12|0,0:0|0:0,0:0:0:0:
313,369,73904,2,0,L|220:332,1,90.0000034332277,12|0,0:0|0:0,0:0:0:0:
199,15,74220,2,0,L|289:52,1,90.0000034332277,12|0,0:0|0:0,0:0:0:0:
79,249,74536,6,0,L|79:159,1,90.0000034332277,12|0,0:0|0:0,0:0:0:0:
433,135,74852,2,0,L|433:225,1,90.0000034332277,12|0,0:0|0:0,0:0:0:0:
199,15,75167,2,0,L|289:15,1,90.0000034332277,12|0,0:0|0:0,0:0:0:0:
313,369,75483,2,0,L|223:369,1,90.0000034332277,12|0,0:0|0:0,0:0:0:0:
256,192,75799,5,12,0:0:0:0:
366,102,75957,2,0,L|386:156,2,45.0000017166138,0|0|12,0:0|0:0|0:0,0:0:0:0:
146,102,76273,2,0,L|126:156,2,45.0000017166138,0|0|12,0:0|0:0|0:0,0:0:0:0:
432,280,76588,5,0,0:0:0:0:
366,102,76746,1,8,0:0:0:0:
80,280,76904,1,8,0:0:0:0:
146,102,77062,1,4,0:0:0:0:
256,192,77220,5,0,0:0:0:0:
256,80,77378,2,0,L|255:20,2,45.0000017166138,8|0|0,0:0|0:0|0:0,0:0:0:0:
256,304,77694,2,0,L|256:348,2,45.0000017166138,0|0|0,0:0|0:0|0:0,0:0:0:0:
256,192,78010,1,8,0:0:0:0:
256,192,78325,12,8,79273,0:0:0:0:
97,71,79588,5,12,0:0:0:0:
236,202,79746,1,0,0:0:0:0:
53,256,79904,1,0,0:0:0:0:
115,67,80062,5,4,0:0:0:0:
229,220,80220,1,0,0:0:0:0:
40,241,80378,1,0,0:0:0:0:
134,66,80536,5,12,0:0:0:0:
220,237,80694,1,0,0:0:0:0:
30,225,80852,1,0,0:0:0:0:
147,76,81010,5,4,0:0:0:0:
334,103,81167,1,0,0:0:0:0:
482,218,81325,1,0,0:0:0:0:
482,218,81483,6,0,L|450:308,1,90.0000034332277,12|0,0:0|0:0,0:0:0:0:
335,356,81799,2,0,L|373:270,1,90.0000034332277,12|0,0:0|0:0,0:0:0:0:
446,77,82115,5,12,0:0:0:0:
307,208,82273,1,0,0:0:0:0:
490,262,82431,1,0,0:0:0:0:
427,73,82588,5,12,0:0:0:0:
313,226,82746,1,0,0:0:0:0:
502,247,82904,1,0,0:0:0:0:
408,72,83062,5,12,0:0:0:0:
322,243,83220,1,0,0:0:0:0:
512,231,83378,1,0,0:0:0:0:
395,82,83536,5,12,0:0:0:0:
209,109,83694,1,0,0:0:0:0:
61,225,83852,1,0,0:0:0:0:
61,225,84010,2,0,L|77:311,1,60,12|4,0:0|0:0,0:0:0:0:
189,208,84641,6,0,P|313:170|424:204,1,240,12|0,0:0|0:0,0:0:0:0:
320,278,85746,5,8,0:0:0:0:
320,278,85825,1,8,0:0:0:0:
320,278,85904,1,8,0:0:0:0:
181,54,86062,1,8,0:0:0:0:
210,224,86220,5,8,0:0:0:0:
349,0,86378,1,8,0:0:0:0:
113,146,86536,5,0,0:0:0:0:
508,158,86694,1,12,0:0:0:0:
256,192,87167,12,0,88352,0:0:0:0:
