osu file format v14

[General]
AudioFilename: audio.mp3
AudioLeadIn: 0
PreviewTime: 63066
Countdown: 1
SampleSet: Soft
StackLeniency: 0.2
Mode: 0
LetterboxInBreaks: 0
WidescreenStoryboard: 0

[Editor]
Bookmarks: 12246,25219,35598,45976,56354,61543,66733,77111,87472,97868
DistanceSpacing: 0.8
BeatDivisor: 16
GridSize: 4
TimelineZoom: 2.3

[Metadata]
Title:Pride Kakumei
TitleUnicode:プライド革命
Artist:Afterglow
ArtistUnicode:Afterglow
Creator:newton-
Version:Metamorphosis
Source:バンドリ! ガールズバンドパーティ!
Tags:tatan -aqua meep nextplay my angel kanan revolution gintama 銀魂゜ bang dream bandori gintama゜ anime opening third season japanese video game Bandori! Girls Band Party! ガルパ Garupa cover project Girl Party Garupa! アフターグロウ Afutāgurou 美竹 蘭 Mitake Ran 青葉 モカ Moca Aoba 上原 ひまり Uehara Himari 宇田川 巴 Udagawa Tomoe 羽沢 つぐみ Hazawa Tsugumi 佐倉 綾音 Sakura Ayane 三澤 紗千香 Misawa Sachika 加藤 英美里 Katou Emiri 日笠 陽子 Hikasa Yoko 金元 寿子 Kanemoto Hisako
BeatmapID:1872478
BeatmapSetID:896218

[Difficulty]
HPDrainRate:6
CircleSize:4.8
OverallDifficulty:8
ApproachRate:9.3
SliderMultiplier:1.8
SliderTickRate:1

[Events]
//Background and Video events
0,0,"hiichan.png",0,0
//Break Periods
//Storyboard Layer 0 (Background)
//Storyboard Layer 1 (Fail)
//Storyboard Layer 2 (Pass)
//Storyboard Layer 3 (Foreground)
//Storyboard Sound Samples

[TimingPoints]
571,324.324324324324,4,2,1,60,1,0
571,-133.333333333333,4,2,1,60,0,0
5760,-58.8235294117647,4,2,1,60,0,0
6246,-333.333333333333,4,2,1,60,0,0
7057,-66.6666666666667,4,2,1,60,0,0
7543,-333.333333333333,4,2,1,60,0,0
8354,-133.333333333333,4,2,1,60,0,0
9652,-250,4,2,6,60,0,0
10949,-250,4,2,1,60,0,0
12246,324.324324324324,3,2,1,60,1,0
12246,-100,4,2,1,70,0,1
12733,-100,4,2,6,70,0,1
13542,324.324324324324,4,2,1,60,1,0
13542,-100,4,2,1,40,0,1
13704,-100,4,2,1,70,0,1
14352,-100,4,2,2,70,0,1
14514,-100,4,2,3,70,0,1
14677,-100,4,2,4,70,0,1
14839,324.324324324324,3,2,1,60,1,0
14839,-100,4,2,1,70,0,1
15327,-100,4,2,6,70,0,1
16136,324.324324324324,4,2,1,60,1,0
16136,-100,4,2,1,40,0,1
16300,-100,4,2,1,70,0,1
16784,-100,4,2,2,70,0,1
16946,-100,4,2,1,70,0,1
17108,-100,4,2,3,70,0,1
17271,-100,4,2,4,70,0,1
17433,324.324324324324,3,2,1,60,1,1
17433,-100,4,2,6,70,0,1
18568,-100,4,2,1,70,0,1
18729,324.324324324324,4,2,1,60,1,1
19377,-100,4,2,2,70,0,1
19539,-100,4,2,3,70,0,1
19701,-100,4,2,1,70,0,1
19864,-100,4,2,4,70,0,1
20026,324.324324324324,3,2,1,60,1,1
20026,-100,4,2,1,70,0,1
21161,-100,4,2,6,70,0,1
21323,324.324324324324,4,2,1,60,1,1
21809,-100,4,2,2,70,0,1
21971,-100,4,2,3,70,0,1
22133,-100,4,2,2,70,0,1
22295,-100,4,2,3,70,0,1
22458,-100,4,2,4,70,0,1
22620,-100,4,2,1,70,0,0
24566,-100,4,2,1,5,0,0
24728,-100,4,2,1,70,0,0
24890,-55.5555555555556,4,2,6,60,0,0
25214,-100,4,2,1,60,0,0
26755,-100,4,2,1,5,0,0
26836,-100,4,2,1,60,0,0
35268,-100,4,2,2,65,0,0
35430,-100,4,2,3,65,0,0
35593,-100,4,2,6,65,0,0
35755,-100,4,2,1,65,0,0
37133,-100,4,2,1,5,0,0
37214,-100,4,2,1,65,0,0
39322,-100,4,2,6,65,0,0
39647,-100,4,2,1,65,0,0
44511,-133.333333333333,4,2,1,65,0,0
45322,-200,4,2,2,65,0,0
45485,-200,4,2,3,65,0,0
45647,-200,4,2,4,65,0,0
45971,-133.333333333333,4,2,6,65,0,0
51160,-133.333333333333,4,2,1,65,0,0
52443,324.324324324324,4,2,1,65,1,0
52443,-133.333333333333,4,2,6,65,0,0
53072,324.324324324324,4,2,1,65,1,0
53072,-133.333333333333,4,2,1,65,0,0
53234,-133.333333333333,4,2,2,65,0,0
53396,-133.333333333333,4,2,3,65,0,0
53558,-133.333333333333,4,2,4,65,0,0
53720,324.324324324324,4,2,1,65,1,0
53720,-133.333333333333,4,2,1,65,0,0
54067,324.324324324324,4,2,1,65,1,0
54067,-133.333333333333,4,2,1,65,0,0
55706,324.324324324324,4,2,1,70,1,0
56030,-100,4,2,2,65,0,0
56192,-100,4,2,3,65,0,0
56337,324.324324324324,4,2,1,65,1,0
56337,-100,4,2,1,70,0,0
60228,-100,4,2,6,70,0,0
61201,-100,4,2,2,70,0,0
61364,-100,4,2,3,70,0,0
61526,-100,4,2,1,70,0,0
64769,-100,4,2,2,75,0,0
64931,-100,4,2,3,75,0,0
65093,-100,4,2,4,75,0,0
65255,-100,4,2,1,75,0,0
65418,-250,4,2,1,75,0,0
65499,-250,4,2,1,5,0,0
66715,-83.3333333333333,4,2,6,70,0,1
66877,-83.3333333333333,4,2,1,70,0,1
73039,-83.3333333333333,4,2,6,70,0,1
73364,-83.3333333333333,4,2,1,70,0,1
76769,-83.3333333333333,4,2,2,70,0,1
76850,-83.3333333333333,4,2,3,70,0,1
76931,-83.3333333333333,4,2,4,70,0,1
77093,-333.333333333333,4,2,1,70,0,1
77418,-83.3333333333333,4,2,1,70,0,1
82282,-83.3333333333333,4,2,6,70,0,1
82445,-83.3333333333333,4,2,1,70,0,1
84553,-83.3333333333333,4,2,2,70,0,1
84715,-83.3333333333333,4,2,3,70,0,1
84877,-250,4,2,1,70,0,0
84958,-250,4,2,1,5,0,0
85850,-250,4,2,1,60,0,0
86499,-250,4,2,2,70,0,0
86661,-250,4,2,3,70,0,0
86823,-100,4,2,4,70,0,0
86985,-100,4,2,1,70,0,0
87147,-100,4,2,6,70,0,0
87472,324.324324324324,3,2,1,60,1,0
87472,-100,4,2,6,70,0,1
88768,324.324324324324,4,2,1,60,1,0
88768,-100,4,2,1,40,0,1
88930,-100,4,2,1,70,0,1
89578,-100,4,2,2,70,0,1
89740,-100,4,2,3,70,0,1
89902,-100,4,2,4,70,0,1
90065,324.324324324324,3,2,1,60,1,0
90065,-100,4,2,1,70,0,1
91362,324.324324324324,4,2,1,60,1,0
91362,-100,4,2,1,40,0,1
91524,-100,4,2,1,70,0,1
92010,-100,4,2,2,70,0,1
92172,-100,4,2,1,70,0,1
92334,-100,4,2,3,70,0,1
92497,-100,4,2,4,70,0,1
92659,324.324324324324,3,2,1,60,1,0
92659,-100,4,2,6,70,0,1
93955,324.324324324324,4,2,1,60,1,0
93955,-100,4,2,1,40,0,1
94117,-100,4,2,1,70,0,1
94441,-100,4,2,2,70,0,1
94603,-100,4,2,3,70,0,1
94765,-100,4,2,1,70,0,1
94927,-100,4,2,3,70,0,1
95090,-100,4,2,4,70,0,1
95252,324.324324324324,3,2,1,60,1,0
95252,-100,4,2,6,70,0,1
96549,324.324324324324,4,2,1,60,1,0
97035,-100,4,2,2,70,0,1
97197,-100,4,2,3,70,0,1
97360,-100,4,2,4,70,0,1
97522,-100,4,2,1,70,0,1
97684,-100,4,2,1,40,0,1
97846,-312.5,4,2,6,70,0,0
103035,-333.333333333333,4,2,1,5,0,0

[Colours]
Combo1 : 107,175,56
Combo2 : 163,163,163
Combo3 : 145,145,145
Combo4 : 255,160,180
Combo5 : 255,106,136
Combo6 : 128,128,255
Combo7 : 72,72,255
Combo8 : 129,202,98

[HitObjects]
127,216,571,6,0,P|150:192|181:179,2,67.5000025749208,4|0|0,1:2|0:2|0:2,0:2:0:0:
194,259,1057,1,2,0:2:0:0:
257,208,1219,1,2,0:2:0:0:
152,106,1381,2,0,B|117:80|117:80|26:89,1,135.000005149842,2|0,0:2|0:2,0:2:0:0:
181,179,1868,6,0,P|180:112|208:51,2,135.000005149842,2|2|2,1:2|0:2|0:2,0:2:0:0:
257,208,2679,1,0,0:2:0:0:
257,208,2841,2,0,P|287:222|309:247,1,67.5000025749208,2|0,0:2|0:2,0:2:0:0:
360,358,3165,102,0,B|364:306|364:306|382:279|382:279|387:228,1,135.000005149842,2|0,1:2|0:2,0:2:0:0:
394,147,3652,1,0,0:2:0:0:
438,340,3814,2,0,L|513:333,1,67.5000025749208,0|0,0:2|0:2,0:2:0:0:
387,228,4138,1,2,0:2:0:0:
309,247,4300,6,0,P|242:248|181:220,1,135.000005149842,2|0,0:2|0:2,0:2:0:0:
119,172,4787,1,0,0:2:0:0:
394,147,5111,69,2,1:2:0:0:
387,228,5273,1,2,1:2:0:0:
394,147,5435,1,2,1:2:0:0:
309,247,5760,6,0,B|314:308|314:308|310:319|310:319|321:318|321:318|317:329|317:329|321:386,2,153.000002918243,4|0|0,1:2|0:2|0:2,0:2:0:0:
234,307,6246,102,0,L|180:302,2,53.9999983520508,2|2|0,0:2|0:2|0:2,0:2:0:0:
296,112,7057,6,0,L|309:247,2,135.000005149842,2|0|0,1:2|0:2|0:2,0:2:0:0:
436,191,7543,102,0,L|383:187,1,53.9999983520508,2|2,0:2|0:2,0:2:0:0:
309,246,8192,1,2,0:2:0:0:
189,86,8354,5,2,1:2:0:0:
256,45,8516,2,0,P|287:34|320:36,1,67.5000025749208,2|0,0:2|0:2,0:2:0:0:
124,78,8841,2,0,P|155:88|188:86,1,67.5000025749208,2|0,0:2|0:2,0:2:0:0:
2,29,9165,2,0,P|33:18|66:20,1,67.5000025749208,2|0,0:2|0:2,0:2:0:0:
87,148,9489,1,2,0:2:0:0:
87,148,9570,1,2,0:2:0:0:
87,148,9652,6,0,B|142:152|142:152|170:171|170:171|224:176,1,144,4|0,0:2|0:2,0:2:0:0:
303,132,10949,2,0,P|225:87|225:176,1,216,2|0,0:2|0:2,0:2:0:0:
379,265,12246,21,4,1:2:0:0:
316,314,12408,1,8,0:2:0:0:
271,310,12489,1,8,0:2:0:0:
226,306,12570,1,8,0:2:0:0:
283,188,12733,2,0,B|332:173|370:203|357:211|398:249|457:229,1,180,12|8,1:2|0:2,0:2:0:0:
476,212,13138,1,8,0:2:0:0:
480,180,13219,1,8,0:2:0:0:
460,154,13300,1,8,0:2:0:0:
428,153,13381,2,0,L|435:63,1,90,12|0,0:2|0:2,0:2:0:0:
409,315,13705,5,8,1:2:0:0:
387,308,13786,1,8,0:2:0:0:
365,306,13867,1,8,0:2:0:0:
343,310,13948,1,8,0:2:0:0:
322,320,14029,101,8,0:2:0:0:
280,334,14110,1,8,0:2:0:0:
236,327,14191,1,8,1:2:0:0:
201,299,14272,1,8,0:2:0:0:
184,258,14353,5,8,0:2:0:0:
203,269,14433,1,8,0:2:0:0:
218,285,14514,1,8,1:2:0:0:
230,305,14597,1,8,0:2:0:0:
236,326,14677,1,8,0:2:0:0:
143,334,14839,101,4,1:2:0:0:
132,194,15001,1,8,0:2:0:0:
173,177,15082,1,8,0:2:0:0:
218,183,15163,1,8,0:2:0:0:
87,266,15325,2,0,B|52:216|52:216|63:97,1,180,12|8,1:2|0:2,0:2:0:0:
80,56,15731,1,8,0:2:0:0:
115,28,15812,1,8,0:2:0:0:
159,21,15893,1,0,0:2:0:0:
201,35,15974,2,0,L|296:26,1,90,12|0,0:2|0:2,0:2:0:0:
466,192,16298,5,8,1:2:0:0:
443,197,16379,1,8,0:2:0:0:
423,206,16460,1,8,0:2:0:0:
406,221,16541,1,8,0:2:0:0:
393,239,16623,101,8,0:2:0:0:
422,206,16704,1,8,0:2:0:0:
430,162,16785,1,8,1:2:0:0:
416,120,16866,1,8,0:2:0:0:
383,90,16947,5,8,0:2:0:0:
360,91,17028,1,8,0:2:0:0:
338,93,17109,1,8,1:2:0:0:
315,95,17190,1,8,0:2:0:0:
293,97,17271,1,8,0:2:0:0:
466,273,17432,101,4,1:2:0:0:
349,170,17595,1,8,0:2:0:0:
304,173,17676,1,8,0:2:0:0:
259,177,17757,1,8,0:2:0:0:
335,319,17919,2,0,B|403:324|403:324|438:347|438:347|507:353,1,180,12|8,1:2|0:2,0:2:0:0:
486,313,18324,1,8,0:2:0:0:
466,273,18405,2,0,L|470:217,1,45,8|0,0:2|0:0,0:0:0:0:
357,239,18568,6,0,B|308:224|270:254|283:262|242:300|183:280,1,180,4|8,1:2|0:2,0:2:0:0:
192,260,18972,1,8,0:2:0:0:
194,238,19053,1,8,1:2:0:0:
196,215,19134,1,8,0:2:0:0:
198,193,19215,101,8,0:2:0:0:
163,220,19296,1,8,0:2:0:0:
120,227,19377,1,8,1:2:0:0:
78,212,19458,1,8,0:2:0:0:
50,180,19539,5,8,0:2:0:0:
43,157,19620,1,8,0:2:0:0:
44,134,19701,1,8,1:2:0:0:
50,113,19782,1,8,0:2:0:0:
61,92,19864,2,0,L|56:44,1,45,8|0,0:2|0:0,0:0:0:0:
127,146,20026,101,4,1:2:0:0:
29,278,20188,1,8,0:2:0:0:
23,323,20269,1,8,0:2:0:0:
40,364,20350,1,8,0:2:0:0:
78,212,20512,2,0,B|128:247|128:247|247:236,1,180,12|8,1:2|0:2,0:2:0:0:
290,232,20917,1,8,0:2:0:0:
335,228,20998,1,8,0:2:0:0:
412,103,21161,6,0,B|382:144|399:190|411:180|434:231|397:281,1,180,4|8,1:2|0:2,0:2:0:0:
381,285,21566,1,8,0:2:0:0:
362,297,21647,1,8,0:2:0:0:
290,334,21809,1,8,0:2:0:0:
218,371,21971,1,8,1:2:0:0:
143,252,22134,101,8,0:2:0:0:
127,212,22215,1,8,0:2:0:0:
141,170,22296,1,8,1:2:0:0:
179,148,22377,1,8,0:2:0:0:
222,157,22458,1,8,0:2:0:0:
249,192,22539,1,8,0:2:0:0:
246,235,22620,1,8,0:2:0:0:
256,192,22701,12,0,24566,0:2:0:0:
128,238,24729,53,0,1:2:0:0:
150,236,24810,1,0,1:2:0:0:
173,234,24891,2,0,B|210:220|259:173|220:32|98:115|148:171,1,242.999992584229,12|0,1:2|0:2,0:2:0:0:
294,205,25215,85,4,1:2:0:0:
339,201,25296,1,2,0:2:0:0:
384,197,25377,1,2,0:2:0:0:
353,121,25539,1,8,0:2:0:0:
325,281,25702,1,2,0:2:0:0:
291,69,25864,1,2,1:2:0:0:
207,209,26026,2,0,P|250:217|293:205,1,90,2|0,0:2|1:2,0:2:0:0:
247,137,26350,1,10,0:2:0:0:
137,169,26512,6,0,B|110:206|110:206|119:295,1,135,2|0,1:2|0:2,0:2:0:0:
123,336,26837,1,10,0:2:0:0:
29,115,27053,5,8,0:2:0:0:
52,150,27161,2,0,P|92:170|136:169,1,90,2|0,1:2|1:2,0:2:0:0:
212,51,27485,1,10,0:2:0:0:
237,292,27810,85,2,1:2:0:0:
192,298,27891,1,2,0:2:0:0:
150,284,27972,1,2,0:2:0:0:
136,169,28134,1,8,0:2:0:0:
209,133,28296,2,0,P|215:177|201:219,1,90,0|2,1:2|1:2,0:2:0:0:
85,233,28621,1,0,0:2:0:0:
237,292,28783,1,2,0:2:0:0:
307,171,28945,6,0,B|300:239|300:239|317:278|317:278|310:346,1,180,10|0,0:2|1:2,0:2:0:0:
380,225,29431,1,8,0:2:0:0:
362,111,29648,5,8,0:2:0:0:
327,93,29756,2,0,L|237:100,1,90,2|0,1:2|1:2,0:2:0:0:
156,108,30080,1,12,0:2:0:0:
301,239,30404,85,2,1:2:0:0:
256,235,30485,1,2,0:2:0:0:
211,231,30566,1,2,0:2:0:0:
158,293,30729,1,10,0:2:0:0:
345,310,30891,2,0,B|380:260|380:260|369:141,1,180,2|2,0:2|1:2,0:2:0:0:
453,29,31377,2,0,L|446:119,1,90,8|0,0:2|0:2,0:2:0:0:
301,239,31702,5,2,1:2:0:0:
289,129,31864,2,0,P|308:89|345:64,1,90,2|8,1:2|0:2,0:2:0:0:
447,219,32188,1,2,0:2:0:0:
424,217,32269,1,2,0:2:0:0:
402,215,32350,1,2,1:2:0:0:
369,141,32512,1,2,0:2:0:0:
345,310,32675,2,0,P|302:322|259:311,1,90,8|2,0:2|0:2,0:2:0:0:
229,196,32999,101,2,1:2:0:0:
188,354,33161,2,0,P|176:312|187:269,1,90,2|8,0:2|0:2,0:2:0:0:
270,184,33485,1,2,1:2:0:0:
250,190,33566,1,2,1:2:0:0:
229,196,33647,2,0,P|185:185|152:156,2,90,2|2|0,1:2|0:2|0:2,0:2:0:0:
343,130,34134,6,0,B|350:198|350:198|333:237|333:237|340:305,1,180,10|2,0:2|0:2,0:2:0:0:
108,270,34945,101,8,0:2:0:0:
130,306,35026,1,8,0:2:0:0:
169,328,35107,1,8,0:2:0:0:
213,329,35188,1,8,0:2:0:0:
253,310,35269,5,8,0:2:0:0:
274,300,35350,1,8,0:2:0:0:
296,296,35431,1,8,0:2:0:0:
318,298,35512,1,8,0:2:0:0:
340,305,35593,101,4,1:2:0:0:
294,216,35756,1,2,0:2:0:0:
298,376,35918,1,8,0:2:0:0:
243,151,36080,1,2,0:2:0:0:
285,137,36161,1,2,0:2:0:0:
330,143,36242,1,2,1:2:0:0:
375,210,36404,1,0,1:2:0:0:
243,151,36566,2,0,L|250:61,1,90,8|2,0:2|0:2,0:2:0:0:
124,43,36891,6,0,B|161:70|161:70|250:61,1,135,2|0,1:2|0:2,0:2:0:0:
290,57,37215,1,10,0:2:0:0:
375,210,37431,5,8,0:2:0:0:
410,192,37539,2,0,L|500:199,1,90,2|0,1:2|1:2,0:2:0:0:
385,309,37864,2,0,P|348:283|304:280,1,90,10|0,0:2|0:2,0:2:0:0:
237,384,38188,86,0,P|274:303|265:214,1,180,4|8,1:2|0:2,0:2:0:0:
217,148,38675,1,0,0:2:0:0:
109,271,38837,2,0,P|149:291|194:290,1,90,0|0,1:2|1:2,0:2:0:0:
298,139,39161,1,10,0:2:0:0:
360,333,39323,6,0,B|311:348|273:318|286:310|245:272|186:292,1,180,4|0,1:2|1:2,0:2:0:0:
337,254,39810,1,8,0:2:0:0:
377,254,39890,2,0,P|414:277|437:316,1,90,2|8,1:2|1:2,0:2:0:0:
436,356,40134,1,10,0:2:0:0:
443,130,40296,1,2,1:2:0:0:
370,164,40458,2,0,L|377:254,1,90,10|0,0:2|0:2,0:2:0:0:
494,67,40783,102,0,P|453:50|409:57,1,90,4|0,1:2|0:2,0:2:0:0:
293,144,41107,1,10,0:2:0:0:
221,24,41269,2,0,B|228:92|228:92|211:131|211:131|218:199,1,180,2|0,0:2|1:2,0:2:0:0:
61,89,41756,2,0,P|102:72|146:79,1,90,8|0,0:2|0:2,0:2:0:0:
218,200,41999,1,2,0:2:0:0:
218,200,42080,6,0,L|128:193,1,90,4|0,1:2|0:2,0:2:0:0:
47,188,42404,1,10,0:2:0:0:
195,279,42566,2,0,B|244:294|282:264|269:256|310:218|369:238,1,180,2|2,0:2|1:2,0:2:0:0:
337,313,43053,1,8,0:2:0:0:
218,200,43215,1,2,0:2:0:0:
212,155,43296,1,2,0:2:0:0:
226,113,43377,101,2,1:2:0:0:
293,157,43539,1,2,0:2:0:0:
195,279,43702,1,8,0:2:0:0:
109,86,43864,1,2,0:2:0:0:
129,79,43945,1,2,0:2:0:0:
149,73,44026,2,0,P|192:83|225:112,2,90,0|2|8,1:2|1:2|0:2,0:2:0:0:
30,190,44512,54,0,P|35:123|11:60,2,135.000005149842,4|10|2,1:2|0:2|0:2,0:2:0:0:
98,234,45322,6,0,P|101:256|111:275,1,45,8|8,0:2|0:2,0:2:0:0:
37,308,45647,2,0,P|33:330|23:349,1,45,8|8,0:2|0:2,0:2:0:0:
178,231,45971,102,0,B|224:223|249:248|234:247|266:269|317:259,1,135.000005149842,4|2,1:2|0:2,0:2:0:0:
387,136,46620,2,0,B|378:227|378:227|404:262,1,135.000005149842,10|2,0:2|0:2,0:2:0:0:
479,281,47106,6,0,P|413:288|356:324,1,135.000005149842,2|10,0:2|0:2,0:2:0:0:
297,380,47594,1,2,1:2:0:0:
225,342,47756,1,2,0:2:0:0:
148,369,47918,1,10,0:2:0:0:
69,350,48080,1,2,0:2:0:0:
69,350,48242,1,2,0:2:0:0:
176,240,48404,1,8,0:2:0:0:
176,240,48485,1,8,0:2:0:0:
176,240,48566,102,0,B|170:290|170:290|152:317|152:317|148:369,1,135.000005149842,4|2,1:2|1:2,0:2:0:0:
225,342,49053,1,0,0:2:0:0:
91,197,49215,1,10,0:2:0:0:
91,197,49377,2,0,L|98:272,1,67.5000025749208,2|0,0:2|0:2,0:2:0:0:
13,193,49701,1,8,0:2:0:0:
55,127,49863,6,0,P|87:118|120:124,1,67.5000025749208,2|8,1:2|0:2,0:2:0:0:
175,239,50187,2,0,P|206:248|240:244,1,67.5000025749208,2|0,1:2|0:2,0:2:0:0:
302,120,50512,1,10,0:2:0:0:
307,199,50674,1,2,0:2:0:0:
312,278,50836,1,2,0:2:0:0:
318,40,51160,102,0,B|272:32|247:57|262:56|230:78|179:68,1,135.000005149842,4|2,1:2|1:2,0:2:0:0:
119,29,51647,1,0,0:2:0:0:
78,100,51809,2,0,P|73:133|82:165,1,67.5000025749208,10|0,0:2|0:2,0:2:0:0:
153,204,52133,2,0,P|157:237|148:269,1,67.5000025749208,2|8,0:2|0:2,0:2:0:0:
12,305,52443,5,2,1:2:0:0:
91,327,52605,1,8,0:2:0:0:
148,269,52767,2,0,L|215:274,1,67.5000025749208,2|0,1:2|1:2,0:2:0:0:
268,336,53071,101,10,0:2:0:0:
331,286,53233,1,8,0:2:0:0:
401,325,53395,1,8,0:2:0:0:
478,301,53558,1,8,0:2:0:0:
424,158,53720,6,0,P|364:196|294:206,1,143.437505471707,4|2,1:2|1:2,0:2:0:0:
227,160,54229,1,0,0:2:0:0:
151,196,54391,2,0,B|147:145|147:145|160:116|160:116|155:64,1,135.000005149842,10|2,0:2|0:2,0:2:0:0:
80,103,54877,1,0,0:2:0:0:
103,258,55039,102,0,P|133:271|166:272,1,67.5000025749208,8|0,0:2|1:2,0:2:0:0:
291,145,55363,2,0,P|257:146|227:160,1,67.5000025749208,10|0,0:2|1:2,0:2:0:0:
167,272,55706,69,8,0:2:0:0:
183,270,55787,1,8,0:2:0:0:
200,272,55868,1,8,0:2:0:0:
216,277,55949,1,8,0:2:0:0:
230,286,56030,1,8,0:2:0:0:
245,295,56111,1,8,0:2:0:0:
261,300,56192,1,8,0:2:0:0:
278,302,56273,1,8,0:2:0:0:
294,301,56337,101,4,1:2:0:0:
182,351,56498,2,0,P|138:347|102:320,1,90,0|8,0:2|0:2,0:2:0:0:
164,96,56823,2,0,B|157:164|157:164|174:203|174:203|167:271,1,180,2|0,1:2|1:2,0:2:0:0:
94,220,57309,1,8,0:2:0:0:
237,148,57471,1,0,0:2:0:0:
100,45,57634,6,0,P|135:18|179:14,1,90,2|0,1:2|0:2,0:2:0:0:
237,148,57958,2,0,P|272:174|317:179,1,90,10|0,0:2|0:2,0:2:0:0:
378,124,58282,2,0,P|397:164|392:208,1,90,2|0,1:2|0:2,0:2:0:0:
301,99,58607,2,0,P|326:62|367:45,1,90,10|0,0:2|0:2,0:2:0:0:
485,242,58931,102,0,P|396:234|316:273,1,180,2|8,1:2|0:2,0:2:0:0:
262,333,59417,1,0,0:2:0:0:
208,188,59580,2,0,L|201:278,1,90,2|0,1:2|0:2,0:2:0:0:
271,139,59904,2,0,P|236:113|192:109,1,90,10|0,0:2|0:2,0:2:0:0:
40,219,60228,6,0,P|129:227|209:188,1,180,4|8,1:2|0:2,0:2:0:0:
261,36,60715,1,2,0:2:0:0:
351,169,60877,101,8,0:2:0:0:
328,170,60958,1,8,0:2:0:0:
306,165,61039,1,8,0:2:0:0:
287,154,61120,1,8,0:2:0:0:
271,139,61201,1,8,0:2:0:0:
255,124,61282,1,8,0:2:0:0:
236,113,61363,1,8,0:2:0:0:
214,108,61444,1,8,0:2:0:0:
192,108,61525,21,12,1:2:0:0:
112,123,61688,1,0,1:2:0:0:
127,202,61850,1,8,0:2:0:0:
208,188,62012,1,0,1:2:0:0:
51,175,62174,5,8,0:2:0:0:
38,332,62336,1,0,1:2:0:0:
195,344,62498,1,8,0:2:0:0:
208,188,62661,1,0,1:2:0:0:
65,251,62824,102,0,P|40:287|38:332,1,90,8|0,0:2|1:2,0:2:0:0:
286,207,63148,2,0,P|284:162|259:125,1,90,10|0,0:2|1:2,0:2:0:0:
116,312,63472,2,0,L|206:319,1,90,10|0,0:2|1:2,0:2:0:0:
182,99,63797,2,0,L|92:106,1,90,10|0,0:2|1:2,0:2:0:0:
286,207,64121,5,8,0:2:0:0:
340,193,64202,1,8,0:2:0:0:
371,147,64283,1,8,1:2:0:0:
366,93,64364,1,8,1:2:0:0:
328,53,64445,1,8,0:2:0:0:
332,107,64526,1,8,0:2:0:0:
371,147,64607,1,8,1:2:0:0:
425,150,64689,1,8,1:2:0:0:
471,120,64770,101,8,0:2:0:0:
469,136,64851,1,8,0:2:0:0:
468,153,64932,1,8,0:2:0:0:
466,170,65013,1,8,0:2:0:0:
465,187,65094,1,8,0:2:0:0:
463,204,65175,1,8,0:2:0:0:
462,220,65256,1,0,1:2:0:0:
460,237,65337,1,0,1:2:0:0:
459,254,65418,22,0,B|410:245|384:271|400:270|366:293|313:283,1,144,8|0,0:2|0:2,0:2:0:0:
322,284,66715,21,4,1:2:0:0:
173,219,66877,1,2,0:2:0:0:
311,202,67039,1,10,0:2:0:0:
271,348,67201,2,0,P|242:303|246:251,1,107.999996704102,2|0,0:2|1:2,0:2:0:0:
300,122,67525,1,2,1:2:0:0:
391,191,67688,1,8,0:2:0:0:
247,251,67850,1,2,1:2:0:0:
268,47,68012,6,0,P|320:43|364:73,1,107.999996704102,2|2,1:2|1:2,0:2:0:0:
311,202,68336,1,10,0:2:0:0:
113,104,68498,1,2,1:2:0:0:
139,74,68580,2,0,L|192:78,1,53.9999983520508,10|2,0:2|1:2,0:2:0:0:
300,122,68823,1,2,0:2:0:0:
171,159,68985,1,8,0:2:0:0:
391,191,69147,1,2,0:2:0:0:
182,239,69309,102,0,P|234:230|280:256,1,107.999996704102,4|0,1:2|0:2,0:2:0:0:
344,321,69634,1,8,0:2:0:0:
107,311,69796,2,0,B|98:228|98:228|119:181|119:181|110:99,1,215.999993408203,2|2,0:2|1:2,0:2:0:0:
39,170,70282,1,8,0:2:0:0:
182,239,70444,1,2,1:2:0:0:
143,23,70607,6,0,P|91:19|47:49,1,107.999996704102,2|2,1:2|1:2,0:2:0:0:
239,190,70931,1,10,0:2:0:0:
79,171,71093,2,0,B|107:186|159:185|187:146|168:137|198:106|238:103|277:121,1,215.999993408203,2|2,0:2|1:2,0:2:0:0:
110,100,71580,1,8,0:2:0:0:
305,47,71742,1,2,0:2:0:0:
267,286,71904,102,0,P|236:242|239:189,1,107.999996704102,2|0,1:2|0:2,0:2:0:0:
335,162,72228,2,0,P|291:193|239:190,1,107.999996704102,10|0,0:2|0:2,0:2:0:0:
110,100,72552,1,2,1:2:0:0:
239,190,72715,1,0,1:2:0:0:
305,47,72877,1,10,0:2:0:0:
419,236,73039,6,0,P|452:154|502:228,1,215.999993408203,4|0,1:2|1:2,0:2:0:0:
470,302,73525,1,8,0:2:0:0:
335,162,73688,1,2,1:2:0:0:
282,159,73769,1,10,0:2:0:0:
238,189,73850,1,2,1:2:0:0:
221,268,74012,1,2,1:2:0:0:
127,55,74174,1,8,0:2:0:0:
161,213,74336,1,2,1:2:0:0:
306,65,74498,102,0,P|336:108|334:161,1,107.999996704102,4|0,1:2|0:2,0:2:0:0:
161,213,74823,2,0,L|49:203,1,107.999996704102,10|0,0:2|0:2,0:2:0:0:
221,268,75147,1,0,1:2:0:0:
178,134,75309,1,2,1:2:0:0:
204,347,75471,2,0,L|315:337,1,107.999996704102,10|0,0:2|1:2,0:2:0:0:
456,278,75796,5,8,0:2:0:0:
376,288,75958,1,0,1:2:0:0:
386,368,76120,1,2,0:2:0:0:
466,358,76282,1,0,1:2:0:0:
327,223,76444,1,10,0:2:0:0:
489,200,76607,101,8,0:2:0:0:
453,207,76688,1,8,0:2:0:0:
419,198,76769,1,8,0:2:0:0:
392,174,76850,1,8,0:2:0:0:
365,151,76931,1,8,0:2:0:0:
331,141,77012,1,8,0:2:0:0:
295,147,77093,86,0,L|251:143,1,40.4999987640381,4|0,1:2|0:2,0:2:0:0:
102,95,77418,22,0,B|130:80|182:81|210:120|191:129|221:160|261:163|300:145,1,215.999993408203,12|0,1:2|1:2,0:2:0:0:
134,168,77904,1,2,0:2:0:0:
263,74,78066,1,8,0:2:0:0:
166,241,78228,1,2,1:2:0:0:
230,0,78390,6,0,P|282:-3|326:26,1,107.999996704102,2|2,1:2|0:2,0:2:0:0:
373,91,78715,1,10,0:2:0:0:
255,167,78877,1,2,1:2:0:0:
259,127,78958,2,0,L|263:74,1,53.9999983520508,10|2,0:2|1:2,0:2:0:0:
405,18,79201,1,2,1:2:0:0:
300,234,79363,2,0,P|249:245|200:225,1,107.999996704102,8|2,0:2|0:2,0:2:0:0:
335,161,79688,101,4,1:2:0:0:
346,301,79850,1,2,0:2:0:0:
255,167,80012,1,8,0:2:0:0:
405,18,80174,2,0,B|396:98|396:98|417:145|417:145|408:228,1,215.999993408203,2|2,0:2|1:2,0:2:0:0:
335,161,80661,1,8,0:2:0:0:
478,85,80823,1,2,1:2:0:0:
249,86,80985,6,0,P|200:109|175:155,1,107.999996704102,2|0,1:2|1:2,0:2:0:0:
203,229,81309,1,10,0:2:0:0:
244,6,81471,1,2,1:2:0:0:
255,167,81634,1,8,0:2:0:0:
213,79,81796,101,10,0:2:0:0:
249,86,81877,1,8,0:2:0:0:
283,77,81958,1,8,0:2:0:0:
310,53,82039,1,8,0:2:0:0:
337,30,82120,1,8,0:2:0:0:
371,20,82201,1,8,0:2:0:0:
407,26,82282,5,12,1:2:0:0:
376,100,82444,1,0,1:2:0:0:
456,90,82607,101,10,0:2:0:0:
345,174,82769,1,0,1:2:0:0:
505,154,82931,5,10,0:2:0:0:
314,248,83093,1,0,1:2:0:0:
475,222,83255,101,10,0:2:0:0:
234,258,83417,1,0,1:2:0:0:
406,26,83580,6,0,P|463:11|510:31,1,107.999996704102,8|0,0:2|1:2,0:2:0:0:
345,174,83904,2,0,L|237:164,1,107.999996704102,8|2,0:2|1:2,0:2:0:0:
168,16,84228,5,8,0:2:0:0:
188,65,84309,1,8,0:2:0:0:
171,116,84390,1,8,0:2:0:0:
155,166,84471,1,8,0:2:0:0:
174,216,84552,5,8,0:2:0:0:
170,189,84633,1,8,0:2:0:0:
155,167,84714,1,8,0:2:0:0:
133,153,84795,1,8,0:2:0:0:
106,149,84877,38,0,P|55:186|112:219,1,144,4|0,1:2|0:2,0:2:0:0:
104,222,85850,2,0,L|100:261,1,36,2|2,0:2|0:2,0:2:0:0:
24,291,86174,85,8,0:2:0:0:
53,323,86255,1,8,0:2:0:0:
96,338,86336,1,8,0:2:0:0:
140,329,86417,1,8,0:2:0:0:
174,302,86498,5,8,0:2:0:0:
208,275,86579,1,8,0:2:0:0:
252,266,86660,1,8,0:2:0:0:
295,281,86741,1,8,0:2:0:0:
324,313,86823,102,0,L|319:360,3,45,8|0|0|0,0:2|0:0|0:0|0:0,0:0:0:0:
252,266,87147,2,0,L|243:170,1,90,12|0,0:2|1:2,0:2:0:0:
74,189,87471,53,4,1:2:0:0:
143,92,87634,1,8,0:2:0:0:
188,96,87715,1,8,0:2:0:0:
233,100,87796,1,8,0:2:0:0:
98,20,87958,2,0,B|63:70|63:70|74:189,1,180,12|8,1:2|0:2,0:2:0:0:
77,233,88363,1,8,0:2:0:0:
81,278,88444,1,8,0:2:0:0:
85,323,88525,1,8,0:2:0:0:
89,368,88607,2,0,P|126:342|170:339,1,90,12|0,0:2|1:2,0:2:0:0:
326,375,88930,5,8,0:2:0:0:
319,353,89011,1,8,0:2:0:0:
317,331,89092,1,8,1:2:0:0:
321,309,89173,1,8,0:2:0:0:
331,288,89255,101,8,0:2:0:0:
367,231,89336,1,8,0:2:0:0:
378,165,89417,1,8,1:2:0:0:
362,100,89498,1,8,0:2:0:0:
322,46,89579,5,8,0:2:0:0:
326,80,89660,1,8,0:2:0:0:
337,112,89741,1,8,1:2:0:0:
355,140,89822,1,8,0:2:0:0:
378,165,89903,1,8,0:2:0:0:
402,30,90066,101,4,1:2:0:0:
243,64,90228,1,8,0:2:0:0:
198,70,90309,1,8,0:2:0:0:
157,53,90390,1,8,0:2:0:0:
16,178,90552,2,0,P|97:141|186:150,1,180,12|8,1:2|0:2,0:2:0:0:
189,193,90956,1,8,0:2:0:0:
193,238,91037,1,8,0:2:0:0:
197,283,91120,1,8,0:2:0:0:
201,328,91201,2,0,P|241:346|286:342,1,90,12|0,0:2|1:2,0:2:0:0:
378,208,91525,5,8,0:2:0:0:
377,184,91606,1,8,0:2:0:0:
371,163,91687,1,8,1:2:0:0:
360,144,91768,1,8,0:2:0:0:
343,127,91848,101,8,0:2:0:0:
377,184,91930,1,8,0:2:0:0:
440,201,92011,1,8,1:2:0:0:
496,167,92092,1,8,0:2:0:0:
511,103,92173,5,8,0:2:0:0:
502,70,92254,1,8,0:2:0:0:
480,44,92335,1,8,1:2:0:0:
450,30,92416,1,8,0:2:0:0:
417,29,92497,1,8,0:2:0:0:
343,127,92659,101,4,1:2:0:0:
440,201,92821,1,8,0:2:0:0:
436,246,92902,1,8,0:2:0:0:
432,291,92983,1,8,0:2:0:0:
291,328,93145,2,0,B|340:313|378:343|365:351|406:389|465:369,1,180,12|8,0:2|0:2,0:2:0:0:
444,331,93550,1,8,0:2:0:0:
432,291,93632,1,8,0:2:0:0:
420,251,93713,1,8,0:2:0:0:
408,211,93794,2,0,L|415:121,1,90,12|0,0:2|0:2,0:2:0:0:
284,238,94117,5,8,0:2:0:0:
286,260,94198,1,8,0:2:0:0:
288,283,94279,1,8,1:2:0:0:
290,305,94360,1,8,0:2:0:0:
291,328,94441,101,8,0:2:0:0:
249,275,94522,1,8,0:2:0:0:
230,211,94603,1,8,1:2:0:0:
239,144,94684,1,8,0:2:0:0:
273,87,94766,5,8,0:2:0:0:
295,85,94847,1,8,0:2:0:0:
318,83,94928,1,8,1:2:0:0:
340,81,95009,1,8,0:2:0:0:
363,80,95090,1,8,0:2:0:0:
222,24,95252,101,4,1:2:0:0:
147,193,95414,1,8,0:2:0:0:
186,213,95495,1,8,0:2:0:0:
231,211,95576,1,8,0:2:0:0:
74,314,95738,2,0,B|81:244|81:244|65:205|65:205|72:138,1,180,12|8,1:2|0:2,0:2:0:0:
103,108,96143,1,8,0:2:0:0:
146,115,96224,1,8,0:2:0:0:
165,154,96305,1,8,0:2:0:0:
146,193,96386,1,12,0:2:0:0:
146,193,96711,5,8,0:2:0:0:
75,313,96873,1,8,0:2:0:0:
132,349,96954,1,8,0:2:0:0:
198,360,97035,1,8,0:2:0:0:
263,344,97116,1,8,0:2:0:0:
317,304,97197,101,8,0:2:0:0:
359,290,97278,1,8,0:2:0:0:
403,297,97359,1,8,0:2:0:0:
438,325,97440,1,8,0:2:0:0:
455,366,97521,2,0,L|463:270,1,90,8|0,1:2|1:2,0:2:0:0:
396,120,97846,6,0,B|255:117|188:173|115:212|115:212|140:232|162:266|162:266|129:196|160:85|215:-22|270:-44|352:23|363:136|320:243,1,921.6,4|0,1:2|0:2,0:2:0:0:
