osu file format v14

[General]
AudioFilename: audio.mp3
AudioLeadIn: 0
PreviewTime: 63066
Countdown: 1
SampleSet: Soft
StackLeniency: 0.8
Mode: 0
LetterboxInBreaks: 0
WidescreenStoryboard: 1

[Editor]
Bookmarks: 12246,25219,35598,45976,56354,61543,66733,77111,87472,97868
DistanceSpacing: 1
BeatDivisor: 6
GridSize: 4
TimelineZoom: 1.4

[Metadata]
Title:Pride Kakumei
TitleUnicode:プライド革命
Artist:Afterglow
ArtistUnicode:Afterglow
Creator:newton-
Version:Easy
Source:バンドリ! ガールズバンドパーティ!
Tags:tatan -aqua meep nextplay my angel kanan revolution gintama 銀魂゜ bang dream bandori gintama゜ anime opening third season japanese video game Bandori! Girls Band Party! ガルパ Garupa cover project Girl Party Garupa! アフターグロウ Afutāgurou 美竹 蘭 Mitake Ran 青葉 モカ Moca Aoba 上原 ひまり Uehara Himari 宇田川 巴 Udagawa Tomoe 羽沢 つぐみ Hazawa Tsugumi 佐倉 綾音 Sakura Ayane 三澤 紗千香 Misawa Sachika 加藤 英美里 Katou Emiri 日笠 陽子 Hikasa Yoko 金元 寿子 Kanemoto Hisako
BeatmapID:1884965
BeatmapSetID:896218

[Difficulty]
HPDrainRate:3
CircleSize:2.3
OverallDifficulty:3
ApproachRate:4
SliderMultiplier:0.899999999999999
SliderTickRate:1

[Events]
//Background and Video events
0,0,"hiichan.png",0,0
//Break Periods
//Storyboard Layer 0 (Background)
//Storyboard Layer 1 (Fail)
//Storyboard Layer 2 (Pass)
//Storyboard Layer 3 (Foreground)
//Storyboard Sound Samples

[TimingPoints]
571,324.324324324324,4,2,1,60,1,0
571,-100,4,2,1,60,0,0
9652,-100,4,2,6,60,0,0
10949,-100,4,2,1,60,0,0
12246,324.324324324324,3,2,1,70,1,1
12733,-100,3,2,6,70,0,1
13542,324.324324324324,4,2,1,60,1,1
13704,-100,4,2,1,70,0,1
14352,-100,4,2,2,70,0,1
14514,-100,4,2,3,70,0,1
14677,-100,4,2,4,70,0,1
14839,324.324324324324,3,2,1,60,1,1
15327,-100,3,2,6,70,0,1
16136,324.324324324324,4,2,1,60,1,1
16300,-100,4,2,1,70,0,1
16784,-100,4,2,2,70,0,1
16946,-100,4,2,1,70,0,1
17108,-100,4,2,3,70,0,1
17271,-100,4,2,4,70,0,1
17433,324.324324324324,3,2,1,60,1,1
18568,-100,3,2,1,70,0,1
18729,324.324324324324,4,2,1,60,1,1
19377,-100,4,2,2,70,0,1
19539,-100,4,2,3,70,0,1
19701,-100,4,2,1,70,0,1
19864,-100,4,2,4,70,0,1
20026,324.324324324324,3,2,1,60,1,1
21161,-100,3,2,6,70,0,1
21323,324.324324324324,4,2,1,60,1,1
21809,-100,4,2,2,70,0,1
21971,-100,4,2,3,70,0,1
22133,-100,4,2,2,70,0,0
22295,-100,4,2,3,70,0,1
22458,-100,4,2,4,70,0,1
22620,-100,4,2,1,70,0,0
24566,-100,4,2,1,5,0,0
24728,-100,4,2,1,70,0,0
24890,-100,4,2,6,60,0,0
25214,-100,4,2,1,60,0,0
26755,-100,4,2,1,5,0,0
26836,-100,4,2,1,60,0,0
35268,-100,4,2,2,65,0,0
35430,-100,4,2,3,65,0,0
35593,-100,4,2,6,65,0,0
35755,-100,4,2,1,65,0,0
37133,-100,4,2,1,5,0,0
37214,-100,4,2,1,65,0,0
39322,-100,4,2,6,65,0,0
39647,-100,4,2,1,65,0,0
45322,-100,4,2,2,65,0,0
45485,-100,4,2,3,65,0,0
45647,-100,4,2,4,65,0,0
45971,-100,4,2,6,65,0,0
51160,-100,4,2,1,65,0,0
52443,324.324324324324,4,2,6,65,1,0
52443,-100,4,2,6,65,0,0
53072,324.324324324324,4,2,1,65,1,0
53072,-100,4,2,1,65,0,0
53234,-100,4,2,2,65,0,0
53396,-100,4,2,3,65,0,0
53558,-100,4,2,4,65,0,0
53720,324.324324324324,4,2,1,65,1,0
53720,-100,4,2,1,65,0,0
54067,324.324324324324,4,2,1,65,1,0
54067,-100,4,2,1,65,0,0
55706,324.324324324324,4,2,1,70,1,0
55706,-100,4,2,1,70,0,0
56030,-100,4,2,2,65,0,0
56192,-100,4,2,3,65,0,0
56337,324.324324324324,4,2,1,65,1,0
56337,-100,4,2,1,65,0,0
60228,-100,4,2,6,70,0,0
61201,-100,4,2,2,70,0,0
61364,-100,4,2,3,70,0,0
61526,-100,4,2,1,70,0,0
64769,-100,4,2,2,75,0,0
64931,-100,4,2,3,75,0,0
65093,-100,4,2,4,75,0,0
65255,-100,4,2,1,75,0,0
65499,-100,4,2,1,5,0,0
66715,-100,4,2,6,70,0,1
66877,-100,4,2,1,70,0,1
73039,-100,4,2,6,70,0,1
73364,-100,4,2,1,70,0,1
76769,-100,4,2,2,70,0,1
76850,-100,4,2,3,70,0,1
76931,-100,4,2,4,70,0,1
77093,-100,4,2,1,70,0,1
82282,-100,4,2,6,70,0,1
82445,-100,4,2,1,70,0,1
84553,-100,4,2,2,70,0,1
84715,-100,4,2,3,70,0,1
84877,-100,4,2,1,70,0,1
84958,-100,4,2,1,5,0,1
85850,-100,4,2,1,60,0,1
86499,-100,4,2,2,70,0,1
86661,-100,4,2,3,70,0,1
86823,-100,4,2,4,70,0,1
86985,-100,4,2,1,70,0,1
87147,-100,4,2,6,70,0,1
87472,324.324324324324,3,2,1,60,1,1
88768,324.324324324324,4,2,1,60,1,1
88930,-100,4,2,1,70,0,1
89578,-100,4,2,2,70,0,1
89740,-100,4,2,3,70,0,1
89902,-100,4,2,4,70,0,1
90065,324.324324324324,3,2,1,60,1,1
91362,324.324324324324,4,2,1,60,1,1
91524,-100,4,2,1,70,0,1
92010,-100,4,2,2,70,0,1
92172,-100,4,2,1,70,0,1
92334,-100,4,2,3,70,0,1
92497,-100,4,2,4,70,0,1
92659,324.324324324324,3,2,1,60,1,1
93955,324.324324324324,4,2,1,60,1,1
94117,-100,4,2,1,70,0,1
94441,-100,4,2,2,70,0,1
94603,-100,4,2,3,70,0,1
94765,-100,4,2,1,70,0,1
94927,-100,4,2,3,70,0,1
95090,-100,4,2,4,70,0,1
95252,324.324324324324,3,2,1,60,1,1
96549,324.324324324324,4,2,1,60,1,1
97035,-100,4,2,2,70,0,1
97197,-100,4,2,3,70,0,1
97360,-100,4,2,4,70,0,1
97522,-100,4,2,1,70,0,1
97684,-100,4,2,1,40,0,1
97846,-100,4,2,6,70,0,0
103035,-100,4,2,1,5,0,0

[Colours]
Combo1 : 107,175,56
Combo2 : 163,163,163
Combo3 : 145,145,145
Combo4 : 255,160,180
Combo5 : 255,106,136
Combo6 : 128,128,255
Combo7 : 72,72,255
Combo8 : 129,202,98

[HitObjects]
58,114,571,6,0,B|107:97|150:126|134:129|177:165|243:137,1,180,4|2,1:2|0:2,0:0:0:0:
302,90,1543,1,0,0:0:0:0:
353,162,1868,2,0,L|452:153,2,89.9999999999999,2|2|2,1:2|0:2|0:2,0:0:0:0:
251,306,3165,6,0,L|51:288,1,180,2|0,1:2|0:2,0:0:0:0:
28,211,4138,1,2,0:2:0:0:
71,131,4462,2,0,P|111:112|155:116,1,89.9999999999999,0|0,0:0|0:2,0:0:0:0:
224,177,5111,1,2,1:2:0:0:
383,92,5760,70,0,B|411:130|411:130|403:226,2,135,4|2|0,1:2|0:2|0:0,0:0:0:0:
318,154,7057,2,0,B|231:161|231:161|192:132,2,135,2|2|0,1:2|0:2|0:0,0:0:0:0:
314,244,8354,6,0,L|114:261,1,180,2|0,1:2|0:2,0:0:0:0:
44,267,9327,1,0,0:2:0:0:
256,192,9652,12,2,10949,0:2:0:0:
241,134,12246,38,0,B|203:162|203:162|107:154,2,135,4|12|8,1:2|1:2|0:2,0:0:0:0:
314,81,13542,2,0,L|413:72,1,89.9999999999999,0|8,0:0|0:2,0:0:0:0:
446,152,14190,2,0,P|450:196|431:236,1,89.9999999999999,8|8,1:2|1:2,0:0:0:0:
347,271,14839,6,0,L|212:259,2,135,4|12|8,1:2|1:2|0:2,0:0:0:0:
359,181,16136,2,0,L|269:173,1,89.9999999999999,0|8,0:2|0:2,0:0:0:0:
208,106,16784,2,0,L|118:113,1,89.9999999999999,8|8,1:2|1:2,0:0:0:0:
47,169,17433,102,0,P|28:105|59:46,2,135,4|12|8,1:2|1:2|0:2,0:0:0:0:
102,240,18730,2,0,L|94:329,1,89.9999999999999,0|0,0:0|0:0,0:0:0:0:
183,337,19377,2,0,P|223:317|267:322,1,89.9999999999999,8|8,1:2|1:2,0:0:0:0:
353,347,20026,6,0,B|391:375|391:375|487:367,2,135,4|12|8,1:2|1:2|0:2,0:0:0:0:
331,260,21323,1,0,0:0:0:0:
309,173,21647,2,0,L|213:164,2,89.9999999999999,8|8|8,0:2|1:2|1:2,0:0:0:0:
395,197,22620,1,8,0:2:0:0:
395,197,24890,21,12,1:2:0:0:
309,173,25214,102,0,L|213:181,1,89.9999999999999,4|8,1:2|0:2,0:0:0:0:
140,224,25863,2,0,P|128:181|140:138,1,89.9999999999999,2|0,1:2|1:2,0:0:0:0:
215,90,26511,2,0,P|226:47|215:4,2,89.9999999999999,2|10|2,1:2|0:2|1:2,0:0:0:0:
140,138,27484,1,10,0:2:0:0:
65,186,27809,6,0,L|81:365,1,180,2|2,1:2|1:2,0:0:0:0:
168,342,28782,1,2,0:2:0:0:
254,318,29106,1,0,0:0:0:0:
426,270,29755,2,0,P|437:227|426:184,1,89.9999999999999,2|12,1:2|0:2,0:0:0:0:
363,120,30404,102,0,B|401:92|401:92|497:100,2,135,2|2|8,1:2|0:2|0:2,0:0:0:0:
299,183,31701,2,0,B|261:211|261:211|165:203,2,135,2|2|8,1:2|0:2|0:2,0:0:0:0:
236,119,32998,6,0,L|140:111,1,89.9999999999999,2|8,1:2|0:2,0:0:0:0:
63,148,33647,2,0,B|35:186|35:186|43:282,1,135,2|8,1:2|0:2,0:0:0:0:
42,273,34944,2,0,P|85:262|128:273,1,89.9999999999999,8|8,0:2|0:2,0:0:0:0:
140,366,35593,102,0,L|236:358,1,89.9999999999999,4|8,1:2|0:2,0:0:0:0:
290,292,36241,2,0,L|386:300,1,89.9999999999999,2|8,1:2|0:2,0:0:0:0:
459,257,36890,2,0,P|470:300|459:343,2,89.9999999999999,2|10|2,1:2|0:2|1:2,0:0:0:0:
383,209,37863,1,10,0:2:0:0:
306,160,38187,6,0,L|126:177,1,180,4|0,1:2|1:2,0:0:0:0:
50,128,39160,1,10,0:2:0:0:
98,51,39484,2,0,L|194:43,1,89.9999999999999,0|8,0:0|0:2,0:0:0:0:
277,35,40133,2,0,L|373:27,1,89.9999999999999,10|10,0:2|0:2,0:0:0:0:
433,88,40782,102,0,B|405:126|405:126|413:222,2,135,4|2|8,1:2|0:2|0:2,0:0:0:0:
497,150,42079,2,0,B|504:237|504:237|476:275,2,135,4|2|8,1:2|0:2|0:2,0:0:0:0:
433,88,43376,6,0,B|384:71|341:100|357:103|314:139|248:111,1,180,2|0,1:2|1:2,0:0:0:0:
179,79,44349,1,0,0:0:0:0:
105,132,44674,2,0,P|93:174|104:217,1,89.9999999999999,0|0,0:0|0:0,0:0:0:0:
180,266,45322,2,0,P|222:254|265:266,1,89.9999999999999,8|8,0:2|0:2,0:0:0:0:
349,299,45971,38,0,L|367:99,1,180,4|10,1:2|0:2,0:0:0:0:
419,47,46944,1,2,0:2:0:0:
329,37,47268,2,0,L|233:29,2,89.9999999999999,0|2|10,0:0|1:2|0:2,0:0:0:0:
402,202,48565,6,0,B|353:185|310:214|326:217|283:253|217:225,1,180,4|10,1:2|0:2,0:0:0:0:
150,187,49538,1,0,0:0:0:0:
70,145,49863,2,0,P|59:188|71:231,2,89.9999999999999,2|2|10,1:2|1:2|0:2,0:0:0:0:
216,40,51160,102,0,L|416:58,1,180,4|10,1:2|0:2,0:0:0:0:
484,66,52133,1,2,0:2:0:0:
431,138,52443,2,0,L|423:227,1,89.9999999999999,2|2,1:2|1:2,0:0:0:0:
413,311,53072,1,10,0:2:0:0:
256,224,53720,5,4,1:2:0:0:
99,311,54391,2,0,L|91:221,1,89.9999999999999,10|2,0:2|0:2,0:0:0:0:
9,183,55039,2,0,L|16:93,1,89.9999999999999,8|10,0:2|0:2,0:0:0:0:
97,42,55706,2,0,P|139:30|182:42,1,89.9999999999999,8|8,0:2|0:2,0:0:0:0:
253,89,56337,38,0,L|453:71,1,180,4|0,1:2|0:0,0:0:0:0:
503,127,57309,1,8,0:2:0:0:
448,197,57634,2,0,L|455:286,1,89.9999999999999,2|10,1:2|0:2,0:0:0:0:
383,340,58282,2,0,P|341:352|298:340,1,89.9999999999999,2|10,1:2|0:2,0:0:0:0:
226,284,58931,6,0,B|177:267|134:296|150:299|107:335|41:307,1,180,2|2,1:2|1:2,0:0:0:0:
87,227,59904,1,10,0:2:0:0:
48,145,60228,2,0,B|41:58|41:58|70:19,2,135,4|2|8,1:2|0:2|0:2,0:0:0:0:
87,227,61526,6,0,L|176:219,1,89.9999999999999,12|8,1:2|0:2,0:0:0:0:
245,162,62174,2,0,L|334:169,1,89.9999999999999,8|8,0:2|0:2,0:0:0:0:
383,93,62823,1,8,0:2:0:0:
459,140,63147,2,0,P|471:182|458:225,2,89.9999999999999,10|10|10,0:2|0:2|0:2,0:0:0:0:
256,192,64120,12,8,65418,0:2:0:0:
109,92,66715,54,0,B|158:75|201:104|185:107|228:143|294:115,1,180,4|2,1:2|1:2,0:0:0:0:
355,70,67688,1,8,0:2:0:0:
405,145,68012,2,0,L|398:234,1,89.9999999999999,2|10,1:2|0:2,0:0:0:0:
342,306,68661,2,0,P|300:294|257:307,1,89.9999999999999,2|8,1:2|0:2,0:0:0:0:
174,343,69309,6,0,L|156:143,1,180,4|2,1:2|1:2,0:0:0:0:
100,94,70282,1,8,0:2:0:0:
188,78,70607,2,0,L|277:85,1,89.9999999999999,2|10,1:2|0:2,0:0:0:0:
347,142,71255,2,0,L|436:135,1,89.9999999999999,0|8,0:0|0:2,0:0:0:0:
504,194,71904,102,0,P|517:236|505:279,2,89.9999999999999,2|10|2,1:2|0:2|1:2,0:0:0:0:
436,134,72877,1,10,0:2:0:0:
366,73,73201,2,0,B|319:57|276:86|292:89|249:125|196:101,1,180,0|2,0:0|1:2,0:0:0:0:
116,62,74174,1,8,0:2:0:0:
76,142,74499,6,0,P|42:112|28:71,2,89.9999999999999,4|10|2,1:2|0:2|1:2,0:0:0:0:
156,181,75472,1,10,0:2:0:0:
236,220,75796,2,0,L|243:309,1,89.9999999999999,8|2,0:2|0:2,0:0:0:0:
324,347,76445,2,0,P|366:360|409:348,1,89.9999999999999,10|8,0:2|0:2,0:0:0:0:
491,312,77093,101,4,1:2:0:0:
414,148,77742,2,0,P|372:135|329:147,1,89.9999999999999,2|8,1:2|0:2,0:0:0:0:
252,194,78391,2,0,L|259:283,2,89.9999999999999,2|10|2,1:2|0:2|1:2,0:0:0:0:
250,104,79364,1,8,0:2:0:0:
248,14,79688,6,0,B|199:-3|156:26|172:29|129:65|63:37,1,180,4|2,1:2|1:2,0:0:0:0:
11,104,80661,1,8,0:2:0:0:
73,169,80985,2,0,P|85:211|72:254,1,89.9999999999999,2|10,1:2|0:2,0:0:0:0:
29,334,81634,2,0,P|71:346|114:334,1,89.9999999999999,8|8,0:2|0:2,0:0:0:0:
194,291,82282,102,0,L|283:298,1,89.9999999999999,12|10,1:2|0:2,0:0:0:0:
351,357,82931,2,0,L|440:350,1,89.9999999999999,10|10,0:2|0:2,0:0:0:0:
497,280,83580,2,0,P|510:237|497:194,2,89.9999999999999,8|8|8,0:2|0:2|0:2,0:0:0:0:
440,349,84553,1,8,0:2:0:0:
371,292,84877,1,4,1:2:0:0:
371,292,86174,102,0,B|320:279|280:311|296:313|256:353|188:331,1,180,8|8,0:2|0:2,0:0:0:0:
137,272,87147,1,12,0:2:0:0:
71,210,87472,22,0,B|43:248|43:248|51:344,2,135,4|12|8,1:2|1:2|0:2,0:0:0:0:
120,134,88768,2,0,P|163:147|206:134,1,89.9999999999999,2|0,1:2|0:0,0:0:0:0:
253,58,89416,2,0,L|348:49,1,89.9999999999999,8|8,1:2|1:2,0:0:0:0:
426,84,90065,102,0,L|444:284,1,180,4|0,1:2|0:0,0:0:0:0:
449,353,91037,1,0,0:0:0:0:
367,313,91362,2,0,P|324:300|281:313,1,89.9999999999999,0|8,0:0|1:2,0:0:0:0:
199,348,92010,2,0,P|156:360|113:348,1,89.9999999999999,8|8,1:2|1:2,0:0:0:0:
31,312,92659,6,0,L|47:132,1,180,4|0,1:2|0:0,0:0:0:0:
58,43,93631,1,8,0:2:0:0:
130,97,93956,2,0,L|225:88,1,89.9999999999999,0|0,0:2|0:0,0:0:0:0:
309,82,94603,2,0,L|404:73,1,89.9999999999999,8|8,1:2|1:2,0:0:0:0:
413,162,95252,102,0,B|362:149|322:181|338:183|298:223|230:201,1,180,4|0,1:2|0:0,0:0:0:0:
155,191,96224,1,8,0:2:0:0:
65,177,96549,2,0,L|73:272,2,89.9999999999999,0|8|8,0:0|0:2|0:2,0:0:0:0:
256,192,97846,12,0,103035,0:2:0:0:
