osu file format v14

[General]
AudioFilename: audio.mp3
AudioLeadIn: 0
PreviewTime: 62935
Countdown: 0
SampleSet: Normal
StackLeniency: 0.7
Mode: 1
LetterboxInBreaks: 0
WidescreenStoryboard: 0

[Editor]
DistanceSpacing: 0.9
BeatDivisor: 3
GridSize: 32
TimelineZoom: 2.3

[Metadata]
Title:COMIC PANIC!!!
TitleUnicode:COMIC PANIC!!!
Artist:Afterglow
ArtistUnicode:Afterglow
Creator:Lost The Lights
Version:Oni
Source:バンドリ! ガールズバンドパーティ!
Tags:bandori bang dream! girls band party!
BeatmapID:2046709
BeatmapSetID:977950

[Difficulty]
HPDrainRate:6
CircleSize:5
OverallDifficulty:6
ApproachRate:9
SliderMultiplier:1.4
SliderTickRate:1

[Events]
//Background and Video events
0,0,"maxresdefault (Copy).jpg",0,75
//Break Periods
//Storyboard Layer 0 (Background)
//Storyboard Layer 1 (Fail)
//Storyboard Layer 2 (Pass)
//Storyboard Layer 3 (Foreground)
//Storyboard Sound Samples

[TimingPoints]
650,285.714285714286,4,1,0,60,1,0
8840,-100,4,1,0,70,0,0
10173,-100,4,1,0,80,0,0
20364,-100,4,1,0,60,0,0
22078,-100,4,1,0,80,0,0
22650,-100,4,1,0,60,0,0
24364,-100,4,1,0,80,0,0
24935,-100,4,1,0,60,0,0
25697,-100,4,1,0,70,0,0
26935,-100,4,1,0,80,0,0
63411,-83.3333333333333,4,1,0,90,0,1
97792,-86.9565217391304,4,1,0,70,0,0
98078,-90.9090909090909,4,1,0,70,0,0
98364,-95.2380952380952,4,1,0,70,0,0
98650,-100,4,1,0,70,0,0
99792,-100,4,1,0,80,0,0
100364,-100,4,1,0,70,0,0
102078,-100,4,1,0,80,0,0
116078,-100,4,1,0,60,0,0
118078,-100,4,1,0,80,0,0
118650,-100,4,1,0,60,0,0
120364,-100,4,1,0,80,0,0
120935,-100,4,1,0,60,0,0
121697,-100,4,1,0,70,0,0
122935,-100,4,1,0,80,0,0
159411,-83.3333333333333,4,1,0,90,0,1
193792,-86.9565217391304,4,1,0,60,0,0
194078,-90.9090909090909,4,1,0,60,0,0
194364,-95.2380952380952,4,1,0,60,0,0
194554,-98.0392156862745,4,1,0,60,0,0
194650,-100,4,1,0,60,0,0
203221,-100,4,1,0,80,0,0
232554,-100,4,1,0,70,0,0
240650,-100,4,1,0,80,0,0
241792,-83.3333333333333,4,1,0,90,0,1
266935,-86.9565217391304,4,1,0,70,0,0
267221,-90.9090909090909,4,1,0,70,0,0
267507,-95.2380952380952,4,1,0,70,0,0
267792,-100,4,1,0,70,0,0
268935,-100,4,1,0,80,0,0
269507,-100,4,1,0,70,0,0
271221,-100,4,1,0,80,0,0
271650,-100,4,1,0,70,0,0
273792,-100,4,1,0,80,0,0

[HitObjects]
256,192,650,5,0,0:0:0:0:
256,192,840,1,8,0:0:0:0:
256,192,935,1,0,0:0:0:0:
256,192,1126,1,0,0:0:0:0:
256,192,1221,1,8,0:0:0:0:
256,192,1411,1,8,0:0:0:0:
256,192,1507,1,0,0:0:0:0:
256,192,1697,1,0,0:0:0:0:
256,192,1792,1,12,0:0:0:0:
256,192,2364,1,8,0:0:0:0:
256,192,2935,1,8,0:0:0:0:
256,192,3364,1,8,0:0:0:0:
256,192,4078,1,0,0:0:0:0:
256,192,4221,1,8,0:0:0:0:
256,192,4507,1,0,0:0:0:0:
256,192,4650,1,8,0:0:0:0:
256,192,4935,1,8,0:0:0:0:
256,192,5221,1,8,0:0:0:0:
256,192,5650,1,8,0:0:0:0:
256,192,6364,1,8,0:0:0:0:
256,192,6650,1,0,0:0:0:0:
256,192,6935,1,8,0:0:0:0:
256,192,7221,1,0,0:0:0:0:
256,192,7507,1,8,0:0:0:0:
256,192,7697,1,0,0:0:0:0:
256,192,7792,1,8,0:0:0:0:
256,192,8078,1,8,0:0:0:0:
256,192,8269,1,8,0:0:0:0:
256,192,8364,1,0,0:0:0:0:
256,192,8554,1,0,0:0:0:0:
256,192,8650,1,0,0:0:0:0:
256,192,8840,1,12,0:0:0:0:
256,192,9030,1,12,0:0:0:0:
256,192,9221,1,12,0:0:0:0:
256,192,9411,1,12,0:0:0:0:
256,192,9602,1,12,0:0:0:0:
256,192,9792,1,12,0:0:0:0:
256,192,10173,1,0,0:0:0:0:
256,192,10269,1,8,0:0:0:0:
256,192,10364,1,8,0:0:0:0:
256,192,10459,1,8,0:0:0:0:
256,192,10554,1,0,0:0:0:0:
256,192,10650,1,0,0:0:0:0:
256,192,10745,1,0,0:0:0:0:
256,192,10840,1,0,0:0:0:0:
256,192,10935,1,12,0:0:0:0:
256,192,11221,1,8,0:0:0:0:
256,192,11411,1,0,0:0:0:0:
256,192,11507,1,8,0:0:0:0:
256,192,11697,1,8,0:0:0:0:
256,192,11792,1,0,0:0:0:0:
256,192,11983,1,8,0:0:0:0:
256,192,12269,1,0,0:0:0:0:
256,192,12364,1,8,0:0:0:0:
256,192,12507,1,0,0:0:0:0:
256,192,12650,1,8,0:0:0:0:
256,192,12840,1,0,0:0:0:0:
256,192,12935,1,8,0:0:0:0:
256,192,13221,1,0,0:0:0:0:
256,192,13411,1,8,0:0:0:0:
256,192,13507,1,0,0:0:0:0:
256,192,13697,1,0,0:0:0:0:
256,192,13792,1,8,0:0:0:0:
256,192,13983,1,8,0:0:0:0:
256,192,14078,1,0,0:0:0:0:
256,192,14269,1,12,0:0:0:0:
256,192,14554,1,0,0:0:0:0:
256,192,14650,1,8,0:0:0:0:
256,192,14840,1,0,0:0:0:0:
256,192,14935,1,8,0:0:0:0:
256,192,15126,1,0,0:0:0:0:
256,192,15221,1,8,0:0:0:0:
256,192,15507,1,8,0:0:0:0:
256,192,15792,1,8,0:0:0:0:
256,192,15983,1,8,0:0:0:0:
256,192,16078,1,0,0:0:0:0:
256,192,16269,1,0,0:0:0:0:
256,192,16364,1,8,0:0:0:0:
256,192,16554,1,0,0:0:0:0:
256,192,16650,1,8,0:0:0:0:
256,192,16935,1,8,0:0:0:0:
256,192,17126,1,8,0:0:0:0:
256,192,17221,1,0,0:0:0:0:
256,192,17411,1,0,0:0:0:0:
256,192,17507,1,8,0:0:0:0:
256,192,17697,1,0,0:0:0:0:
256,192,17792,1,12,0:0:0:0:
256,192,18078,1,12,0:0:0:0:
256,192,18364,1,4,0:0:0:0:
256,192,18554,1,12,0:0:0:0:
256,192,18840,1,12,0:0:0:0:
256,192,19507,1,8,0:0:0:0:
256,192,19602,1,8,0:0:0:0:
256,192,19697,1,8,0:0:0:0:
256,192,19792,1,8,0:0:0:0:
256,192,19888,1,8,0:0:0:0:
256,192,19983,1,8,0:0:0:0:
256,192,20078,1,4,0:0:0:0:
256,192,20364,1,0,0:0:0:0:
256,192,20650,1,8,0:0:0:0:
256,192,20840,1,0,0:0:0:0:
256,192,21126,1,8,0:0:0:0:
256,192,21507,1,0,0:0:0:0:
256,192,21792,1,8,0:0:0:0:
256,192,22078,1,12,0:0:0:0:
256,192,22364,1,12,0:0:0:0:
256,192,22650,1,8,0:0:0:0:
256,192,22935,1,8,0:0:0:0:
256,192,23126,1,0,0:0:0:0:
256,192,23411,1,8,0:0:0:0:
256,192,23697,1,8,0:0:0:0:
256,192,23792,1,0,0:0:0:0:
256,192,24078,1,0,0:0:0:0:
256,192,24364,1,12,0:0:0:0:
256,192,24650,1,12,0:0:0:0:
256,192,24935,1,0,0:0:0:0:
256,192,25221,1,8,0:0:0:0:
256,192,25411,1,0,0:0:0:0:
256,192,25697,1,0,0:0:0:0:
256,192,25792,1,8,0:0:0:0:
256,192,25983,1,8,0:0:0:0:
256,192,26078,1,0,0:0:0:0:
256,192,26269,1,0,0:0:0:0:
256,192,26364,1,8,0:0:0:0:
256,192,26650,1,8,0:0:0:0:
256,192,26840,1,0,0:0:0:0:
256,192,26935,1,8,0:0:0:0:
256,192,27221,1,0,0:0:0:0:
256,192,27411,1,0,0:0:0:0:
256,192,27507,1,8,0:0:0:0:
256,192,27792,1,0,0:0:0:0:
256,192,27983,1,8,0:0:0:0:
256,192,28269,1,0,0:0:0:0:
256,192,28364,1,8,0:0:0:0:
256,192,28650,1,8,0:0:0:0:
256,192,28840,1,0,0:0:0:0:
256,192,28935,1,8,0:0:0:0:
256,192,29126,1,8,0:0:0:0:
256,192,29221,1,0,0:0:0:0:
256,192,29411,1,0,0:0:0:0:
256,192,29507,1,8,0:0:0:0:
256,192,29697,1,0,0:0:0:0:
256,192,29792,1,8,0:0:0:0:
256,192,29983,1,8,0:0:0:0:
256,192,30078,1,0,0:0:0:0:
256,192,30269,1,8,0:0:0:0:
256,192,30554,1,8,0:0:0:0:
256,192,30650,1,0,0:0:0:0:
256,192,30840,1,0,0:0:0:0:
256,192,30935,1,8,0:0:0:0:
256,192,31126,1,0,0:0:0:0:
256,192,31221,1,12,0:0:0:0:
256,192,31507,1,12,0:0:0:0:
256,192,31697,1,0,0:0:0:0:
256,192,31792,1,8,0:0:0:0:
256,192,31983,1,0,0:0:0:0:
256,192,32078,1,8,0:0:0:0:
256,192,32269,1,8,0:0:0:0:
256,192,32364,1,0,0:0:0:0:
256,192,32554,1,8,0:0:0:0:
256,192,32840,1,0,0:0:0:0:
256,192,32935,1,8,0:0:0:0:
256,192,33126,1,8,0:0:0:0:
256,192,33221,1,0,0:0:0:0:
256,192,33411,1,0,0:0:0:0:
256,192,33507,1,12,0:0:0:0:
256,192,33792,1,12,0:0:0:0:
256,192,33983,1,0,0:0:0:0:
256,192,34078,1,8,0:0:0:0:
256,192,34269,1,8,0:0:0:0:
256,192,34364,1,8,0:0:0:0:
256,192,34554,1,8,0:0:0:0:
256,192,34650,1,0,0:0:0:0:
256,192,34840,1,8,0:0:0:0:
256,192,35126,1,0,0:0:0:0:
256,192,35221,1,8,0:0:0:0:
256,192,35411,1,0,0:0:0:0:
256,192,35507,1,8,0:0:0:0:
256,192,35697,1,0,0:0:0:0:
256,192,35792,1,12,0:0:0:0:
256,192,36078,1,12,0:0:0:0:
256,192,36269,1,0,0:0:0:0:
256,192,36364,1,8,0:0:0:0:
256,192,36650,1,8,0:0:0:0:
256,192,36840,1,8,0:0:0:0:
256,192,36935,1,0,0:0:0:0:
256,192,37126,1,12,0:0:0:0:
256,192,37411,1,8,0:0:0:0:
256,192,37507,1,8,0:0:0:0:
256,192,37792,1,8,0:0:0:0:
256,192,38078,1,8,0:0:0:0:
256,192,38173,1,0,0:0:0:0:
256,192,38554,1,8,0:0:0:0:
256,192,38650,1,0,0:0:0:0:
256,192,38840,1,8,0:0:0:0:
256,192,38935,1,0,0:0:0:0:
256,192,39126,1,0,0:0:0:0:
256,192,39221,1,8,0:0:0:0:
256,192,39411,1,0,0:0:0:0:
256,192,39507,1,8,0:0:0:0:
256,192,39602,1,8,0:0:0:0:
256,192,39697,1,8,0:0:0:0:
256,192,39792,1,0,0:0:0:0:
256,192,39983,1,0,0:0:0:0:
256,192,40078,1,8,0:0:0:0:
256,192,40269,1,8,0:0:0:0:
256,192,40364,1,0,0:0:0:0:
256,192,40554,1,8,0:0:0:0:
256,192,40650,1,12,0:0:0:0:
256,192,40840,1,0,0:0:0:0:
256,192,40935,1,8,0:0:0:0:
256,192,41126,1,8,0:0:0:0:
256,192,41221,1,8,0:0:0:0:
256,192,41411,1,8,0:0:0:0:
256,192,41507,1,0,0:0:0:0:
256,192,41697,1,0,0:0:0:0:
256,192,41792,1,8,0:0:0:0:
256,192,41983,1,8,0:0:0:0:
256,192,42078,1,0,0:0:0:0:
256,192,42269,1,8,0:0:0:0:
256,192,42554,1,0,0:0:0:0:
256,192,42650,1,8,0:0:0:0:
256,192,42840,1,0,0:0:0:0:
256,192,42935,1,8,0:0:0:0:
256,192,43126,1,8,0:0:0:0:
256,192,43221,1,8,0:0:0:0:
256,192,43411,1,0,0:0:0:0:
256,192,43507,1,8,0:0:0:0:
256,192,43697,1,8,0:0:0:0:
256,192,43792,1,8,0:0:0:0:
256,192,43983,1,0,0:0:0:0:
256,192,44078,1,8,0:0:0:0:
256,192,44269,1,8,0:0:0:0:
256,192,44364,1,0,0:0:0:0:
256,192,44554,1,8,0:0:0:0:
256,192,44840,1,0,0:0:0:0:
256,192,44935,1,8,0:0:0:0:
256,192,45126,1,8,0:0:0:0:
256,192,45221,1,0,0:0:0:0:
256,192,45507,1,8,0:0:0:0:
256,192,45792,1,0,0:0:0:0:
256,192,45983,1,0,0:0:0:0:
256,192,46078,1,8,0:0:0:0:
256,192,46269,1,8,0:0:0:0:
256,192,46364,1,0,0:0:0:0:
256,192,46554,1,0,0:0:0:0:
256,192,46650,1,8,0:0:0:0:
256,192,46840,1,8,0:0:0:0:
256,192,46935,1,8,0:0:0:0:
256,192,47126,1,0,0:0:0:0:
256,192,47221,1,8,0:0:0:0:
256,192,47411,1,8,0:0:0:0:
256,192,47507,1,8,0:0:0:0:
256,192,47792,1,0,0:0:0:0:
256,192,48078,1,8,0:0:0:0:
256,192,48269,1,8,0:0:0:0:
256,192,48364,1,0,0:0:0:0:
256,192,48554,1,12,0:0:0:0:
256,192,48840,1,12,0:0:0:0:
256,192,49126,1,12,0:0:0:0:
256,192,49411,1,0,0:0:0:0:
256,192,49507,1,8,0:0:0:0:
256,192,49697,1,8,0:0:0:0:
256,192,49792,1,8,0:0:0:0:
256,192,49983,1,0,0:0:0:0:
256,192,50078,1,8,0:0:0:0:
256,192,50269,1,8,0:0:0:0:
256,192,50364,1,8,0:0:0:0:
256,192,50554,1,0,0:0:0:0:
256,192,50650,1,8,0:0:0:0:
256,192,50840,1,0,0:0:0:0:
256,192,50935,1,12,0:0:0:0:
256,192,51126,1,12,0:0:0:0:
256,192,51411,1,12,0:0:0:0:
256,192,51697,1,8,0:0:0:0:
256,192,51792,1,0,0:0:0:0:
256,192,51983,1,0,0:0:0:0:
256,192,52078,1,8,0:0:0:0:
256,192,52269,1,0,0:0:0:0:
256,192,52364,1,8,0:0:0:0:
256,192,52554,1,8,0:0:0:0:
256,192,52650,1,8,0:0:0:0:
256,192,52840,1,8,0:0:0:0:
256,192,52935,1,0,0:0:0:0:
256,192,53126,1,0,0:0:0:0:
256,192,53221,1,8,0:0:0:0:
256,192,53316,1,0,0:0:0:0:
256,192,53411,1,8,0:0:0:0:
256,192,53507,1,0,0:0:0:0:
256,192,53602,1,0,0:0:0:0:
256,192,53697,1,8,0:0:0:0:
256,192,53792,1,0,0:0:0:0:
256,192,53888,1,0,0:0:0:0:
256,192,53983,1,8,0:0:0:0:
256,192,54078,1,8,0:0:0:0:
256,192,54173,1,0,0:0:0:0:
256,192,54269,1,8,0:0:0:0:
256,192,54364,1,0,0:0:0:0:
256,192,54650,1,8,0:0:0:0:
256,192,54840,1,0,0:0:0:0:
256,192,54935,1,8,0:0:0:0:
256,192,55126,1,0,0:0:0:0:
256,192,55221,1,8,0:0:0:0:
256,192,55507,1,8,0:0:0:0:
256,192,55697,1,0,0:0:0:0:
256,192,55792,1,8,0:0:0:0:
256,192,55983,1,8,0:0:0:0:
256,192,56078,1,0,0:0:0:0:
256,192,56269,1,0,0:0:0:0:
256,192,56364,1,8,0:0:0:0:
256,192,56650,1,8,0:0:0:0:
256,192,56840,1,0,0:0:0:0:
256,192,56935,1,8,0:0:0:0:
256,192,57126,1,0,0:0:0:0:
256,192,57221,1,8,0:0:0:0:
256,192,57411,1,0,0:0:0:0:
256,192,57507,1,8,0:0:0:0:
256,192,57697,1,8,0:0:0:0:
256,192,57792,1,0,0:0:0:0:
256,192,57983,1,0,0:0:0:0:
256,192,58078,1,8,0:0:0:0:
256,192,58269,1,8,0:0:0:0:
256,192,58364,1,8,0:0:0:0:
256,192,58554,1,8,0:0:0:0:
256,192,58650,1,0,0:0:0:0:
256,192,58935,1,0,0:0:0:0:
256,192,59221,1,8,0:0:0:0:
256,192,59507,1,0,0:0:0:0:
256,192,59697,1,12,0:0:0:0:
256,192,60078,1,12,0:0:0:0:
256,192,60554,1,12,0:0:0:0:
256,192,60935,1,12,0:0:0:0:
256,192,61221,1,4,0:0:0:0:
256,192,61411,1,12,0:0:0:0:
256,192,61602,1,4,0:0:0:0:
256,192,61792,1,12,0:0:0:0:
256,192,61983,1,4,0:0:0:0:
256,192,62173,1,4,0:0:0:0:
256,192,62364,1,12,0:0:0:0:
256,192,62745,1,0,0:0:0:0:
256,192,62840,1,0,0:0:0:0:
256,192,62935,1,8,0:0:0:0:
256,192,63126,1,8,0:0:0:0:
256,192,63221,1,0,0:0:0:0:
256,192,63411,1,12,0:0:0:0:
256,192,63697,1,0,0:0:0:0:
256,192,63792,1,8,0:0:0:0:
256,192,63983,1,8,0:0:0:0:
256,192,64078,1,0,0:0:0:0:
256,192,64269,1,0,0:0:0:0:
256,192,64364,1,8,0:0:0:0:
256,192,64554,1,8,0:0:0:0:
256,192,64650,1,0,0:0:0:0:
256,192,64840,1,0,0:0:0:0:
256,192,64935,1,8,0:0:0:0:
256,192,65126,1,0,0:0:0:0:
256,192,65221,1,8,0:0:0:0:
256,192,65411,1,8,0:0:0:0:
256,192,65507,1,8,0:0:0:0:
256,192,65697,1,8,0:0:0:0:
256,192,65983,1,0,0:0:0:0:
256,192,66078,1,8,0:0:0:0:
256,192,66269,1,8,0:0:0:0:
256,192,66364,1,0,0:0:0:0:
256,192,66554,1,0,0:0:0:0:
256,192,66650,1,8,0:0:0:0:
256,192,66840,1,8,0:0:0:0:
256,192,66935,1,0,0:0:0:0:
256,192,67126,1,0,0:0:0:0:
256,192,67221,1,8,0:0:0:0:
256,192,67411,1,8,0:0:0:0:
256,192,67507,1,8,0:0:0:0:
256,192,67697,1,8,0:0:0:0:
256,192,67792,1,0,0:0:0:0:
256,192,67983,1,12,0:0:0:0:
256,192,68269,1,0,0:0:0:0:
256,192,68364,1,8,0:0:0:0:
256,192,68554,1,8,0:0:0:0:
256,192,68650,1,0,0:0:0:0:
256,192,68840,1,0,0:0:0:0:
256,192,68935,1,8,0:0:0:0:
256,192,69126,1,8,0:0:0:0:
256,192,69221,1,0,0:0:0:0:
256,192,69411,1,0,0:0:0:0:
256,192,69507,1,8,0:0:0:0:
256,192,69697,1,8,0:0:0:0:
256,192,69792,1,8,0:0:0:0:
256,192,69983,1,0,0:0:0:0:
256,192,70078,1,8,0:0:0:0:
256,192,70269,1,12,0:0:0:0:
256,192,70554,1,0,0:0:0:0:
256,192,70650,1,8,0:0:0:0:
256,192,70840,1,0,0:0:0:0:
256,192,70935,1,8,0:0:0:0:
256,192,71126,1,0,0:0:0:0:
256,192,71221,1,8,0:0:0:0:
256,192,71316,1,8,0:0:0:0:
256,192,71411,1,8,0:0:0:0:
256,192,71507,1,0,0:0:0:0:
256,192,71697,1,8,0:0:0:0:
256,192,71792,1,0,0:0:0:0:
256,192,71983,1,12,0:0:0:0:
256,192,72269,1,12,0:0:0:0:
256,192,72650,1,4,0:0:0:0:
256,192,72840,1,0,0:0:0:0:
256,192,72935,1,8,0:0:0:0:
256,192,73126,1,0,0:0:0:0:
256,192,73221,1,8,0:0:0:0:
256,192,73411,1,0,0:0:0:0:
256,192,73507,1,8,0:0:0:0:
256,192,73697,1,8,0:0:0:0:
256,192,73792,1,0,0:0:0:0:
256,192,73983,1,8,0:0:0:0:
256,192,74078,1,8,0:0:0:0:
256,192,74269,1,8,0:0:0:0:
256,192,74554,1,8,0:0:0:0:
256,192,74650,1,0,0:0:0:0:
256,192,74840,1,8,0:0:0:0:
256,192,75126,1,8,0:0:0:0:
256,192,75221,1,0,0:0:0:0:
256,192,75411,1,8,0:0:0:0:
256,192,75507,1,0,0:0:0:0:
256,192,75697,1,0,0:0:0:0:
256,192,75792,1,8,0:0:0:0:
256,192,75983,1,0,0:0:0:0:
256,192,76078,1,8,0:0:0:0:
256,192,76269,1,8,0:0:0:0:
256,192,76364,1,0,0:0:0:0:
256,192,76554,1,8,0:0:0:0:
256,192,76840,1,0,0:0:0:0:
256,192,76935,1,8,0:0:0:0:
256,192,77126,1,8,0:0:0:0:
256,192,77221,1,0,0:0:0:0:
256,192,77411,1,8,0:0:0:0:
256,192,77507,1,0,0:0:0:0:
256,192,77697,1,8,0:0:0:0:
256,192,77792,1,0,0:0:0:0:
256,192,77983,1,0,0:0:0:0:
256,192,78078,1,8,0:0:0:0:
256,192,78269,1,8,0:0:0:0:
256,192,78364,1,0,0:0:0:0:
256,192,78554,1,0,0:0:0:0:
256,192,78650,1,8,0:0:0:0:
256,192,78840,1,0,0:0:0:0:
256,192,78935,1,8,0:0:0:0:
256,192,79126,1,8,0:0:0:0:
256,192,79221,1,8,0:0:0:0:
256,192,79411,1,0,0:0:0:0:
256,192,79507,1,12,0:0:0:0:
256,192,79792,1,12,0:0:0:0:
256,192,80078,1,12,0:0:0:0:
256,192,80269,1,12,0:0:0:0:
256,192,80554,1,12,0:0:0:0:
256,192,80840,1,0,0:0:0:0:
256,192,80935,1,8,0:0:0:0:
256,192,81126,1,8,0:0:0:0:
256,192,81221,1,0,0:0:0:0:
256,192,81411,1,0,0:0:0:0:
256,192,81507,1,8,0:0:0:0:
256,192,81697,1,12,0:0:0:0:
256,192,81983,1,0,0:0:0:0:
256,192,82078,1,8,0:0:0:0:
256,192,82269,1,8,0:0:0:0:
256,192,82364,1,0,0:0:0:0:
256,192,82554,1,0,0:0:0:0:
256,192,82650,1,8,0:0:0:0:
256,192,82840,1,8,0:0:0:0:
256,192,82935,1,0,0:0:0:0:
256,192,83126,1,0,0:0:0:0:
256,192,83221,1,8,0:0:0:0:
256,192,83411,1,0,0:0:0:0:
256,192,83507,1,8,0:0:0:0:
256,192,83697,1,8,0:0:0:0:
256,192,83792,1,8,0:0:0:0:
256,192,83983,1,8,0:0:0:0:
256,192,84269,1,0,0:0:0:0:
256,192,84364,1,8,0:0:0:0:
256,192,84554,1,8,0:0:0:0:
256,192,84650,1,0,0:0:0:0:
256,192,84840,1,0,0:0:0:0:
256,192,84935,1,8,0:0:0:0:
256,192,85126,1,8,0:0:0:0:
256,192,85221,1,0,0:0:0:0:
256,192,85411,1,0,0:0:0:0:
256,192,85507,1,8,0:0:0:0:
256,192,85697,1,8,0:0:0:0:
256,192,85792,1,8,0:0:0:0:
256,192,85983,1,8,0:0:0:0:
256,192,86078,1,0,0:0:0:0:
256,192,86269,1,12,0:0:0:0:
256,192,86554,1,0,0:0:0:0:
256,192,86650,1,8,0:0:0:0:
256,192,86840,1,8,0:0:0:0:
256,192,86935,1,0,0:0:0:0:
256,192,87126,1,0,0:0:0:0:
256,192,87221,1,8,0:0:0:0:
256,192,87411,1,8,0:0:0:0:
256,192,87507,1,0,0:0:0:0:
256,192,87697,1,0,0:0:0:0:
256,192,87792,1,8,0:0:0:0:
256,192,87983,1,8,0:0:0:0:
256,192,88078,1,8,0:0:0:0:
256,192,88269,1,0,0:0:0:0:
256,192,88364,1,8,0:0:0:0:
256,192,88554,1,12,0:0:0:0:
256,192,88840,1,0,0:0:0:0:
256,192,88935,1,8,0:0:0:0:
256,192,89126,1,0,0:0:0:0:
256,192,89221,1,8,0:0:0:0:
256,192,89411,1,0,0:0:0:0:
256,192,89507,1,8,0:0:0:0:
256,192,89697,1,8,0:0:0:0:
256,192,89792,1,0,0:0:0:0:
256,192,89983,1,8,0:0:0:0:
256,192,90078,1,0,0:0:0:0:
256,192,90173,1,0,0:0:0:0:
256,192,90269,1,8,0:0:0:0:
256,192,90364,1,8,0:0:0:0:
256,192,90554,1,8,0:0:0:0:
256,192,90650,1,8,0:0:0:0:
256,192,90745,1,0,0:0:0:0:
256,192,90840,1,8,0:0:0:0:
256,192,90935,1,4,0:0:0:0:
256,192,91126,1,0,0:0:0:0:
256,192,91221,1,8,0:0:0:0:
256,192,91411,1,0,0:0:0:0:
256,192,91507,1,8,0:0:0:0:
256,192,91697,1,0,0:0:0:0:
256,192,91792,1,8,0:0:0:0:
256,192,91983,1,8,0:0:0:0:
256,192,92078,1,0,0:0:0:0:
256,192,92269,1,8,0:0:0:0:
256,192,92364,1,8,0:0:0:0:
256,192,92554,1,8,0:0:0:0:
256,192,92840,1,8,0:0:0:0:
256,192,92935,1,0,0:0:0:0:
256,192,93126,1,8,0:0:0:0:
256,192,93411,1,8,0:0:0:0:
256,192,93507,1,0,0:0:0:0:
256,192,93697,1,8,0:0:0:0:
256,192,93792,1,0,0:0:0:0:
256,192,93983,1,0,0:0:0:0:
256,192,94078,1,8,0:0:0:0:
256,192,94269,1,0,0:0:0:0:
256,192,94364,1,8,0:0:0:0:
256,192,94554,1,8,0:0:0:0:
256,192,94650,1,0,0:0:0:0:
256,192,94840,1,8,0:0:0:0:
256,192,95126,1,0,0:0:0:0:
256,192,95221,1,8,0:0:0:0:
256,192,95411,1,12,0:0:0:0:
256,192,95792,1,8,0:0:0:0:
256,192,95983,1,0,0:0:0:0:
256,192,96078,1,8,0:0:0:0:
256,192,96269,1,0,0:0:0:0:
256,192,96364,1,8,0:0:0:0:
256,192,96554,1,0,0:0:0:0:
256,192,96650,1,8,0:0:0:0:
256,192,96840,1,0,0:0:0:0:
256,192,96935,1,8,0:0:0:0:
256,192,97126,1,0,0:0:0:0:
256,192,97221,1,8,0:0:0:0:
256,192,97411,1,0,0:0:0:0:
256,192,97507,1,8,0:0:0:0:
256,192,97697,1,8,0:0:0:0:
256,192,97792,1,0,0:0:0:0:
256,192,98078,1,8,0:0:0:0:
256,192,98364,1,8,0:0:0:0:
256,192,98650,1,8,0:0:0:0:
256,192,98935,1,8,0:0:0:0:
256,192,99126,1,8,0:0:0:0:
256,192,99221,1,0,0:0:0:0:
256,192,99411,1,8,0:0:0:0:
256,192,99697,1,0,0:0:0:0:
256,192,99792,1,12,0:0:0:0:
256,192,100078,1,12,0:0:0:0:
256,192,100364,1,8,0:0:0:0:
256,192,100554,1,0,0:0:0:0:
256,192,100650,1,8,0:0:0:0:
256,192,100840,1,0,0:0:0:0:
256,192,100935,1,8,0:0:0:0:
256,192,101126,1,0,0:0:0:0:
256,192,101221,1,8,0:0:0:0:
256,192,101411,1,8,0:0:0:0:
256,192,101697,1,8,0:0:0:0:
256,192,101983,1,0,0:0:0:0:
256,192,102078,1,12,0:0:0:0:
256,192,102364,1,12,0:0:0:0:
256,192,102650,1,8,0:0:0:0:
256,192,102935,1,8,0:0:0:0:
256,192,103126,1,0,0:0:0:0:
256,192,103221,1,8,0:0:0:0:
256,192,103411,1,0,0:0:0:0:
256,192,103507,1,8,0:0:0:0:
256,192,103697,1,8,0:0:0:0:
256,192,103792,1,0,0:0:0:0:
256,192,103983,1,8,0:0:0:0:
256,192,104364,1,12,0:0:0:0:
256,192,104650,1,12,0:0:0:0:
256,192,104840,1,12,0:0:0:0:
256,192,105030,1,12,0:0:0:0:
256,192,105221,1,12,0:0:0:0:
256,192,105411,1,12,0:0:0:0:
256,192,105602,1,12,0:0:0:0:
256,192,105792,1,12,0:0:0:0:
256,192,106173,1,0,0:0:0:0:
256,192,106269,1,0,0:0:0:0:
256,192,106364,1,12,0:0:0:0:
256,192,106935,1,8,0:0:0:0:
256,192,107221,1,8,0:0:0:0:
256,192,107411,1,0,0:0:0:0:
256,192,107507,1,8,0:0:0:0:
256,192,107697,1,8,0:0:0:0:
256,192,107792,1,0,0:0:0:0:
256,192,107983,1,8,0:0:0:0:
256,192,108269,1,8,0:0:0:0:
256,192,108364,1,0,0:0:0:0:
256,192,108554,1,8,0:0:0:0:
256,192,108650,1,0,0:0:0:0:
256,192,108840,1,0,0:0:0:0:
256,192,108935,1,8,0:0:0:0:
256,192,109221,1,8,0:0:0:0:
256,192,109411,1,8,0:0:0:0:
256,192,109507,1,0,0:0:0:0:
256,192,109697,1,0,0:0:0:0:
256,192,109792,1,8,0:0:0:0:
256,192,109983,1,8,0:0:0:0:
256,192,110078,1,8,0:0:0:0:
256,192,110269,1,8,0:0:0:0:
256,192,110554,1,8,0:0:0:0:
256,192,110650,1,0,0:0:0:0:
256,192,110840,1,8,0:0:0:0:
256,192,110935,1,8,0:0:0:0:
256,192,111126,1,8,0:0:0:0:
256,192,111221,1,0,0:0:0:0:
256,192,111507,1,8,0:0:0:0:
256,192,111792,1,0,0:0:0:0:
256,192,111983,1,8,0:0:0:0:
256,192,112269,1,0,0:0:0:0:
256,192,112364,1,8,0:0:0:0:
256,192,112650,1,0,0:0:0:0:
256,192,112840,1,8,0:0:0:0:
256,192,112935,1,8,0:0:0:0:
256,192,113126,1,0,0:0:0:0:
256,192,113221,1,8,0:0:0:0:
256,192,113411,1,8,0:0:0:0:
256,192,113507,1,8,0:0:0:0:
256,192,113697,1,0,0:0:0:0:
256,192,113792,1,12,0:0:0:0:
256,192,114078,1,12,0:0:0:0:
256,192,114364,1,12,0:0:0:0:
256,192,114554,1,4,0:0:0:0:
256,192,114840,1,12,0:0:0:0:
256,192,115411,1,0,0:0:0:0:
256,192,115459,1,0,0:0:0:0:
256,192,115507,1,8,0:0:0:0:
256,192,115554,1,8,0:0:0:0:
256,192,116078,1,12,0:0:0:0:
256,192,116364,1,8,0:0:0:0:
256,192,116650,1,8,0:0:0:0:
256,192,116840,1,0,0:0:0:0:
256,192,117126,1,8,0:0:0:0:
256,192,117411,1,8,0:0:0:0:
256,192,117507,1,0,0:0:0:0:
256,192,117792,1,8,0:0:0:0:
256,192,118078,1,12,0:0:0:0:
256,192,118364,1,12,0:0:0:0:
256,192,118650,1,8,0:0:0:0:
256,192,118935,1,8,0:0:0:0:
256,192,119126,1,0,0:0:0:0:
256,192,119411,1,8,0:0:0:0:
256,192,119697,1,8,0:0:0:0:
256,192,119792,1,0,0:0:0:0:
256,192,120078,1,0,0:0:0:0:
256,192,120364,1,12,0:0:0:0:
256,192,120650,1,12,0:0:0:0:
256,192,120935,1,0,0:0:0:0:
256,192,121221,1,8,0:0:0:0:
256,192,121411,1,0,0:0:0:0:
256,192,121697,1,0,0:0:0:0:
256,192,121792,1,8,0:0:0:0:
256,192,121983,1,8,0:0:0:0:
256,192,122078,1,0,0:0:0:0:
256,192,122269,1,0,0:0:0:0:
256,192,122364,1,8,0:0:0:0:
256,192,122650,1,8,0:0:0:0:
256,192,122840,1,0,0:0:0:0:
256,192,122935,1,8,0:0:0:0:
256,192,123221,1,0,0:0:0:0:
256,192,123411,1,0,0:0:0:0:
256,192,123507,1,8,0:0:0:0:
256,192,123792,1,0,0:0:0:0:
256,192,123983,1,8,0:0:0:0:
256,192,124269,1,0,0:0:0:0:
256,192,124364,1,8,0:0:0:0:
256,192,124554,1,0,0:0:0:0:
256,192,124650,1,8,0:0:0:0:
256,192,124840,1,0,0:0:0:0:
256,192,124935,1,8,0:0:0:0:
256,192,125126,1,8,0:0:0:0:
256,192,125221,1,0,0:0:0:0:
256,192,125411,1,0,0:0:0:0:
256,192,125507,1,8,0:0:0:0:
256,192,125697,1,0,0:0:0:0:
256,192,125792,1,8,0:0:0:0:
256,192,125983,1,8,0:0:0:0:
256,192,126078,1,0,0:0:0:0:
256,192,126269,1,8,0:0:0:0:
256,192,126554,1,8,0:0:0:0:
256,192,126650,1,0,0:0:0:0:
256,192,126840,1,0,0:0:0:0:
256,192,126935,1,8,0:0:0:0:
256,192,127126,1,0,0:0:0:0:
256,192,127221,1,12,0:0:0:0:
256,192,127507,1,12,0:0:0:0:
256,192,127697,1,0,0:0:0:0:
256,192,127792,1,8,0:0:0:0:
256,192,127983,1,0,0:0:0:0:
256,192,128078,1,8,0:0:0:0:
256,192,128269,1,8,0:0:0:0:
256,192,128364,1,0,0:0:0:0:
256,192,128554,1,8,0:0:0:0:
256,192,128840,1,0,0:0:0:0:
256,192,128935,1,8,0:0:0:0:
256,192,129126,1,8,0:0:0:0:
256,192,129221,1,0,0:0:0:0:
256,192,129411,1,0,0:0:0:0:
256,192,129507,1,12,0:0:0:0:
256,192,129792,1,12,0:0:0:0:
256,192,129983,1,0,0:0:0:0:
256,192,130078,1,8,0:0:0:0:
256,192,130269,1,8,0:0:0:0:
256,192,130364,1,8,0:0:0:0:
256,192,130554,1,8,0:0:0:0:
256,192,130650,1,0,0:0:0:0:
256,192,130840,1,8,0:0:0:0:
256,192,131126,1,0,0:0:0:0:
256,192,131221,1,8,0:0:0:0:
256,192,131411,1,0,0:0:0:0:
256,192,131507,1,8,0:0:0:0:
256,192,131697,1,0,0:0:0:0:
256,192,131792,1,12,0:0:0:0:
256,192,132078,1,12,0:0:0:0:
256,192,132269,1,0,0:0:0:0:
256,192,132364,1,8,0:0:0:0:
256,192,132650,1,8,0:0:0:0:
256,192,132840,1,8,0:0:0:0:
256,192,132935,1,0,0:0:0:0:
256,192,133126,1,12,0:0:0:0:
256,192,133411,1,8,0:0:0:0:
256,192,133507,1,8,0:0:0:0:
256,192,133792,1,8,0:0:0:0:
256,192,134078,1,8,0:0:0:0:
256,192,134173,1,0,0:0:0:0:
256,192,134554,1,8,0:0:0:0:
256,192,134650,1,0,0:0:0:0:
256,192,134840,1,8,0:0:0:0:
256,192,134935,1,0,0:0:0:0:
256,192,135126,1,0,0:0:0:0:
256,192,135221,1,8,0:0:0:0:
256,192,135411,1,0,0:0:0:0:
256,192,135507,1,8,0:0:0:0:
256,192,135602,1,8,0:0:0:0:
256,192,135697,1,8,0:0:0:0:
256,192,135792,1,0,0:0:0:0:
256,192,135983,1,0,0:0:0:0:
256,192,136078,1,8,0:0:0:0:
256,192,136269,1,8,0:0:0:0:
256,192,136364,1,0,0:0:0:0:
256,192,136554,1,8,0:0:0:0:
256,192,136650,1,12,0:0:0:0:
256,192,136840,1,0,0:0:0:0:
256,192,136935,1,8,0:0:0:0:
256,192,137126,1,8,0:0:0:0:
256,192,137221,1,8,0:0:0:0:
256,192,137411,1,8,0:0:0:0:
256,192,137507,1,0,0:0:0:0:
256,192,137697,1,0,0:0:0:0:
256,192,137792,1,8,0:0:0:0:
256,192,137983,1,8,0:0:0:0:
256,192,138078,1,0,0:0:0:0:
256,192,138269,1,8,0:0:0:0:
256,192,138554,1,0,0:0:0:0:
256,192,138650,1,8,0:0:0:0:
256,192,138840,1,0,0:0:0:0:
256,192,138935,1,8,0:0:0:0:
256,192,139126,1,8,0:0:0:0:
256,192,139221,1,8,0:0:0:0:
256,192,139411,1,0,0:0:0:0:
256,192,139507,1,8,0:0:0:0:
256,192,139697,1,8,0:0:0:0:
256,192,139792,1,8,0:0:0:0:
256,192,139983,1,0,0:0:0:0:
256,192,140078,1,8,0:0:0:0:
256,192,140269,1,8,0:0:0:0:
256,192,140364,1,0,0:0:0:0:
256,192,140554,1,8,0:0:0:0:
256,192,140840,1,0,0:0:0:0:
256,192,140935,1,8,0:0:0:0:
256,192,141126,1,8,0:0:0:0:
256,192,141221,1,0,0:0:0:0:
256,192,141507,1,8,0:0:0:0:
256,192,141792,1,0,0:0:0:0:
256,192,141983,1,0,0:0:0:0:
256,192,142078,1,8,0:0:0:0:
256,192,142269,1,8,0:0:0:0:
256,192,142364,1,0,0:0:0:0:
256,192,142554,1,0,0:0:0:0:
256,192,142650,1,8,0:0:0:0:
256,192,142840,1,8,0:0:0:0:
256,192,142935,1,8,0:0:0:0:
256,192,143126,1,0,0:0:0:0:
256,192,143221,1,8,0:0:0:0:
256,192,143411,1,8,0:0:0:0:
256,192,143507,1,8,0:0:0:0:
256,192,143792,1,0,0:0:0:0:
256,192,144078,1,8,0:0:0:0:
256,192,144269,1,8,0:0:0:0:
256,192,144364,1,0,0:0:0:0:
256,192,144554,1,12,0:0:0:0:
256,192,144840,1,12,0:0:0:0:
256,192,145126,1,12,0:0:0:0:
256,192,145411,1,0,0:0:0:0:
256,192,145507,1,8,0:0:0:0:
256,192,145697,1,8,0:0:0:0:
256,192,145792,1,8,0:0:0:0:
256,192,145983,1,0,0:0:0:0:
256,192,146078,1,8,0:0:0:0:
256,192,146269,1,8,0:0:0:0:
256,192,146364,1,8,0:0:0:0:
256,192,146554,1,0,0:0:0:0:
256,192,146650,1,8,0:0:0:0:
256,192,146840,1,0,0:0:0:0:
256,192,146935,1,12,0:0:0:0:
256,192,147126,1,12,0:0:0:0:
256,192,147411,1,12,0:0:0:0:
256,192,147697,1,8,0:0:0:0:
256,192,147792,1,0,0:0:0:0:
256,192,147983,1,0,0:0:0:0:
256,192,148078,1,8,0:0:0:0:
256,192,148269,1,0,0:0:0:0:
256,192,148364,1,8,0:0:0:0:
256,192,148554,1,8,0:0:0:0:
256,192,148650,1,8,0:0:0:0:
256,192,148840,1,8,0:0:0:0:
256,192,148935,1,0,0:0:0:0:
256,192,149126,1,0,0:0:0:0:
256,192,149221,1,8,0:0:0:0:
256,192,149316,1,0,0:0:0:0:
256,192,149411,1,8,0:0:0:0:
256,192,149507,1,0,0:0:0:0:
256,192,149602,1,0,0:0:0:0:
256,192,149697,1,8,0:0:0:0:
256,192,149792,1,0,0:0:0:0:
256,192,149888,1,0,0:0:0:0:
256,192,149983,1,8,0:0:0:0:
256,192,150078,1,8,0:0:0:0:
256,192,150173,1,0,0:0:0:0:
256,192,150269,1,8,0:0:0:0:
256,192,150364,1,0,0:0:0:0:
256,192,150650,1,8,0:0:0:0:
256,192,150840,1,0,0:0:0:0:
256,192,150935,1,8,0:0:0:0:
256,192,151126,1,0,0:0:0:0:
256,192,151221,1,8,0:0:0:0:
256,192,151507,1,8,0:0:0:0:
256,192,151697,1,0,0:0:0:0:
256,192,151792,1,8,0:0:0:0:
256,192,151983,1,8,0:0:0:0:
256,192,152078,1,0,0:0:0:0:
256,192,152269,1,0,0:0:0:0:
256,192,152364,1,8,0:0:0:0:
256,192,152650,1,8,0:0:0:0:
256,192,152840,1,0,0:0:0:0:
256,192,152935,1,8,0:0:0:0:
256,192,153126,1,0,0:0:0:0:
256,192,153221,1,8,0:0:0:0:
256,192,153411,1,0,0:0:0:0:
256,192,153507,1,8,0:0:0:0:
256,192,153697,1,8,0:0:0:0:
256,192,153792,1,0,0:0:0:0:
256,192,153983,1,0,0:0:0:0:
256,192,154078,1,8,0:0:0:0:
256,192,154269,1,8,0:0:0:0:
256,192,154364,1,8,0:0:0:0:
256,192,154554,1,8,0:0:0:0:
256,192,154650,1,0,0:0:0:0:
256,192,154935,1,0,0:0:0:0:
256,192,155792,1,8,0:0:0:0:
256,192,155888,1,0,0:0:0:0:
256,192,155983,1,0,0:0:0:0:
256,192,156078,1,12,0:0:0:0:
256,192,156554,1,12,0:0:0:0:
256,192,156935,1,12,0:0:0:0:
256,192,157221,1,4,0:0:0:0:
256,192,157411,1,12,0:0:0:0:
256,192,157602,1,4,0:0:0:0:
256,192,157792,1,12,0:0:0:0:
256,192,157983,1,4,0:0:0:0:
256,192,158173,1,4,0:0:0:0:
256,192,158364,1,12,0:0:0:0:
256,192,158650,1,12,0:0:0:0:
256,192,158935,1,8,0:0:0:0:
256,192,159126,1,8,0:0:0:0:
256,192,159221,1,0,0:0:0:0:
256,192,159411,1,12,0:0:0:0:
256,192,159697,1,0,0:0:0:0:
256,192,159792,1,8,0:0:0:0:
256,192,159983,1,8,0:0:0:0:
256,192,160078,1,0,0:0:0:0:
256,192,160269,1,0,0:0:0:0:
256,192,160364,1,8,0:0:0:0:
256,192,160554,1,8,0:0:0:0:
256,192,160650,1,0,0:0:0:0:
256,192,160840,1,0,0:0:0:0:
256,192,160935,1,8,0:0:0:0:
256,192,161126,1,0,0:0:0:0:
256,192,161221,1,8,0:0:0:0:
256,192,161411,1,8,0:0:0:0:
256,192,161507,1,8,0:0:0:0:
256,192,161697,1,8,0:0:0:0:
256,192,161983,1,0,0:0:0:0:
256,192,162078,1,8,0:0:0:0:
256,192,162269,1,8,0:0:0:0:
256,192,162364,1,0,0:0:0:0:
256,192,162554,1,0,0:0:0:0:
256,192,162650,1,8,0:0:0:0:
256,192,162840,1,8,0:0:0:0:
256,192,162935,1,0,0:0:0:0:
256,192,163126,1,0,0:0:0:0:
256,192,163221,1,8,0:0:0:0:
256,192,163411,1,8,0:0:0:0:
256,192,163507,1,8,0:0:0:0:
256,192,163697,1,8,0:0:0:0:
256,192,163792,1,0,0:0:0:0:
256,192,163983,1,12,0:0:0:0:
256,192,164269,1,0,0:0:0:0:
256,192,164364,1,8,0:0:0:0:
256,192,164554,1,8,0:0:0:0:
256,192,164650,1,0,0:0:0:0:
256,192,164840,1,0,0:0:0:0:
256,192,164935,1,8,0:0:0:0:
256,192,165126,1,8,0:0:0:0:
256,192,165221,1,0,0:0:0:0:
256,192,165411,1,0,0:0:0:0:
256,192,165507,1,8,0:0:0:0:
256,192,165697,1,8,0:0:0:0:
256,192,165792,1,8,0:0:0:0:
256,192,165983,1,0,0:0:0:0:
256,192,166078,1,8,0:0:0:0:
256,192,166269,1,12,0:0:0:0:
256,192,166554,1,0,0:0:0:0:
256,192,166650,1,8,0:0:0:0:
256,192,166840,1,0,0:0:0:0:
256,192,166935,1,8,0:0:0:0:
256,192,167126,1,0,0:0:0:0:
256,192,167221,1,8,0:0:0:0:
256,192,167316,1,8,0:0:0:0:
256,192,167411,1,8,0:0:0:0:
256,192,167507,1,0,0:0:0:0:
256,192,167697,1,8,0:0:0:0:
256,192,167792,1,0,0:0:0:0:
256,192,167983,1,12,0:0:0:0:
256,192,168269,1,12,0:0:0:0:
256,192,168650,1,4,0:0:0:0:
256,192,168840,1,0,0:0:0:0:
256,192,168935,1,8,0:0:0:0:
256,192,169126,1,0,0:0:0:0:
256,192,169221,1,8,0:0:0:0:
256,192,169411,1,0,0:0:0:0:
256,192,169507,1,8,0:0:0:0:
256,192,169697,1,8,0:0:0:0:
256,192,169792,1,0,0:0:0:0:
256,192,169983,1,8,0:0:0:0:
256,192,170078,1,8,0:0:0:0:
256,192,170269,1,8,0:0:0:0:
256,192,170554,1,8,0:0:0:0:
256,192,170650,1,0,0:0:0:0:
256,192,170840,1,8,0:0:0:0:
256,192,171126,1,8,0:0:0:0:
256,192,171221,1,0,0:0:0:0:
256,192,171411,1,8,0:0:0:0:
256,192,171507,1,0,0:0:0:0:
256,192,171697,1,0,0:0:0:0:
256,192,171792,1,8,0:0:0:0:
256,192,171983,1,0,0:0:0:0:
256,192,172078,1,8,0:0:0:0:
256,192,172269,1,8,0:0:0:0:
256,192,172364,1,0,0:0:0:0:
256,192,172554,1,8,0:0:0:0:
256,192,172840,1,0,0:0:0:0:
256,192,172935,1,8,0:0:0:0:
256,192,173126,1,8,0:0:0:0:
256,192,173221,1,0,0:0:0:0:
256,192,173411,1,8,0:0:0:0:
256,192,173507,1,0,0:0:0:0:
256,192,173697,1,8,0:0:0:0:
256,192,173792,1,0,0:0:0:0:
256,192,173983,1,0,0:0:0:0:
256,192,174078,1,8,0:0:0:0:
256,192,174269,1,8,0:0:0:0:
256,192,174364,1,0,0:0:0:0:
256,192,174554,1,0,0:0:0:0:
256,192,174650,1,8,0:0:0:0:
256,192,174840,1,0,0:0:0:0:
256,192,174935,1,8,0:0:0:0:
256,192,175126,1,8,0:0:0:0:
256,192,175221,1,8,0:0:0:0:
256,192,175411,1,0,0:0:0:0:
256,192,175507,1,12,0:0:0:0:
256,192,175792,1,12,0:0:0:0:
256,192,176078,1,12,0:0:0:0:
256,192,176269,1,12,0:0:0:0:
256,192,176554,1,12,0:0:0:0:
256,192,176840,1,0,0:0:0:0:
256,192,176935,1,8,0:0:0:0:
256,192,177126,1,8,0:0:0:0:
256,192,177221,1,0,0:0:0:0:
256,192,177411,1,0,0:0:0:0:
256,192,177507,1,8,0:0:0:0:
256,192,177697,1,12,0:0:0:0:
256,192,177983,1,0,0:0:0:0:
256,192,178078,1,8,0:0:0:0:
256,192,178269,1,8,0:0:0:0:
256,192,178364,1,0,0:0:0:0:
256,192,178554,1,0,0:0:0:0:
256,192,178650,1,8,0:0:0:0:
256,192,178840,1,8,0:0:0:0:
256,192,178935,1,0,0:0:0:0:
256,192,179126,1,0,0:0:0:0:
256,192,179221,1,8,0:0:0:0:
256,192,179411,1,0,0:0:0:0:
256,192,179507,1,8,0:0:0:0:
256,192,179697,1,8,0:0:0:0:
256,192,179792,1,8,0:0:0:0:
256,192,179983,1,8,0:0:0:0:
256,192,180269,1,0,0:0:0:0:
256,192,180364,1,8,0:0:0:0:
256,192,180554,1,8,0:0:0:0:
256,192,180650,1,0,0:0:0:0:
256,192,180840,1,0,0:0:0:0:
256,192,180935,1,8,0:0:0:0:
256,192,181126,1,8,0:0:0:0:
256,192,181221,1,0,0:0:0:0:
256,192,181411,1,0,0:0:0:0:
256,192,181507,1,8,0:0:0:0:
256,192,181697,1,8,0:0:0:0:
256,192,181792,1,8,0:0:0:0:
256,192,181983,1,8,0:0:0:0:
256,192,182078,1,0,0:0:0:0:
256,192,182269,1,12,0:0:0:0:
256,192,182554,1,0,0:0:0:0:
256,192,182650,1,8,0:0:0:0:
256,192,182840,1,8,0:0:0:0:
256,192,182935,1,0,0:0:0:0:
256,192,183126,1,0,0:0:0:0:
256,192,183221,1,8,0:0:0:0:
256,192,183411,1,8,0:0:0:0:
256,192,183507,1,0,0:0:0:0:
256,192,183697,1,0,0:0:0:0:
256,192,183792,1,8,0:0:0:0:
256,192,183983,1,8,0:0:0:0:
256,192,184078,1,8,0:0:0:0:
256,192,184269,1,0,0:0:0:0:
256,192,184364,1,8,0:0:0:0:
256,192,184554,1,12,0:0:0:0:
256,192,184840,1,0,0:0:0:0:
256,192,184935,1,8,0:0:0:0:
256,192,185126,1,0,0:0:0:0:
256,192,185221,1,8,0:0:0:0:
256,192,185411,1,0,0:0:0:0:
256,192,185507,1,8,0:0:0:0:
256,192,185697,1,8,0:0:0:0:
256,192,185792,1,0,0:0:0:0:
256,192,185983,1,8,0:0:0:0:
256,192,186078,1,0,0:0:0:0:
256,192,186173,1,0,0:0:0:0:
256,192,186269,1,8,0:0:0:0:
256,192,186364,1,8,0:0:0:0:
256,192,186554,1,8,0:0:0:0:
256,192,186650,1,8,0:0:0:0:
256,192,186745,1,0,0:0:0:0:
256,192,186840,1,8,0:0:0:0:
256,192,186935,1,4,0:0:0:0:
256,192,187126,1,0,0:0:0:0:
256,192,187221,1,8,0:0:0:0:
256,192,187411,1,0,0:0:0:0:
256,192,187507,1,8,0:0:0:0:
256,192,187697,1,0,0:0:0:0:
256,192,187792,1,8,0:0:0:0:
256,192,187983,1,8,0:0:0:0:
256,192,188078,1,0,0:0:0:0:
256,192,188269,1,8,0:0:0:0:
256,192,188364,1,8,0:0:0:0:
256,192,188554,1,8,0:0:0:0:
256,192,188840,1,8,0:0:0:0:
256,192,188935,1,0,0:0:0:0:
256,192,189126,1,8,0:0:0:0:
256,192,189411,1,8,0:0:0:0:
256,192,189507,1,0,0:0:0:0:
256,192,189697,1,8,0:0:0:0:
256,192,189792,1,0,0:0:0:0:
256,192,189983,1,0,0:0:0:0:
256,192,190078,1,8,0:0:0:0:
256,192,190269,1,0,0:0:0:0:
256,192,190364,1,8,0:0:0:0:
256,192,190554,1,8,0:0:0:0:
256,192,190650,1,0,0:0:0:0:
256,192,190840,1,8,0:0:0:0:
256,192,191126,1,0,0:0:0:0:
256,192,191221,1,8,0:0:0:0:
256,192,191411,1,12,0:0:0:0:
256,192,191792,1,8,0:0:0:0:
256,192,191983,1,0,0:0:0:0:
256,192,192078,1,8,0:0:0:0:
256,192,192269,1,0,0:0:0:0:
256,192,192364,1,8,0:0:0:0:
256,192,192554,1,0,0:0:0:0:
256,192,192650,1,8,0:0:0:0:
256,192,192840,1,0,0:0:0:0:
256,192,192935,1,8,0:0:0:0:
256,192,193126,1,0,0:0:0:0:
256,192,193221,1,8,0:0:0:0:
256,192,193411,1,0,0:0:0:0:
256,192,193507,1,8,0:0:0:0:
256,192,193792,1,12,0:0:0:0:
256,192,194078,1,8,0:0:0:0:
256,192,194364,1,8,0:0:0:0:
256,192,194554,1,8,0:0:0:0:
256,192,194650,1,0,0:0:0:0:
256,192,194840,1,8,0:0:0:0:
256,192,194935,1,8,0:0:0:0:
256,192,195126,1,8,0:0:0:0:
256,192,195221,1,8,0:0:0:0:
256,192,195507,1,0,0:0:0:0:
256,192,195792,1,8,0:0:0:0:
256,192,196078,1,8,0:0:0:0:
256,192,196364,1,8,0:0:0:0:
256,192,196650,1,8,0:0:0:0:
256,192,196840,1,8,0:0:0:0:
256,192,196935,1,0,0:0:0:0:
256,192,197126,1,8,0:0:0:0:
256,192,197221,1,8,0:0:0:0:
256,192,197411,1,8,0:0:0:0:
256,192,197507,1,8,0:0:0:0:
256,192,197697,1,0,0:0:0:0:
256,192,197792,1,8,0:0:0:0:
256,192,197983,1,8,0:0:0:0:
256,192,198078,1,0,0:0:0:0:
256,192,198269,1,0,0:0:0:0:
256,192,198364,1,8,0:0:0:0:
256,192,198650,1,8,0:0:0:0:
256,192,198935,1,8,0:0:0:0:
256,192,199126,1,8,0:0:0:0:
256,192,199221,1,0,0:0:0:0:
256,192,199411,1,8,0:0:0:0:
256,192,199507,1,8,0:0:0:0:
256,192,199697,1,8,0:0:0:0:
256,192,199792,1,8,0:0:0:0:
256,192,199983,1,8,0:0:0:0:
256,192,200078,1,0,0:0:0:0:
256,192,200269,1,0,0:0:0:0:
256,192,200364,1,8,0:0:0:0:
256,192,200554,1,0,0:0:0:0:
256,192,200650,1,8,0:0:0:0:
256,192,200935,1,8,0:0:0:0:
256,192,201221,1,0,0:0:0:0:
256,192,201316,1,0,0:0:0:0:
256,192,201411,1,0,0:0:0:0:
256,192,201507,1,8,0:0:0:0:
256,192,201697,1,0,0:0:0:0:
256,192,201792,1,8,0:0:0:0:
256,192,201983,1,8,0:0:0:0:
256,192,202078,1,0,0:0:0:0:
256,192,202269,1,0,0:0:0:0:
256,192,202364,1,8,0:0:0:0:
256,192,202554,1,8,0:0:0:0:
256,192,202650,1,0,0:0:0:0:
256,192,202840,1,0,0:0:0:0:
256,192,202935,1,0,0:0:0:0:
256,192,203126,1,0,0:0:0:0:
256,192,203221,1,12,0:0:0:0:
256,192,203507,1,12,0:0:0:0:
256,192,203792,1,0,0:0:0:0:
256,192,203983,1,8,0:0:0:0:
256,192,204269,1,8,0:0:0:0:
256,192,204364,1,0,0:0:0:0:
256,192,204554,1,8,0:0:0:0:
256,192,204650,1,0,0:0:0:0:
256,192,204935,1,8,0:0:0:0:
256,192,205126,1,0,0:0:0:0:
256,192,205221,1,8,0:0:0:0:
256,192,205411,1,0,0:0:0:0:
256,192,205507,1,12,0:0:0:0:
256,192,205792,1,12,0:0:0:0:
256,192,205983,1,8,0:0:0:0:
256,192,206078,1,0,0:0:0:0:
256,192,206269,1,8,0:0:0:0:
256,192,206554,1,8,0:0:0:0:
256,192,206650,1,0,0:0:0:0:
256,192,206840,1,8,0:0:0:0:
256,192,206935,1,0,0:0:0:0:
256,192,207221,1,8,0:0:0:0:
256,192,207411,1,0,0:0:0:0:
256,192,207507,1,8,0:0:0:0:
256,192,207697,1,0,0:0:0:0:
256,192,207792,1,12,0:0:0:0:
256,192,207983,1,0,0:0:0:0:
256,192,208078,1,8,0:0:0:0:
256,192,208173,1,0,0:0:0:0:
256,192,208269,1,0,0:0:0:0:
256,192,208364,1,8,0:0:0:0:
256,192,208459,1,0,0:0:0:0:
256,192,208554,1,8,0:0:0:0:
256,192,208650,1,0,0:0:0:0:
256,192,208745,1,0,0:0:0:0:
256,192,208840,1,8,0:0:0:0:
256,192,208935,1,8,0:0:0:0:
256,192,209030,1,0,0:0:0:0:
256,192,209126,1,0,0:0:0:0:
256,192,209221,1,8,0:0:0:0:
256,192,209316,1,0,0:0:0:0:
256,192,209411,1,0,0:0:0:0:
256,192,209507,1,8,0:0:0:0:
256,192,209602,1,0,0:0:0:0:
256,192,209697,1,0,0:0:0:0:
256,192,209792,1,12,0:0:0:0:
256,192,210078,1,0,0:0:0:0:
256,192,210364,1,12,0:0:0:0:
256,192,210650,1,0,0:0:0:0:
256,192,210935,1,12,0:0:0:0:
256,192,211221,1,8,0:0:0:0:
256,192,211411,1,0,0:0:0:0:
256,192,211507,1,8,0:0:0:0:
256,192,211697,1,0,0:0:0:0:
256,192,211792,1,8,0:0:0:0:
256,192,211983,1,0,0:0:0:0:
256,192,212078,1,8,0:0:0:0:
256,192,212173,1,0,0:0:0:0:
256,192,212269,1,0,0:0:0:0:
256,192,212364,1,8,0:0:0:0:
256,192,212459,1,0,0:0:0:0:
256,192,212554,1,0,0:0:0:0:
256,192,212650,1,8,0:0:0:0:
256,192,212745,1,0,0:0:0:0:
256,192,212840,1,0,0:0:0:0:
256,192,212935,1,8,0:0:0:0:
256,192,213030,1,0,0:0:0:0:
256,192,213126,1,0,0:0:0:0:
256,192,213221,1,8,0:0:0:0:
256,192,213316,1,0,0:0:0:0:
256,192,213411,1,0,0:0:0:0:
256,192,213507,1,8,0:0:0:0:
256,192,213602,1,0,0:0:0:0:
256,192,213697,1,0,0:0:0:0:
256,192,213792,1,8,0:0:0:0:
256,192,213888,1,0,0:0:0:0:
256,192,213983,1,0,0:0:0:0:
256,192,214078,1,0,0:0:0:0:
256,192,214173,1,0,0:0:0:0:
256,192,214269,1,0,0:0:0:0:
256,192,214364,1,8,0:0:0:0:
256,192,214459,1,0,0:0:0:0:
256,192,214554,1,8,0:0:0:0:
256,192,214650,1,8,0:0:0:0:
256,192,214745,1,0,0:0:0:0:
256,192,214840,1,0,0:0:0:0:
256,192,214935,1,8,0:0:0:0:
256,192,215030,1,0,0:0:0:0:
256,192,215126,1,8,0:0:0:0:
256,192,215221,1,8,0:0:0:0:
256,192,215316,1,0,0:0:0:0:
256,192,215411,1,0,0:0:0:0:
256,192,215507,1,8,0:0:0:0:
256,192,215602,1,0,0:0:0:0:
256,192,215697,1,8,0:0:0:0:
256,192,215792,1,8,0:0:0:0:
256,192,215888,1,0,0:0:0:0:
256,192,215983,1,0,0:0:0:0:
256,192,216078,1,8,0:0:0:0:
256,192,216173,1,8,0:0:0:0:
256,192,216269,1,0,0:0:0:0:
256,192,216364,1,8,0:0:0:0:
256,192,216459,1,8,0:0:0:0:
256,192,216554,1,0,0:0:0:0:
256,192,216650,1,8,0:0:0:0:
256,192,216935,1,8,0:0:0:0:
256,192,217126,1,0,0:0:0:0:
256,192,217221,1,8,0:0:0:0:
256,192,217411,1,8,0:0:0:0:
256,192,217507,1,0,0:0:0:0:
256,192,217697,1,8,0:0:0:0:
256,192,217792,1,0,0:0:0:0:
256,192,217888,1,0,0:0:0:0:
256,192,217983,1,0,0:0:0:0:
256,192,218078,1,8,0:0:0:0:
256,192,218269,1,0,0:0:0:0:
256,192,218364,1,8,0:0:0:0:
256,192,218554,1,8,0:0:0:0:
256,192,218650,1,0,0:0:0:0:
256,192,218745,1,0,0:0:0:0:
256,192,218840,1,0,0:0:0:0:
256,192,218935,1,8,0:0:0:0:
256,192,219126,1,8,0:0:0:0:
256,192,219316,1,0,0:0:0:0:
256,192,219507,1,8,0:0:0:0:
256,192,219697,1,0,0:0:0:0:
256,192,219888,1,8,0:0:0:0:
256,192,220078,1,8,0:0:0:0:
256,192,220269,1,8,0:0:0:0:
256,192,220459,1,8,0:0:0:0:
256,192,220650,1,8,0:0:0:0:
256,192,220840,1,8,0:0:0:0:
256,192,221030,1,8,0:0:0:0:
256,192,221221,1,8,0:0:0:0:
256,192,221507,1,8,0:0:0:0:
256,192,221697,1,0,0:0:0:0:
256,192,221792,1,8,0:0:0:0:
256,192,221983,1,8,0:0:0:0:
256,192,222078,1,0,0:0:0:0:
256,192,222269,1,8,0:0:0:0:
256,192,222554,1,8,0:0:0:0:
256,192,222650,1,0,0:0:0:0:
256,192,222840,1,8,0:0:0:0:
256,192,222935,1,8,0:0:0:0:
256,192,223126,1,8,0:0:0:0:
256,192,223221,1,0,0:0:0:0:
256,192,223411,1,0,0:0:0:0:
256,192,223507,1,8,0:0:0:0:
256,192,223650,1,8,0:0:0:0:
256,192,223721,1,0,0:0:0:0:
256,192,223792,1,8,0:0:0:0:
256,192,223864,1,8,0:0:0:0:
256,192,223935,1,8,0:0:0:0:
256,192,224007,1,8,0:0:0:0:
256,192,224078,1,0,0:0:0:0:
256,192,224150,1,0,0:0:0:0:
256,192,224221,1,8,0:0:0:0:
256,192,224292,1,8,0:0:0:0:
256,192,224364,1,8,0:0:0:0:
256,192,224435,1,8,0:0:0:0:
256,192,224507,1,0,0:0:0:0:
256,192,224578,1,0,0:0:0:0:
256,192,224650,1,8,0:0:0:0:
256,192,224721,1,8,0:0:0:0:
256,192,224792,1,0,0:0:0:0:
256,192,224864,1,0,0:0:0:0:
256,192,224935,1,0,0:0:0:0:
256,192,225007,1,0,0:0:0:0:
256,192,225078,1,0,0:0:0:0:
256,192,225150,1,0,0:0:0:0:
256,192,225221,1,0,0:0:0:0:
256,192,225292,1,0,0:0:0:0:
256,192,225364,1,0,0:0:0:0:
256,192,225435,1,0,0:0:0:0:
256,192,225507,1,8,0:0:0:0:
256,192,225792,1,0,0:0:0:0:
256,192,225983,1,8,0:0:0:0:
256,192,226269,1,8,0:0:0:0:
256,192,226364,1,0,0:0:0:0:
256,192,226554,1,0,0:0:0:0:
256,192,226697,1,8,0:0:0:0:
256,192,226983,1,8,0:0:0:0:
256,192,227126,1,8,0:0:0:0:
256,192,227411,1,8,0:0:0:0:
256,192,227697,1,8,0:0:0:0:
256,192,227792,1,0,0:0:0:0:
256,192,228078,1,8,0:0:0:0:
256,192,228269,1,8,0:0:0:0:
256,192,228459,1,8,0:0:0:0:
256,192,228650,1,8,0:0:0:0:
256,192,228840,1,8,0:0:0:0:
256,192,229030,1,8,0:0:0:0:
256,192,229221,1,8,0:0:0:0:
256,192,229411,1,8,0:0:0:0:
256,192,229602,1,8,0:0:0:0:
256,192,229792,1,8,0:0:0:0:
256,192,229983,1,8,0:0:0:0:
256,192,230173,1,8,0:0:0:0:
256,192,230364,1,12,0:0:0:0:
256,192,230650,1,12,0:0:0:0:
256,192,230935,1,4,0:0:0:0:
256,192,231126,1,12,0:0:0:0:
256,192,231411,1,12,0:0:0:0:
256,192,232078,1,8,0:0:0:0:
256,192,232269,1,8,0:0:0:0:
256,192,232364,1,0,0:0:0:0:
256,192,232554,1,8,0:0:0:0:
256,192,233221,1,8,0:0:0:0:
256,192,233792,1,8,0:0:0:0:
256,192,234364,1,8,0:0:0:0:
256,192,234840,1,8,0:0:0:0:
256,192,235221,1,8,0:0:0:0:
256,192,235411,1,8,0:0:0:0:
256,192,235507,1,0,0:0:0:0:
256,192,235792,1,8,0:0:0:0:
256,192,235983,1,0,0:0:0:0:
256,192,236078,1,8,0:0:0:0:
256,192,236269,1,8,0:0:0:0:
256,192,236364,1,0,0:0:0:0:
256,192,236554,1,0,0:0:0:0:
256,192,236650,1,8,0:0:0:0:
256,192,236840,1,8,0:0:0:0:
256,192,236935,1,0,0:0:0:0:
256,192,237126,1,8,0:0:0:0:
256,192,237792,1,8,0:0:0:0:
256,192,238364,1,8,0:0:0:0:
256,192,238650,1,0,0:0:0:0:
256,192,238935,1,8,0:0:0:0:
256,192,239126,1,8,0:0:0:0:
256,192,239221,1,8,0:0:0:0:
256,192,239411,1,8,0:0:0:0:
256,192,240650,1,12,0:0:0:0:
256,192,240840,1,12,0:0:0:0:
256,192,241030,1,12,0:0:0:0:
256,192,241221,1,12,0:0:0:0:
256,192,241411,1,12,0:0:0:0:
256,192,241602,1,12,0:0:0:0:
256,192,241792,1,4,0:0:0:0:
256,192,241983,1,0,0:0:0:0:
256,192,242078,1,8,0:0:0:0:
256,192,242269,1,0,0:0:0:0:
256,192,242364,1,8,0:0:0:0:
256,192,242554,1,0,0:0:0:0:
256,192,242650,1,8,0:0:0:0:
256,192,242840,1,8,0:0:0:0:
256,192,242935,1,0,0:0:0:0:
256,192,243126,1,8,0:0:0:0:
256,192,243221,1,8,0:0:0:0:
256,192,243411,1,8,0:0:0:0:
256,192,243697,1,8,0:0:0:0:
256,192,243792,1,0,0:0:0:0:
256,192,243983,1,8,0:0:0:0:
256,192,244269,1,8,0:0:0:0:
256,192,244364,1,0,0:0:0:0:
256,192,244554,1,8,0:0:0:0:
256,192,244650,1,0,0:0:0:0:
256,192,244840,1,0,0:0:0:0:
256,192,244935,1,8,0:0:0:0:
256,192,245126,1,0,0:0:0:0:
256,192,245221,1,8,0:0:0:0:
256,192,245411,1,8,0:0:0:0:
256,192,245507,1,0,0:0:0:0:
256,192,245697,1,8,0:0:0:0:
256,192,245983,1,0,0:0:0:0:
256,192,246078,1,8,0:0:0:0:
256,192,246269,1,8,0:0:0:0:
256,192,246364,1,0,0:0:0:0:
256,192,246554,1,8,0:0:0:0:
256,192,246650,1,0,0:0:0:0:
256,192,246840,1,8,0:0:0:0:
256,192,246935,1,0,0:0:0:0:
256,192,247126,1,0,0:0:0:0:
256,192,247221,1,8,0:0:0:0:
256,192,247411,1,8,0:0:0:0:
256,192,247507,1,0,0:0:0:0:
256,192,247697,1,0,0:0:0:0:
256,192,247792,1,8,0:0:0:0:
256,192,247983,1,0,0:0:0:0:
256,192,248078,1,8,0:0:0:0:
256,192,248269,1,8,0:0:0:0:
256,192,248364,1,8,0:0:0:0:
256,192,248554,1,0,0:0:0:0:
256,192,248650,1,12,0:0:0:0:
256,192,248935,1,12,0:0:0:0:
256,192,249221,1,12,0:0:0:0:
256,192,249411,1,12,0:0:0:0:
256,192,249697,1,12,0:0:0:0:
256,192,249983,1,0,0:0:0:0:
256,192,250078,1,8,0:0:0:0:
256,192,250269,1,8,0:0:0:0:
256,192,250364,1,0,0:0:0:0:
256,192,250554,1,0,0:0:0:0:
256,192,250650,1,8,0:0:0:0:
256,192,250840,1,12,0:0:0:0:
256,192,251126,1,0,0:0:0:0:
256,192,251221,1,8,0:0:0:0:
256,192,251411,1,8,0:0:0:0:
256,192,251507,1,0,0:0:0:0:
256,192,251697,1,0,0:0:0:0:
256,192,251792,1,8,0:0:0:0:
256,192,251983,1,8,0:0:0:0:
256,192,252078,1,0,0:0:0:0:
256,192,252269,1,0,0:0:0:0:
256,192,252364,1,8,0:0:0:0:
256,192,252554,1,0,0:0:0:0:
256,192,252650,1,8,0:0:0:0:
256,192,252840,1,8,0:0:0:0:
256,192,252935,1,8,0:0:0:0:
256,192,253126,1,8,0:0:0:0:
256,192,253411,1,0,0:0:0:0:
256,192,253507,1,8,0:0:0:0:
256,192,253697,1,8,0:0:0:0:
256,192,253792,1,0,0:0:0:0:
256,192,253983,1,0,0:0:0:0:
256,192,254078,1,8,0:0:0:0:
256,192,254269,1,8,0:0:0:0:
256,192,254364,1,0,0:0:0:0:
256,192,254554,1,0,0:0:0:0:
256,192,254650,1,8,0:0:0:0:
256,192,254840,1,8,0:0:0:0:
256,192,254935,1,8,0:0:0:0:
256,192,255126,1,8,0:0:0:0:
256,192,255221,1,0,0:0:0:0:
256,192,255411,1,12,0:0:0:0:
256,192,255697,1,0,0:0:0:0:
256,192,255792,1,8,0:0:0:0:
256,192,255983,1,8,0:0:0:0:
256,192,256078,1,0,0:0:0:0:
256,192,256269,1,0,0:0:0:0:
256,192,256364,1,8,0:0:0:0:
256,192,256554,1,8,0:0:0:0:
256,192,256650,1,0,0:0:0:0:
256,192,256840,1,0,0:0:0:0:
256,192,256935,1,8,0:0:0:0:
256,192,257126,1,8,0:0:0:0:
256,192,257221,1,8,0:0:0:0:
256,192,257411,1,0,0:0:0:0:
256,192,257507,1,8,0:0:0:0:
256,192,257697,1,12,0:0:0:0:
256,192,257983,1,0,0:0:0:0:
256,192,258078,1,8,0:0:0:0:
256,192,258269,1,0,0:0:0:0:
256,192,258364,1,8,0:0:0:0:
256,192,258554,1,0,0:0:0:0:
256,192,258650,1,8,0:0:0:0:
256,192,258840,1,8,0:0:0:0:
256,192,258935,1,0,0:0:0:0:
256,192,259030,1,0,0:0:0:0:
256,192,259126,1,8,0:0:0:0:
256,192,259221,1,0,0:0:0:0:
256,192,259316,1,0,0:0:0:0:
256,192,259411,1,8,0:0:0:0:
256,192,259507,1,8,0:0:0:0:
256,192,259697,1,8,0:0:0:0:
256,192,259792,1,8,0:0:0:0:
256,192,259888,1,0,0:0:0:0:
256,192,259983,1,8,0:0:0:0:
256,192,260078,1,4,0:0:0:0:
256,192,260269,1,0,0:0:0:0:
256,192,260364,1,8,0:0:0:0:
256,192,260554,1,0,0:0:0:0:
256,192,260650,1,8,0:0:0:0:
256,192,260840,1,0,0:0:0:0:
256,192,260935,1,8,0:0:0:0:
256,192,261126,1,8,0:0:0:0:
256,192,261221,1,0,0:0:0:0:
256,192,261411,1,8,0:0:0:0:
256,192,261507,1,8,0:0:0:0:
256,192,261697,1,8,0:0:0:0:
256,192,261983,1,8,0:0:0:0:
256,192,262078,1,0,0:0:0:0:
256,192,262269,1,8,0:0:0:0:
256,192,262554,1,8,0:0:0:0:
256,192,262650,1,0,0:0:0:0:
256,192,262840,1,8,0:0:0:0:
256,192,262935,1,0,0:0:0:0:
256,192,263126,1,0,0:0:0:0:
256,192,263221,1,8,0:0:0:0:
256,192,263411,1,0,0:0:0:0:
256,192,263507,1,8,0:0:0:0:
256,192,263697,1,8,0:0:0:0:
256,192,263792,1,0,0:0:0:0:
256,192,263983,1,8,0:0:0:0:
256,192,264269,1,0,0:0:0:0:
256,192,264364,1,8,0:0:0:0:
256,192,264554,1,12,0:0:0:0:
256,192,264935,1,8,0:0:0:0:
256,192,265126,1,0,0:0:0:0:
256,192,265221,1,8,0:0:0:0:
256,192,265411,1,0,0:0:0:0:
256,192,265507,1,8,0:0:0:0:
256,192,265697,1,0,0:0:0:0:
256,192,265792,1,8,0:0:0:0:
256,192,265983,1,0,0:0:0:0:
256,192,266078,1,8,0:0:0:0:
256,192,266269,1,0,0:0:0:0:
256,192,266364,1,8,0:0:0:0:
256,192,266554,1,0,0:0:0:0:
256,192,266650,1,8,0:0:0:0:
256,192,266840,1,8,0:0:0:0:
256,192,266935,1,0,0:0:0:0:
256,192,267221,1,8,0:0:0:0:
256,192,267507,1,8,0:0:0:0:
256,192,267792,1,8,0:0:0:0:
256,192,268078,1,8,0:0:0:0:
256,192,268269,1,8,0:0:0:0:
256,192,268364,1,0,0:0:0:0:
256,192,268554,1,8,0:0:0:0:
256,192,268840,1,0,0:0:0:0:
256,192,268935,1,12,0:0:0:0:
256,192,269221,1,12,0:0:0:0:
256,192,269507,1,8,0:0:0:0:
256,192,269697,1,0,0:0:0:0:
256,192,269792,1,8,0:0:0:0:
256,192,269983,1,0,0:0:0:0:
256,192,270078,1,8,0:0:0:0:
256,192,270269,1,0,0:0:0:0:
256,192,270364,1,8,0:0:0:0:
256,192,270554,1,8,0:0:0:0:
256,192,270840,1,8,0:0:0:0:
256,192,271126,1,0,0:0:0:0:
256,192,271221,1,12,0:0:0:0:
256,192,271507,1,12,0:0:0:0:
256,192,271650,1,0,0:0:0:0:
256,192,271721,1,0,0:0:0:0:
256,192,271792,1,8,0:0:0:0:
256,192,271864,1,0,0:0:0:0:
256,192,271935,1,0,0:0:0:0:
256,192,272007,1,0,0:0:0:0:
256,192,272078,1,8,0:0:0:0:
256,192,272150,1,8,0:0:0:0:
256,192,272221,1,0,0:0:0:0:
256,192,272292,1,0,0:0:0:0:
256,192,272364,1,8,0:0:0:0:
256,192,272435,1,0,0:0:0:0:
256,192,272507,1,0,0:0:0:0:
256,192,272578,1,0,0:0:0:0:
256,192,272650,1,8,0:0:0:0:
256,192,272792,1,8,0:0:0:0:
256,192,272864,1,8,0:0:0:0:
256,192,272935,1,0,0:0:0:0:
256,192,273078,1,12,0:0:0:0:
256,192,273364,1,0,0:0:0:0:
256,192,273507,1,8,0:0:0:0:
256,192,273792,1,12,0:0:0:0:
256,192,273983,1,12,0:0:0:0:
256,192,274173,1,12,0:0:0:0:
256,192,274364,1,12,0:0:0:0:
256,192,274554,1,12,0:0:0:0:
256,192,274745,1,12,0:0:0:0:
256,192,274935,1,12,0:0:0:0:
256,192,275316,1,0,0:0:0:0:
256,192,275411,1,0,0:0:0:0:
256,192,275507,1,12,0:0:0:0:
