osu file format v14

[General]
AudioFilename: audio.mp3
AudioLeadIn: 0
PreviewTime: 35484
Countdown: 0
SampleSet: Soft
StackLeniency: 0.4
Mode: 0
LetterboxInBreaks: 0
WidescreenStoryboard: 1

[Editor]
Bookmarks: 65161
DistanceSpacing: 0.4
BeatDivisor: 4
GridSize: 4
TimelineZoom: 1.9

[Metadata]
Title:Asu no Yozora Shoukaihan
TitleUnicode:アスノヨゾラ哨戒班
Artist:Afterglow
ArtistUnicode:Afterglow
Creator:Metaku
Version:Extra
Source:バンドリ ガールズバンドパーティ
Tags:
BeatmapID:1947046
BeatmapSetID:932559

[Difficulty]
HPDrainRate:6
CircleSize:4
OverallDifficulty:8
ApproachRate:9.2
SliderMultiplier:1.6
SliderTickRate:1

[Events]
//Background and Video events
0,0,"73422679_p0.jpg",0,0
//Break Periods
//Storyboard Layer 0 (Background)
//Storyboard Layer 1 (Fail)
//Storyboard Layer 2 (Pass)
//Storyboard Layer 3 (Foreground)
//Storyboard Sound Samples

[TimingPoints]
2566,324.324324324324,4,2,1,70,1,0
2566,-142.857142857143,4,2,1,70,0,0
12944,-83.3333333333333,4,2,1,70,0,0
13268,-100,4,2,1,70,0,0
19268,-83.3333333333333,4,2,1,70,0,0
19755,-100,4,2,1,70,0,0
23322,-333.333333333333,4,2,1,70,0,0
28187,-100,4,2,1,70,0,0
36133,-90.9090909090909,4,2,1,70,0,1
46025,-90.9090909090909,4,2,1,70,0,0
46511,-90.9090909090909,4,2,1,70,0,1
56890,-90.9090909090909,4,2,1,70,0,0
77809,-117.647058823529,4,2,1,70,0,0
88025,-263.157894736842,4,2,1,70,0,0

[Colours]
Combo1 : 255,159,255
Combo2 : 168,0,0
Combo3 : 255,140,26
Combo4 : 150,150,203

[HitObjects]
97,117,2566,6,0,P|97:89|91:58,2,55.9999982910157
168,232,3052,2,0,L|173:170,1,55.9999982910157
75,210,3376,2,0,L|79:265,1,55.9999982910157
239,287,3701,6,0,P|297:273|357:291,1,111.999996582031
426,346,4187,1,0,0:0:0:0:
432,254,4349,1,0,0:0:0:0:
432,254,4511,2,0,P|432:227|437:187,2,55.9999982910157
344,163,4998,6,0,P|290:175|233:161,1,111.999996582031
191,78,5484,1,0,0:0:0:0:
135,157,5647,1,0,0:0:0:0:
184,240,5809,2,0,L|178:301,2,55.9999982910157
53,327,6295,6,0,P|67:275|52:198,1,111.999996582031
0,150,6782,1,0,0:0:0:0:
57,73,6944,1,0,0:0:0:0:
57,73,7106,2,0,L|133:67,1,55.9999982910157
186,129,7430,1,0,0:0:0:0:
443,88,7593,6,0,P|428:142|435:197,1,111.999996582031
379,270,8079,2,0,L|319:264,1,55.9999982910157
260,329,8403,2,0,L|200:334,1,55.9999982910157
70,290,8728,2,0,L|129:284,1,55.9999982910157
42,198,9052,6,0,P|40:164|48:123,1,55.9999982910157
131,104,9376,2,0,P|133:138|124:178,1,55.9999982910157
219,205,9701,2,0,P|217:171|225:130,1,55.9999982910157
308,111,10025,2,0,P|310:145|301:185,1,55.9999982910157
372,46,10349,6,0,L|444:52,1,55.9999982910157
489,138,10674,2,0,L|416:144,1,55.9999982910157
346,231,10998,2,0,L|418:237,1,55.9999982910157
463,323,11323,2,0,L|390:329,1,55.9999982910157
246,258,11647,6,0,P|240:228|252:183,1,55.9999982910157
314,74,11971,2,0,P|320:104|308:149,1,55.9999982910157
313,138,12214,1,0,0:0:0:0:
309,147,12295,1,0,0:0:0:0:
226,27,12457,1,0,0:0:0:0:
148,226,12620,1,0,0:0:0:0:
131,105,12782,1,0,0:0:0:0:
412,40,12944,6,0,B|404:96|404:96|416:136|416:136|407:180,1,143.999995605469
406,197,13268,2,0,L|445:193,3,40
347,254,13593,2,0,L|307:250,3,40
401,314,13917,1,0,0:0:0:0:
241,333,14079,6,0,P|271:252|233:174,1,160
184,256,14484,1,0,0:0:0:0:
184,256,14565,2,0,L|103:248,1,80
148,344,14809,1,0,0:0:0:0:
148,344,14890,2,0,L|67:351,1,80
152,160,15214,1,0,0:0:0:0:
241,334,15376,6,0,P|314:305|388:332,1,160
389,346,15782,1,0,0:0:0:0:
391,361,15863,1,0,0:0:0:0:
480,284,16025,2,0,L|474:343,2,40
396,204,16349,1,0,0:0:0:0:
398,219,16430,1,0,0:0:0:0:
400,234,16511,1,0,0:0:0:0:
168,120,16674,6,0,B|252:104|252:104|348:120,1,160
253,188,17160,2,0,L|244:283,1,80
246,280,17403,1,0,0:0:0:0:
246,292,17484,1,0,0:0:0:0:
148,224,17647,1,0,0:0:0:0:
149,243,17728,1,0,0:0:0:0:
151,263,17809,1,0,0:0:0:0:
113,81,17971,6,0,P|75:91|35:81,2,80
208,8,18457,1,0,0:0:0:0:
285,56,18620,1,0,0:0:0:0:
278,68,18701,1,0,0:0:0:0:
273,81,18782,2,0,L|264:172,1,80
384,28,19106,1,0,0:0:0:0:
404,244,19268,6,0,B|300:220|312:272|216:244,1,191.999994140625
352,320,19755,1,0,0:0:0:0:
350,331,19836,1,0,0:0:0:0:
349,343,19917,1,0,0:0:0:0:
348,355,19998,1,0,0:0:0:0:
347,367,20079,1,0,0:0:0:0:
248,332,20241,1,0,0:0:0:0:
148,364,20403,1,0,0:0:0:0:
168,176,20565,6,0,L|177:287,1,80
100,120,20890,1,0,0:0:0:0:
80,284,21052,1,0,0:0:0:0:
264,200,21214,2,0,P|301:192|345:200,1,80
412,352,21538,1,0,0:0:0:0:
436,172,21701,1,0,0:0:0:0:
308,288,21863,5,0,0:0:0:0:
256,104,22025,1,0,0:0:0:0:
192,264,22187,1,0,0:0:0:0:
364,104,22349,1,0,0:0:0:0:
176,52,22511,5,0,0:0:0:0:
408,16,22674,1,0,0:0:0:0:
254,109,22836,1,0,0:0:0:0:
252,129,22917,1,0,0:0:0:0:
254,149,22998,1,0,0:0:0:0:
260,168,23079,1,0,0:0:0:0:
269,186,23160,1,0,0:0:0:0:
281,202,23241,1,0,0:0:0:0:
297,213,23322,6,0,B|326:118|268:118|297:25,1,191.999994140625
378,73,25917,1,0,0:0:0:0:
471,288,27214,1,0,0:0:0:0:
157,277,28025,5,0,0:0:0:0:
229,215,28187,2,0,L|232:175,2,40
383,346,28511,6,0,L|373:235,1,80
325,56,28836,2,0,P|314:92|321:149,1,80
409,26,29160,1,0,0:0:0:0:
409,26,29322,1,0,0:0:0:0:
430,170,29484,1,0,0:0:0:0:
193,225,29647,6,0,P|231:234|270:226,1,80
123,132,29971,2,0,P|84:122|45:130,1,80
237,122,30295,2,0,L|244:36,1,80
345,91,30620,1,0,0:0:0:0:
137,155,30782,1,0,0:0:0:0:
280,216,30944,1,0,0:0:0:0:
122,278,31106,6,0,L|23:269,1,80
243,354,31430,2,0,L|341:345,1,80
400,260,31755,1,0,0:0:0:0:
400,260,31917,1,0,0:0:0:0:
310,81,32079,1,0,0:0:0:0:
280,216,32241,1,0,0:0:0:0:
103,115,32403,6,0,P|151:105|190:118,1,80
20,68,32728,2,0,L|14:4,2,40
143,196,33052,1,0,0:0:0:0:
257,48,33214,1,0,0:0:0:0:
374,194,33376,1,0,0:0:0:0:
372,213,33457,1,0,0:0:0:0:
370,233,33538,1,0,0:0:0:0:
129,336,33701,5,0,0:0:0:0:
228,138,33863,1,0,0:0:0:0:
299,288,34025,1,0,0:0:0:0:
391,90,34187,5,0,0:0:0:0:
103,175,34349,1,0,0:0:0:0:
306,303,34511,1,0,0:0:0:0:
152,69,34674,5,0,0:0:0:0:
198,245,34836,1,0,0:0:0:0:
260,28,34998,5,0,0:0:0:0:
192,264,35160,1,0,0:0:0:0:
370,181,35322,1,0,0:0:0:0:
57,135,35484,1,0,0:0:0:0:
192,112,35647,5,0,0:0:0:0:
208,124,36133,6,0,L|191:312,1,176.000005371094
312,168,36620,2,0,P|356:159|411:176,1,88.000002685547
85,274,36944,2,0,P|40:282|-14:265,1,88.000002685547
94,86,37268,1,0,0:0:0:0:
172,156,37430,6,0,B|166:219|166:219|182:264|182:264|176:332,1,176.000005371094
256,200,37917,1,0,0:0:0:0:
88,276,38079,1,0,0:0:0:0:
280,304,38241,2,0,P|323:309|365:297,1,88.000002685547
504,180,38565,2,0,P|460:174|418:186,1,88.000002685547
456,356,38890,5,0,0:0:0:0:
320,216,39052,1,0,0:0:0:0:
467,264,39214,1,0,0:0:0:0:
280,304,39376,2,0,P|237:313|195:301,1,88.000002685547,0|0,2:0|2:0,2:0:0:0:
73,169,39701,2,0,P|114:156|157:166,1,88.000002685547
36,262,40025,6,0,L|51:81,1,176.000005371094
237,213,40511,1,0,0:0:0:0:
93,351,40674,1,0,0:0:0:0:
327,257,40836,1,0,0:0:0:0:
339,226,40917,1,0,0:0:0:0:
339,193,40998,1,0,0:0:0:0:
328,163,41079,1,0,0:0:0:0:
305,140,41160,2,0,L|248:135,1,44.0000013427735
461,49,41322,6,0,P|432:145|466:220,1,176.000005371094
345,51,41809,1,0,0:0:0:0:
327,257,41971,1,0,0:0:0:0:
240,133,42133,2,0,P|192:125|146:141,1,88.000002685547
36,272,42457,1,0,0:0:0:0:
251,215,42620,6,0,L|268:13,1,176.000005371094
293,299,43106,2,0,P|243:306|193:291,1,88.000002685547
344,210,43430,1,0,0:0:0:0:
378,367,43593,1,0,0:0:0:0:
445,238,43755,2,0,L|436:140,1,88.000002685547
365,31,44079,5,0,0:0:0:0:
155,136,44241,1,0,0:0:0:0:
245,8,44403,1,0,0:0:0:0:
292,213,44565,2,0,P|302:256|282:317,1,88.000002685547
184,250,44890,1,0,0:0:0:0:
492,120,45052,2,0,L|370:109,1,88.000002685547
396,124,45295,1,0,0:0:0:0:
388,136,45376,5,0,0:0:0:0:
365,342,45538,1,0,0:0:0:0:
269,127,45701,2,0,L|276:28,1,88.000002685547
96,281,46025,5,0,0:0:0:0:
419,231,46187,2,0,L|367:226,1,44.0000013427735
161,48,46349,1,0,0:0:0:0:
169,32,46430,1,0,0:0:0:0:
183,21,46511,6,0,B|246:15|246:15|291:31|291:31|359:25,1,176.000005371094
229,109,46998,2,0,P|216:153|227:215,1,88.000002685547
473,346,47322,2,0,P|486:302|475:240,1,88.000002685547
339,154,47647,1,0,0:0:0:0:
303,265,47809,6,0,P|216:296|119:232,1,176.000005371094
99,171,48295,1,0,0:0:0:0:
84,354,48457,1,0,0:0:0:0:
219,194,48620,2,0,L|209:81,1,88.000002685547
303,265,48944,2,0,L|295:352,1,88.000002685547
376,194,49268,5,0,0:0:0:0:
203,295,49430,1,0,0:0:0:0:
394,328,49593,1,0,0:0:0:0:
266,186,49755,2,0,P|257:147|266:98,1,88.000002685547
402,18,50079,2,0,P|411:57|402:106,1,88.000002685547
181,212,50403,6,0,B|244:206|244:206|289:222|289:222|357:216,1,176.000005371094
99,134,50890,1,0,0:0:0:0:
227,307,51052,1,0,0:0:0:0:
207,62,51214,2,0,L|202:113,1,44.0000013427735
89,220,51376,1,0,0:0:0:0:
95,250,51457,1,0,0:0:0:0:
102,280,51538,2,0,L|106:329,1,44.0000013427735
307,121,51701,6,0,P|384:81|467:121,1,176.000005371094
364,282,52187,2,0,L|371:193,1,88.000002685547
377,181,52430,1,0,0:0:0:0:
385,169,52511,1,0,0:0:0:0:
433,357,52674,1,0,0:0:0:0:
512,197,52836,1,0,0:0:0:0:
294,102,52998,5,0,0:0:0:0:
290,116,53079,1,0,0:0:0:0:
286,130,53160,2,0,L|196:122,1,88.000002685547
34,209,53484,2,0,L|142:199,1,88.000002685547
129,214,53728,1,0,0:0:0:0:
137,226,53809,1,0,0:0:0:0:
17,302,53971,1,0,0:0:0:0:
220,278,54133,2,0,P|232:229|220:177,1,88.000002685547
141,105,54457,5,0,0:0:0:0:
331,145,54620,1,0,0:0:0:0:
137,226,54782,1,0,0:0:0:0:
257,50,54944,1,0,0:0:0:0:
325,254,55106,1,0,0:0:0:0:
141,105,55268,2,0,L|149:4,1,88.000002685547
40,221,55593,5,0,0:0:0:0:
42,241,55674,1,0,0:0:0:0:
44,263,55755,1,0,0:0:0:0:
226,179,55917,1,0,0:0:0:0:
224,199,55998,1,0,0:0:0:0:
222,221,56079,1,0,0:0:0:0:
141,105,56241,1,0,0:0:0:0:
364,49,56403,5,0,0:0:0:0:
128,121,56565,1,0,0:0:0:0:
446,151,56728,1,0,0:0:0:0:
231,351,56890,6,0,B|236:286|236:286|220:241|220:241|226:178,1,176.000005371094
139,300,57376,2,0,P|92:307|39:291,1,88.000002685547
312,218,57701,2,0,P|359:211|411:226,1,88.000002685547
230,364,58025,1,0,0:0:0:0:
89,120,58187,1,0,0:0:0:0:
91,141,58268,1,0,0:0:0:0:
94,162,58349,6,0,P|135:152|185:162,1,88.000002685547
324,321,58674,1,0,0:0:0:0:
284,212,58836,1,0,0:0:0:0:
290,198,58917,1,0,0:0:0:0:
294,183,58998,2,0,L|301:94,1,88.000002685547
171,281,59322,1,0,0:0:0:0:
386,244,59484,2,0,L|381:189,1,44.0000013427735
472,49,59647,6,0,P|461:92|472:153,1,88.000002685547
471,351,59971,2,0,P|482:308|471:247,1,88.000002685547
464,257,60214,1,0,0:0:0:0:
451,249,60295,1,0,0:0:0:0:
372,306,60457,1,0,0:0:0:0:
325,119,60620,1,0,0:0:0:0:
93,199,60782,1,0,0:0:0:0:
94,220,60863,1,0,0:0:0:0:
97,241,60944,6,0,L|193:232,1,88.000002685547
424,114,61268,2,0,L|327:105,1,88.000002685547
220,314,61593,1,0,0:0:0:0:
255,59,61755,1,0,0:0:0:0:
315,359,61917,1,0,0:0:0:0:
3,161,62079,6,0,B|68:166|68:166|113:150|113:150|176:156,1,176.000005371094
53,82,62565,2,0,P|39:41|53:0,1,88.000002685547
129,234,62890,2,0,P|142:274|129:316,1,88.000002685547
0,152,63214,1,0,0:0:0:0:
165,29,63376,1,0,0:0:0:0:
166,50,63457,1,0,0:0:0:0:
169,71,63538,6,0,L|261:62,1,88.000002685547
472,165,63863,2,0,L|384:157,1,88.000002685547
238,301,64187,2,0,P|226:258|238:214,1,88.000002685547
362,64,64511,1,0,0:0:0:0:
397,262,64674,2,0,L|335:257,1,44.0000013427735
193,127,64836,6,0,P|234:114|277:123,1,88.000002685547
80,192,65160,2,0,L|72:102,1,88.000002685547
126,290,65484,2,0,P|84:302|41:293,1,88.000002685547
179,139,65809,1,0,0:0:0:0:
272,278,65971,1,0,0:0:0:0:
274,299,66052,1,0,0:0:0:0:
276,320,66133,6,0,P|359:288|436:322,1,176.000005371094
355,380,66620,1,0,0:0:0:0:
324,192,66782,1,0,0:0:0:0:
356,188,66863,1,0,0:0:0:0:
389,185,66944,1,0,0:0:0:0:
422,182,67025,1,0,0:0:0:0:
455,179,67106,2,0,L|460:116,1,44.0000013427735
210,77,67268,6,0,B|216:140|216:140|200:185|200:185|206:253,1,176.000005371094
126,115,67755,2,0,P|81:102|30:123,1,88.000002685547
298,194,68079,2,0,P|314:151|298:98,1,88.000002685547
132,11,68403,1,0,0:0:0:0:
84,193,68565,1,0,0:0:0:0:
86,214,68647,1,0,0:0:0:0:
88,235,68728,6,0,L|184:226,1,88.000002685547
393,119,69052,2,0,L|297:110,1,88.000002685547
119,120,69376,2,0,P|116:77|135:37,1,88.000002685547
281,208,69701,1,0,0:0:0:0:
122,312,69863,2,0,L|79:309,1,44.0000013427735
320,357,70025,6,0,P|361:343|407:357,1,88.000002685547
413,366,70268,1,0,0:0:0:0:
421,379,70349,1,0,0:0:0:0:
361,254,70511,1,0,0:0:0:0:
454,119,70674,2,0,P|460:162|446:203,1,88.000002685547
340,29,70998,1,0,0:0:0:0:
153,109,71160,1,0,0:0:0:0:
151,131,71241,1,0,0:0:0:0:
149,153,71322,6,0,P|193:142|245:153,1,88.000002685547
409,250,71647,2,0,P|365:261|313:250,1,88.000002685547
292,79,71971,1,0,0:0:0:0:
197,233,72133,1,0,0:0:0:0:
401,124,72295,1,0,0:0:0:0:
111,111,72457,6,0,B|117:174|117:174|101:219|101:219|106:283,1,176.000005371094
12,151,72944,1,0,0:0:0:0:
197,231,73106,1,0,0:0:0:0:
195,246,73187,1,0,0:0:0:0:
193,261,73268,1,0,0:0:0:0:
251,155,73430,1,0,0:0:0:0:
289,339,73593,1,0,0:0:0:0:
376,220,73755,2,0,L|314:214,1,44.0000013427735
156,148,73917,6,0,L|254:138,1,88.000002685547
111,301,74241,2,0,L|12:291,1,88.000002685547
65,99,74565,2,0,P|48:143|65:198,1,88.000002685547
204,351,74890,2,0,P|218:310|209:268,1,88.000002685547
340,129,75214,6,0,L|330:235,1,88.000002685547
111,301,75538,1,0,0:0:0:0:
62,202,75701,1,0,0:0:0:0:
66,179,75782,1,0,0:0:0:0:
70,153,75863,2,0,P|113:143|158:153,1,88.000002685547
213,359,76187,1,0,0:0:0:0:
376,220,76349,2,0,L|332:216,1,44.0000013427735
208,58,76511,6,0,P|249:45|291:55,1,88.000002685547
296,76,76755,1,0,0:0:0:0:
301,96,76836,1,0,0:0:0:0:
155,152,76998,1,0,0:0:0:0:
153,173,77079,1,0,0:0:0:0:
151,195,77160,2,0,L|156:259,1,44.0000013427735
232,345,77322,2,0,L|235:301,1,44.0000013427735
294,176,77484,2,0,L|298:220,1,44.0000013427735
375,326,77647,2,0,L|378:282,1,44.0000013427735
69,282,77809,6,0,L|63:349,1,68.0000012969971
157,256,78133,1,0,0:0:0:0:
236,301,78295,2,0,P|270:312|317:301,1,68.0000012969971
436,246,78620,2,0,P|404:235|370:238,1,68.0000012969971
278,75,78944,6,0,P|256:139|278:200,1,136.000002593994
348,136,79430,1,0,0:0:0:0:
372,239,79593,2,0,L|366:316,1,68.0000012969971
242,369,79917,2,0,L|237:301,1,68.0000012969971
11,178,80241,6,0,B|80:163|80:163|146:178,1,136.000002593994
78,252,80728,1,0,0:0:0:0:
234,217,80890,2,0,P|241:182|233:145,1,68.0000012969971
131,20,81214,2,0,P|124:55|132:92,1,68.0000012969971
364,62,81538,6,0,L|218:49,1,136.000002593994
73,188,82025,2,0,L|145:181,1,68.0000012969971
293,279,82349,1,0,0:0:0:0:
221,137,82511,1,0,0:0:0:0:
126,266,82674,1,0,0:0:0:0:
330,167,82836,1,0,0:0:0:0:
143,47,82998,6,0,B|156:120|120:120|141:182,1,136.000002593994
53,74,83484,2,0,L|49:33,2,34.0000006484985
17,159,83809,2,0,P|13:198|23:229,1,68.0000012969971
221,137,84133,6,0,P|282:117|354:148,1,136.000002593994
349,241,84620,1,0,0:0:0:0:
441,139,84782,2,0,L|444:95,2,34.0000006484985
483,224,85106,2,0,P|491:259|481:297,1,68.0000012969971
354,258,85430,6,0,L|219:270,1,136.000002593994
171,189,85917,1,0,0:0:0:0:
126,294,86079,1,0,0:0:0:0:
124,310,86160,1,0,0:0:0:0:
123,327,86241,1,0,0:0:0:0:
80,208,86403,2,0,L|73:135,1,68.0000012969971
303,160,86728,6,0,P|238:183|165:161,1,136.000002593994
21,52,87214,2,0,L|100:45,1,68.0000012969971
234,93,87538,1,0,0:0:0:0:
80,208,87701,1,0,0:0:0:0:
82,174,87782,1,0,0:0:0:0:
85,140,87863,1,0,0:0:0:0:
213,280,88025,6,0,B|506:251|506:251|454:256|447:315|447:315|490:183|495:77|457:-2|330:39|306:180|288:253|274:367,1,1003.19998775391
