osu file format v14

[General]
AudioFilename: audio.mp3
AudioLeadIn: 0
PreviewTime: 126011
Countdown: 0
SampleSet: Normal
StackLeniency: 0.2
Mode: 0
LetterboxInBreaks: 0
WidescreenStoryboard: 1

[Editor]
DistanceSpacing: 0.9
BeatDivisor: 4
GridSize: 32
TimelineZoom: 2.999999

[Metadata]
Title:Zettai yoiko no etc
TitleUnicode:絶対よい子のエトセトラ
Artist:After the Rain
ArtistUnicode:After the Rain
Creator:Logic Agent
Version:NiNo's Insane
Source:
Tags:shunao shogunmoon mun uta snownino_ battle stingy mafumafu soraru male vocal an absolutely good child's et cetera atr mafumafu soraru japanese pop izanaware traveler
BeatmapID:1639290
BeatmapSetID:757291

[Difficulty]
HPDrainRate:5
CircleSize:4
OverallDifficulty:8
ApproachRate:9
SliderMultiplier:1.8
SliderTickRate:1

[Events]
//Background and Video events
0,0,"soraru sucks lol.jpg",0,0
//Break Periods
2,49056,53056
2,126394,137785
//Storyboard Layer 0 (Background)
//Storyboard Layer 1 (Fail)
//Storyboard Layer 2 (Pass)
//Storyboard Layer 3 (Foreground)
//Storyboard Layer 4 (Overlay)
//Storyboard Sound Samples

[TimingPoints]
1384,329.67032967033,4,1,1,45,1,0
2537,-133.333333333333,4,1,1,45,0,0
5422,-133.333333333333,4,1,1,5,0,0
5504,-133.333333333333,4,1,1,45,0,0
6658,-133.333333333333,4,1,3,45,0,0
8801,-133.333333333333,4,1,1,45,0,0
8966,-133.333333333333,4,1,2,45,0,0
9213,-133.333333333333,4,1,1,5,0,0
9296,-100,4,1,1,55,0,0
15559,-100,4,1,2,55,0,0
15724,-100,4,1,1,55,0,0
16713,-100,4,1,2,55,0,0
17125,-100,4,1,1,5,0,0
17208,-100,4,1,1,55,0,0
18197,-100,4,3,2,55,0,0
18362,-100,4,1,1,55,0,0
19186,-100,4,3,2,55,0,0
19433,-100,4,1,1,55,0,0
19845,-100,4,1,1,55,0,0
21246,-100,4,1,1,5,0,0
21329,-100,4,1,1,55,0,0
22482,-133.333333333333,4,3,1,30,0,0
27675,-133.333333333333,4,3,1,5,0,0
27757,-133.333333333333,4,3,1,30,0,0
31548,-133.333333333333,4,1,1,40,0,0
33032,-100,4,1,1,45,0,0
43581,-200,4,1,1,40,0,0
43911,-66.6666666666667,4,1,1,40,0,0
44241,-100,4,1,1,40,0,0
44405,-100,4,3,2,40,0,0
44570,-100,4,3,2,40,0,0
44735,-100,4,1,1,40,0,0
45642,-100,4,1,1,5,0,0
45724,-100,4,1,1,40,0,0
46384,-100,4,3,2,40,0,0
46466,-100,4,3,2,40,0,0
46713,-100,4,1,1,40,0,0
46960,-100,4,1,1,5,0,0
47043,-100,4,3,2,40,0,0
47125,-100,4,1,1,40,0,0
47208,-100,4,1,1,40,0,0
47373,-100,4,1,1,40,0,0
48856,899.9955000225,3,2,2,30,1,0
53206,-100,3,1,1,5,0,0
53656,329.67032967033,4,1,1,45,1,0
54645,-100,4,3,2,45,0,0
54809,-100,4,1,1,45,0,0
55634,-100,4,3,2,45,0,0
55963,-100,4,1,1,45,0,0
56293,-100,4,1,1,45,0,0
58930,-100,4,1,1,40,0,0
60496,-100,4,1,1,45,0,0
61568,-100,4,1,1,75,0,1
82666,-100,4,1,1,70,0,0
84068,-100,4,1,1,5,0,0
84150,-100,4,1,1,70,0,0
85634,-100,4,3,2,70,0,0
85963,-100,4,1,1,70,0,0
86210,-100,4,1,1,70,0,0
86705,-100,4,1,1,5,0,0
86787,-100,4,1,1,70,0,0
87941,-100,4,2,3,35,0,0
89260,-133.333333333333,4,3,1,40,0,0
94205,-133.333333333333,4,3,3,40,0,0
94315,-133.333333333333,4,3,1,40,0,0
98491,-133.333333333333,4,1,1,40,0,0
99809,-100,4,1,1,45,0,0
107721,-100,4,1,1,60,0,0
111183,-100,4,3,2,60,0,0
111265,-100,4,1,1,5,0,0
111348,-100,4,3,2,60,0,0
111513,-100,4,1,1,60,0,0
112419,-100,4,1,1,5,0,0
112502,-100,4,1,1,60,0,0
113161,-100,4,3,2,60,0,0
113243,-100,4,3,2,60,0,0
113491,-100,4,1,1,60,0,0
113738,-100,4,1,1,5,0,0
113820,-100,4,3,2,60,0,0
113903,-100,4,1,1,60,0,0
113985,-100,4,1,1,60,0,0
114150,-100,4,1,1,60,0,0
116458,-100,4,3,2,60,0,0
116623,-100,4,1,1,60,0,0
116787,-100,4,1,1,60,0,0
117035,-100,4,1,1,5,0,0
117117,-100,4,1,1,60,0,0
120249,-100,4,3,2,60,0,0
120579,-100,4,1,1,60,0,0
120908,-100,4,1,1,60,0,0
123628,-100,4,1,1,5,0,0
126194,400,4,2,12,30,1,0
126994,-100,4,2,15,30,0,0
127794,-100,4,2,12,30,0,0
129394,-100,4,2,17,30,0,0
130194,-100,4,2,11,30,0,0
130994,-100,4,2,14,30,0,0
131994,-100,4,2,10,30,0,0
132194,-100,4,2,12,30,0,0
132594,-100,4,2,13,30,0,0
132994,447.761194029851,4,2,12,30,1,0
133434,472.44094488189,4,2,13,25,1,0
133906,504.201680672269,4,2,12,25,1,0
134410,535.714285714286,4,2,11,20,1,0
134945,600,4,2,16,20,1,0
135545,710.059171597633,4,2,14,15,1,0
138385,375,4,2,3,30,1,0
138385,-200,4,2,3,30,0,0
139135,-200,4,2,3,45,0,0
139885,329.67032967033,4,1,1,60,1,0
142439,-100,4,1,1,5,0,0
142522,-200,4,1,1,20,0,0
142852,-100,4,1,1,75,0,1
163621,-100,4,1,1,70,0,0
165022,-100,4,1,1,5,0,0
165104,-100,4,1,1,70,0,0
166588,-100,4,3,2,70,0,0
166917,-100,4,1,1,70,0,0
167247,-100,4,1,1,70,0,0
167659,-100,4,1,1,5,0,0
167742,-100,4,1,1,70,0,0
168566,-50,4,1,1,70,0,0
168731,-50,4,1,1,5,0,0

[Colours]
Combo1 : 196,108,218
Combo2 : 104,212,214
Combo3 : 139,220,118
Combo4 : 239,101,176

[HitObjects]
351,128,1384,5,2,0:0:0:0:
159,256,1713,1,0,0:0:0:0:
159,256,2043,1,2,0:0:0:0:
74,224,2208,1,0,0:0:0:0:
74,224,2537,6,0,L|91:81,1,135.000005149842,0|0,0:0|0:0,0:0:0:0:
160,48,3032,1,0,0:0:0:0:
186,124,3197,1,0,0:0:0:0:
257,83,3362,1,2,0:0:0:0:
283,159,3526,1,0,0:0:0:0:
354,118,3691,2,0,P|389:109|433:114,1,67.5000025749208,8|0,0:0|0:0,0:0:0:0:
477,168,4021,6,0,L|473:257,1,67.5000025749208,2|0,0:0|0:0,0:0:0:0:
406,280,4351,2,0,L|410:369,1,67.5000025749208,8|10,0:0|0:0,0:0:0:0:
335,380,4680,1,8,0:0:0:0:
308,303,4845,2,0,L|220:298,1,67.5000025749208,10|8,0:0|0:0,0:0:0:0:
159,300,5175,6,0,P|201:274|212:186,1,135.000005149842,2|10,0:0|0:0,0:0:0:0:
153,143,5669,1,0,0:0:0:0:
139,222,5834,1,10,0:0:0:0:
229,115,5999,1,10,0:0:0:0:
229,115,6658,6,0,L|319:108,1,67.5000025749208,8|0,0:0|0:0,0:0:0:0:
349,47,6988,2,0,L|439:54,1,67.5000025749208,8|0,0:0|0:0,0:0:0:0:
473,110,7318,2,0,P|485:154|484:193,1,67.5000025749208,8|0,0:0|0:0,0:0:0:0:
427,232,7647,2,0,P|415:276|416:315,1,67.5000025749208,8|0,0:0|0:0,0:0:0:0:
384,373,7977,5,8,0:0:0:0:
334,308,8142,1,0,0:0:0:0:
304,384,8307,2,0,L|227:374,1,67.5000025749208,8|0,0:0|0:0,0:0:0:0:
160,348,8636,1,8,0:0:0:0:
222,295,8801,1,2,0:0:0:0:
222,295,8884,1,2,0:0:0:0:
222,295,8966,1,8,0:0:0:0:
222,295,9296,6,0,L|335:291,1,90,2|8,0:0|0:0,0:0:0:0:
402,287,9543,1,8,0:0:0:0:
402,287,9625,2,0,P|383:243|388:200,1,90,2|8,0:0|0:0,0:0:0:0:
402,112,9955,1,2,0:0:0:0:
318,146,10120,1,8,0:0:0:0:
318,146,10202,1,8,0:0:0:0:
318,146,10285,2,0,P|267:162|223:157,1,90,2|8,0:0|0:0,0:0:0:0:
142,144,10614,6,0,P|121:187|124:238,1,90,2|8,0:0|0:0,0:0:0:0:
150,315,10862,1,8,0:0:0:0:
150,315,10944,2,0,L|256:307,1,90,2|8,0:0|0:0,0:0:0:0:
320,348,11274,1,2,0:0:0:0:
356,266,11438,1,8,0:0:0:0:
356,266,11521,1,8,0:0:0:0:
356,266,11603,1,2,0:0:0:0:
437,306,11768,1,8,0:0:0:0:
473,224,11933,6,0,P|486:180|476:131,1,90,2|8,0:0|0:0,0:0:0:0:
444,54,12180,1,8,0:0:0:0:
444,54,12263,2,0,L|339:49,1,90,2|8,0:0|0:0,0:0:0:0:
264,44,12592,1,2,0:0:0:0:
175,40,12757,2,0,L|170:129,1,90,8|2,0:0|0:0,0:0:0:0:
167,220,13087,1,8,0:0:0:0:
167,220,13169,1,8,0:0:0:0:
167,220,13252,6,0,P|210:211|251:170,1,90,2|8,0:0|0:0,0:0:0:0:
170,129,13581,1,2,0:0:0:0:
89,171,13746,1,8,0:0:0:0:
86,262,13911,2,0,P|115:294|171:309,1,90,2|8,0:0|0:0,0:0:0:0:
180,312,14158,1,8,0:0:0:0:
201,307,14240,1,2,0:0:0:0:
222,297,14322,1,8,0:0:0:0:
239,282,14405,1,8,0:0:0:0:
251,264,14487,1,8,0:0:0:0:
258,242,14570,6,0,L|248:131,1,90,10|8,0:0|0:0,0:0:0:0:
242,60,14818,1,8,0:0:0:0:
242,60,14900,2,0,P|286:77|338:74,1,90,2|8,0:0|0:0,0:0:0:0:
409,35,15230,1,2,0:0:0:0:
85,151,15559,1,8,0:0:0:0:
129,229,15724,1,0,0:0:0:0:
129,229,15807,1,0,0:0:0:0:
129,229,15889,6,0,L|230:233,1,90,10|8,0:0|0:0,0:0:0:0:
309,233,16136,1,8,0:0:0:0:
309,233,16219,2,0,P|282:279|287:326,1,90,2|8,0:0|0:0,0:0:0:0:
352,371,16548,1,2,0:0:0:0:
410,302,16713,1,8,0:0:0:0:
410,302,16878,1,8,0:0:0:0:
410,302,17208,6,0,L|417:190,1,90,2|8,0:0|0:0,0:0:0:0:
419,189,17455,1,8,0:0:0:0:
419,166,17537,1,8,0:0:0:0:
412,145,17619,1,8,0:0:0:0:
400,126,17702,2,0,P|360:104|308:103,1,90,2|0,0:0|0:0,0:0:0:0:
231,133,18032,1,8,0:0:0:0:
231,133,18114,1,8,0:0:0:0:
231,133,18197,1,8,1:3:0:0:
300,190,18362,6,0,P|321:125|246:38,1,180,2|2,0:0|0:0,0:0:0:0:
214,33,18774,1,0,0:0:0:0:
214,33,18856,1,8,0:0:0:0:
132,72,19021,2,0,B|87:111|87:111|109:234,1,180,2|8,0:0|1:3,0:0:0:0:
122,272,19433,1,0,0:0:0:0:
122,272,19515,1,8,0:2:0:0:
193,326,19680,1,8,0:2:0:0:
205,238,19845,5,2,0:0:0:0:
122,272,20010,1,0,0:0:0:0:
264,380,20175,1,10,0:0:0:0:
288,204,20340,1,8,0:0:0:0:
193,326,20504,1,10,0:0:0:0:
359,258,20669,1,8,0:0:0:0:
217,150,20834,1,10,0:0:0:0:
347,346,20998,1,8,0:0:0:0:
347,346,21081,1,0,0:0:0:0:
347,346,21164,6,0,L|447:353,1,90,10|0,0:0|0:0,0:0:0:0:
482,355,21411,1,0,0:0:0:0:
482,355,21493,1,0,0:0:0:0:
488,265,21658,1,0,0:0:0:0:
494,175,21823,1,0,0:0:0:0:
494,175,22482,5,0,0:0:0:0:
431,122,22647,2,0,L|434:52,2,67.5000025749208,0|8|0,0:0|0:0|0:0,0:0:0:0:
372,179,23142,1,0,0:0:0:0:
309,126,23307,1,0,0:0:0:0:
250,183,23471,1,8,0:0:0:0:
187,130,23636,6,0,P|159:102|62:112,1,135.000005149842,0|0,0:0|0:0,0:0:0:0:
38,181,24131,1,8,0:0:0:0:
118,171,24296,1,0,0:0:0:0:
87,246,24460,2,0,L|78:324,1,67.5000025749208,0|0,0:0|0:0,0:0:0:0:
159,325,24790,2,0,L|226:332,1,67.5000025749208,8|0,0:0|0:0,0:0:0:0:
273,266,25120,6,0,L|357:256,1,67.5000025749208,0|0,0:0|0:0,0:0:0:0:
405,210,25449,1,8,0:0:0:0:
330,177,25614,1,0,0:0:0:0:
395,129,25779,2,0,P|408:70|348:16,1,135.000005149842,0|8,0:0|0:0,0:0:0:0:
280,31,26274,6,0,L|202:37,1,67.5000025749208,0|0,0:0|0:0,0:0:0:0:
140,73,26603,1,0,0:0:0:0:
207,117,26768,2,0,L|274:111,1,67.5000025749208,8|0,0:0|0:0,0:0:0:0:
355,111,27098,2,0,P|373:147|375:183,1,67.5000025749208,0|0,0:0|0:0,0:0:0:0:
274,110,27427,1,6,0:0:0:0:
451,203,27757,5,2,0:0:0:0:
376,173,27922,2,0,L|383:92,2,67.5000025749208,0|8|0,0:0|0:0|0:0,0:0:0:0:
326,237,28416,2,0,L|333:318,2,67.5000025749208,0|0|8,0:0|0:0|0:0,0:0:0:0:
251,207,28911,2,0,L|263:59,1,135.000005149842,0|0,0:0|0:0,0:0:0:0:
196,25,29405,1,8,0:0:0:0:
162,98,29570,1,0,0:0:0:0:
96,51,29735,2,0,P|59:43|27:47,1,67.5000025749208,0|0,0:0|0:0,0:0:0:0:
22,127,30065,1,8,0:0:0:0:
22,127,30394,5,0,0:0:0:0:
83,180,30559,2,0,L|77:252,2,67.5000025749208,0|8|0,0:0|0:0|0:0,0:0:0:0:
144,126,31054,2,0,L|138:54,2,67.5000025749208,0|0|8,0:0|0:0|0:0,0:0:0:0:
77,247,31548,1,2,0:0:0:0:
77,247,31878,5,2,0:0:0:0:
122,322,32043,1,8,0:0:0:0:
155,325,32125,1,8,0:0:0:0:
189,328,32207,1,2,0:0:0:0:
234,252,32373,1,8,0:0:0:0:
267,248,32455,1,8,0:0:0:0:
301,245,32537,1,2,0:0:0:0:
349,318,32702,1,8,0:0:0:0:
382,322,32784,1,8,0:0:0:0:
416,325,32866,1,8,0:0:0:0:
449,329,32949,1,8,0:0:0:0:
483,332,33031,5,2,0:0:0:0:
490,241,33197,2,0,L|495:140,1,90,0|10,0:0|0:0,0:0:0:0:
504,61,33526,1,0,0:0:0:0:
423,100,33691,2,0,P|376:117|329:115,1,90,2|0,0:0|0:0,0:0:0:0:
266,59,34021,1,10,0:0:0:0:
209,129,34186,6,0,L|204:238,1,90,2|0,0:0|0:0,0:0:0:0:
199,307,34515,2,0,P|243:331|293:326,1,90,2|10,0:0|0:0,0:0:0:0:
369,301,34845,1,0,0:0:0:0:
377,211,35010,2,0,L|381:121,1,90,2|0,0:0|0:0,0:0:0:0:
384,30,35340,2,0,B|311:62|311:62|209:24,1,180,10|2,0:0|0:0,0:0:0:0:
127,16,35834,5,0,0:0:0:0:
163,98,35999,1,10,0:0:0:0:
73,88,36164,1,0,0:0:0:0:
109,170,36329,2,0,P|125:212|110:275,1,90,2|0,0:0|0:0,0:0:0:0:
49,311,36658,1,10,0:0:0:0:
133,343,36823,6,0,L|328:352,1,180,2|2,0:0|0:0,0:0:0:0:
403,357,37318,2,0,P|390:311|399:266,1,90,10|0,0:0|0:0,0:0:0:0:
478,230,37647,1,2,0:0:0:0:
403,180,37812,2,0,L|350:174,1,45,4|0,0:0|0:0,0:0:0:0:
298,107,37977,2,0,L|186:119,1,90,14|8,0:0|0:0,0:0:0:0:
127,157,38307,5,2,0:0:0:0:
202,207,38471,1,0,0:0:0:0:
121,247,38636,1,10,0:0:0:0:
196,297,38800,1,0,0:0:0:0:
115,337,38966,2,0,P|71:323|37:281,1,90,2|0,0:0|0:0,0:0:0:0:
121,247,39296,1,10,0:0:0:0:
196,297,39460,6,0,L|388:308,1,180,2|2,0:0|0:0,0:0:0:0:
454,263,39955,1,10,0:0:0:0:
376,217,40120,1,0,0:0:0:0:
455,173,40285,2,0,P|472:128|466:85,1,90,2|8,0:0|0:0,0:0:0:0:
404,22,40614,2,0,P|365:63|238:50,1,180,10|2,0:0|0:0,0:0:0:0:
171,11,41109,5,2,0:0:0:0:
167,191,41274,2,0,L|168:101,1,90,10|0,0:0|0:0,0:0:0:0:
90,54,41603,1,2,0:0:0:0:
87,144,41768,1,2,0:0:0:0:
171,11,41933,1,10,0:0:0:0:
90,54,42098,2,0,L|-1:59,1,90,0|10,0:0|0:0,0:0:0:0:
87,144,42427,5,0,0:0:0:0:
64,145,42509,1,0,0:0:0:0:
42,146,42591,1,10,0:0:0:0:
84,234,42758,1,0,0:0:0:0:
52,235,42840,1,0,0:0:0:0:
22,236,42922,1,10,0:0:0:0:
164,192,43087,1,10,0:0:0:0:
253,196,43252,1,8,0:0:0:0:
275,197,43334,1,8,0:0:0:0:
297,198,43416,1,8,0:0:0:0:
320,199,43499,1,8,0:0:0:0:
342,200,43581,6,0,L|391:202,1,45,2|2,0:0|0:0,0:0:0:0:
473,205,43911,6,0,B|451:145|451:145|466:72,1,135.000005149842,10|0,0:0|0:0,0:0:0:0:
394,18,44241,1,8,0:0:0:0:
371,19,44323,1,8,0:0:0:0:
349,20,44405,1,8,2:3:0:0:
326,22,44488,1,0,2:3:0:0:
304,23,44570,1,8,2:3:0:0:
252,97,44735,6,0,B|217:56|217:56|74:71,1,180,2|2,0:0|0:0,0:0:0:0:
3,49,45230,1,8,0:0:0:0:
17,137,45394,2,0,B|61:170|61:170|204:155,1,180,2|2,0:0|0:0,0:0:0:0:
252,97,45889,1,8,0:0:0:0:
309,166,46054,6,0,B|267:217|267:217|298:349,1,180,2|10,0:0|1:3,0:0:0:0:
373,368,46548,1,8,1:3:0:0:
439,307,46713,2,0,L|422:102,1,180,2|10,0:0|1:3,0:0:0:0:
432,37,47208,1,8,0:2:0:0:
349,74,47373,6,0,B|282:78|282:78|251:113|251:113|163:120,1,180,2|2,0:0|0:0,0:0:0:0:
95,125,47867,2,0,P|115:165|115:217,1,90,8|2,0:0|0:0,0:0:0:0:
167,284,48197,2,0,P|191:246|236:220,1,90,8|2,0:0|0:0,0:0:0:0:
269,142,48526,2,0,P|224:139|179:113,1,90,8|2,0:0|0:0,0:0:0:0:
185,118,48856,5,0,0:0:0:0:
89,89,53656,6,0,L|160:83,1,45,10|0,0:0|0:0,0:0:0:0:
223,77,53820,1,8,0:0:0:0:
237,94,53902,1,8,0:0:0:0:
245,115,53984,1,8,0:0:0:0:
248,137,54067,1,8,0:0:0:0:
245,159,54150,2,0,P|228:205|240:277,1,90,2|0,0:0|0:0,0:0:0:0:
279,321,54480,1,8,0:0:0:0:
299,330,54562,1,8,0:0:0:0:
320,337,54644,1,8,1:3:0:0:
343,339,54727,1,8,1:3:0:0:
365,337,54809,6,0,P|416:323|447:194,1,180,2|2,0:0|0:0,0:0:0:0:
426,127,55304,1,8,0:0:0:0:
404,134,55386,1,8,0:0:0:0:
382,136,55468,1,2,0:0:0:0:
360,134,55551,1,0,0:0:0:0:
339,126,55633,1,8,1:3:0:0:
320,113,55716,1,8,1:3:0:0:
305,96,55798,1,8,1:3:0:0:
294,77,55880,1,0,1:3:0:0:
289,55,55963,2,0,L|289:6,3,45,8|8|8|8,0:2|0:2|0:2|0:2,0:0:0:0:
210,95,56293,6,0,L|110:87,1,90,2|0,0:0|0:0,0:0:0:0:
292,180,56623,2,0,L|392:172,1,90,2|0,0:0|0:0,0:0:0:0:
208,178,56952,2,0,L|215:268,1,90,2|0,0:0|0:0,0:0:0:0:
293,96,57282,2,0,L|300:6,1,90,2|0,0:0|0:0,0:0:0:0:
210,95,57612,5,10,0:0:0:0:
208,178,57776,1,8,0:0:0:0:
293,96,57941,1,10,0:0:0:0:
292,180,58106,1,8,0:0:0:0:
189,73,58271,5,10,0:0:0:0:
186,198,58435,1,8,0:0:0:0:
314,75,58600,1,10,0:0:0:0:
312,201,58765,1,8,0:0:0:0:
168,51,58930,6,0,L|64:54,1,90,10|0,0:0|0:0,0:0:0:0:
5,107,59260,1,0,0:0:0:0:
5,107,59425,1,2,0:0:0:0:
179,141,59590,6,0,L|75:144,1,90,8|0,0:0|0:0,0:0:0:0:
16,197,59920,1,0,0:0:0:0:
16,197,60085,1,2,0:0:0:0:
190,231,60249,6,0,L|86:234,1,90,8|8,0:0|0:0,0:0:0:0:
65,262,60496,2,0,P|44:308|48:350,2,90,8|8|8,0:0|0:0|0:0,0:0:0:0:
133,321,60991,1,8,0:0:0:0:
151,334,61073,1,8,0:0:0:0:
171,343,61155,1,8,0:0:0:0:
193,347,61238,1,10,0:0:0:0:
216,347,61320,1,8,0:0:0:0:
238,342,61403,1,8,0:0:0:0:
258,333,61485,1,8,0:0:0:0:
276,320,61568,6,0,L|283:221,1,90,2|8,0:0|0:0,0:0:0:0:
313,196,61815,1,8,0:0:0:0:
313,196,61897,2,0,L|306:97,1,90,2|8,0:0|0:0,0:0:0:0:
278,69,62145,1,0,0:0:0:0:
278,69,62227,2,0,P|250:62|218:66,1,45,2|0,0:0|0:0,0:0:0:0:
165,121,62392,2,0,P|137:128|105:124,1,45,8|8,0:0|0:0,0:0:0:0:
37,96,62557,2,0,L|31:201,1,90,2|8,0:0|0:0,0:0:0:0:
109,232,62886,6,0,L|115:337,1,90,2|8,0:0|0:0,0:0:0:0:
145,355,63134,1,8,0:0:0:0:
145,355,63216,2,0,P|195:371|241:364,1,90,2|8,0:0|0:0,0:0:0:0:
259,331,63463,1,8,0:0:0:0:
259,331,63546,2,0,P|303:327|345:343,1,90,2|12,0:0|0:0,0:0:0:0:
431,368,63875,1,6,0:0:0:0:
411,280,64040,1,8,0:0:0:0:
391,192,64205,6,0,L|373:92,1,90,2|0,0:0|0:0,0:0:0:0:
367,58,64452,1,8,0:0:0:0:
367,58,64535,2,0,P|325:35|278:39,1,90,2|8,0:0|0:0,0:0:0:0:
205,80,64864,2,0,L|210:134,1,45,2|0,0:0|0:0,0:0:0:0:
291,165,65029,2,0,L|286:209,1,45,8|0,0:0|0:0,0:0:0:0:
206,250,65194,2,0,L|213:339,1,90,2|8,0:0|0:0,0:0:0:0:
300,366,65524,6,0,P|345:351|390:353,1,90,2|8,0:0|0:0,0:0:0:0:
431,358,65771,1,0,0:0:0:0:
431,358,65853,2,0,P|418:304|425:262,1,90,2|8,0:0|0:0,0:0:0:0:
455,239,66101,1,0,0:0:0:0:
455,239,66183,2,0,L|464:180,1,45,10|0,0:0|0:0,0:0:0:0:
364,121,66348,2,0,L|373:180,1,45,0|8,0:0|0:0,0:0:0:0:
474,105,66513,2,0,L|489:2,1,90,2|8,0:0|0:0,0:0:0:0:
397,16,66842,6,0,L|298:20,1,90,2|0,0:0|0:0,0:0:0:0:
274,52,67090,1,8,0:0:0:0:
274,52,67172,2,0,L|175:48,1,90,2|8,0:0|0:0,0:0:0:0:
139,57,67419,1,8,0:0:0:0:
139,57,67502,2,0,L|131:111,1,45,2|0,0:0|0:0,0:0:0:0:
55,146,67666,2,0,L|61:190,1,45,8|8,0:0|0:0,0:0:0:0:
140,236,67831,2,0,L|123:345,1,90,2|8,0:0|0:0,0:0:0:0:
139,368,68079,1,0,0:0:0:0:
139,368,68161,6,0,P|188:371|229:351,1,90,2|8,0:0|0:0,0:0:0:0:
255,321,68408,1,8,0:0:0:0:
255,321,68491,2,0,P|296:303|340:307,1,90,2|8,0:0|0:0,0:0:0:0:
379,330,68738,1,0,0:0:0:0:
379,330,68820,2,0,P|369:271|384:232,1,90,2|4,0:0|0:0,0:0:0:0:
423,165,69150,1,6,0:0:0:0:
468,242,69315,1,8,0:0:0:0:
378,243,69480,6,0,L|287:231,1,90,2|0,0:0|0:0,0:0:0:0:
257,197,69727,1,8,0:0:0:0:
257,197,69809,2,0,L|166:209,1,90,2|8,0:0|0:0,0:0:0:0:
130,234,70057,1,0,0:0:0:0:
130,234,70139,2,0,L|84:228,1,45,2|0,0:0|0:0,0:0:0:0:
106,150,70304,2,0,L|88:107,1,45,8|8,0:0|0:0,0:0:0:0:
166,87,70469,2,0,L|193:50,1,45,8|0,0:0|0:0,0:0:0:0:
250,107,70634,2,0,L|352:120,1,90,2|0,0:0|0:0,0:0:0:0:
400,204,70963,6,0,L|355:209,1,45,10|0,0:0|0:0,0:0:0:0:
249,122,71128,2,0,L|293:127,1,45,10|0,0:0|0:0,0:0:0:0:
401,219,71293,2,0,L|356:224,1,45,10|0,0:0|0:0,0:0:0:0:
248,137,71458,2,0,L|292:142,1,45,10|0,0:0|0:0,0:0:0:0:
402,234,71623,2,0,L|357:239,1,45,10|0,0:0|0:0,0:0:0:0:
247,152,71787,2,0,L|291:157,1,45,10|0,0:0|0:0,0:0:0:0:
403,249,71952,2,0,L|358:254,1,45,10|0,0:0|0:0,0:0:0:0:
246,167,72117,6,0,L|365:182,1,90,2|0,0:0|0:0,0:0:0:0:
378,163,72364,1,8,0:0:0:0:
378,163,72447,2,0,P|395:118|393:71,1,90,2|8,0:0|0:0,0:0:0:0:
377,34,72694,1,0,0:0:0:0:
377,34,72776,2,0,L|332:28,1,45,2|0,0:0|0:0,0:0:0:0:
267,90,72941,2,0,L|222:95,1,45,8|8,0:0|0:0,0:0:0:0:
167,22,73106,2,0,L|122:16,1,45,2|0,0:0|0:0,0:0:0:0:
57,78,73271,2,0,L|12:83,1,45,8|0,0:0|0:0,0:0:0:0:
102,160,73436,6,0,L|205:171,1,90,2|8,0:0|0:0,0:0:0:0:
236,174,73683,1,8,0:0:0:0:
236,174,73765,2,0,P|205:224|207:266,1,90,2|8,0:0|0:0,0:0:0:0:
222,295,74013,1,8,0:0:0:0:
222,295,74095,2,0,P|280:296|316:274,1,90,2|12,0:0|0:0,0:0:0:0:
338,249,74342,1,8,0:0:0:0:
338,249,74425,2,0,L|344:192,1,45,6|0,0:0|0:0,0:0:0:0:
407,141,74590,2,0,L|401:84,1,45,8|8,0:0|0:0,0:0:0:0:
343,29,74754,6,0,P|299:45|244:41,1,90,2|0,0:0|0:0,0:0:0:0:
214,24,75002,1,8,0:0:0:0:
214,24,75084,2,0,L|221:139,1,90,2|8,0:0|0:0,0:0:0:0:
253,143,75331,1,0,0:0:0:0:
253,143,75414,2,0,L|249:200,1,45,2|0,0:0|0:0,0:0:0:0:
171,232,75579,2,0,L|174:289,1,45,8|0,0:0|0:0,0:0:0:0:
230,347,75743,2,0,P|273:333|323:339,1,90,2|8,0:0|0:0,0:0:0:0:
404,360,76073,6,0,L|415:251,1,90,2|8,0:0|0:0,0:0:0:0:
450,244,76320,1,0,0:0:0:0:
450,244,76403,2,0,L|439:135,1,90,2|8,0:0|0:0,0:0:0:0:
427,65,76732,2,0,L|381:57,1,45,2|0,0:0|0:0,0:0:0:0:
308,4,76897,2,0,L|262:12,1,45,12|0,0:0|0:0,0:0:0:0:
188,62,77062,2,0,P|207:108|204:158,1,90,14|8,0:0|0:0,0:0:0:0:
124,186,77392,6,0,P|105:226|105:271,1,90,2|8,0:0|0:0,0:0:0:0:
127,311,77639,1,8,0:0:0:0:
127,311,77721,2,0,L|225:319,1,90,2|8,0:0|0:0,0:0:0:0:
250,348,77969,1,8,0:0:0:0:
250,348,78051,2,0,L|299:344,1,45,2|0,0:0|0:0,0:0:0:0:
385,361,78216,2,0,L|406:316,1,45,8|8,0:0|0:0,0:0:0:0:
463,250,78381,2,0,L|435:209,1,45,2|0,0:0|0:0,0:0:0:0:
406,126,78545,2,0,L|357:130,1,45,8|0,0:0|0:0,0:0:0:0:
271,115,78710,6,0,L|239:212,1,90,2|8,0:0|0:0,0:0:0:0:
226,243,78958,1,0,0:0:0:0:
226,243,79040,2,0,P|176:256|133:249,1,90,2|8,0:0|0:0,0:0:0:0:
94,239,79287,1,8,0:0:0:0:
94,239,79370,2,0,P|106:183|99:132,1,90,2|12,0:0|0:0,0:0:0:0:
37,89,79699,2,0,L|46:35,1,45,6|0,0:0|0:0,0:0:0:0:
126,7,79864,2,0,L|135:61,1,45,8|8,0:0|0:0,0:0:0:0:
194,120,80029,6,0,P|240:95|283:101,1,90,2|0,0:0|0:0,0:0:0:0:
313,123,80276,1,8,0:0:0:0:
313,123,80359,2,0,L|303:221,1,90,2|8,0:0|0:0,0:0:0:0:
263,233,80606,1,0,0:0:0:0:
263,233,80689,2,0,L|268:291,1,45,2|0,0:0|0:0,0:0:0:0:
179,261,80853,2,0,L|131:295,1,45,8|8,0:0|0:0,0:0:0:0:
112,202,81018,2,0,L|58:178,1,45,10|8,0:0|0:0,0:0:0:0:
129,114,81183,2,0,L|119:23,1,90,10|0,0:0|0:0,0:0:0:0:
246,136,81513,6,0,L|241:181,1,45,10|0,0:0|0:0,0:0:0:0:
142,110,81677,2,0,L|137:64,1,45,10|0,0:0|0:0,0:0:0:0:
259,132,81842,2,0,L|254:177,1,45,10|0,0:0|0:0,0:0:0:0:
155,106,82007,2,0,L|150:60,1,45,10|0,0:0|0:0,0:0:0:0:
272,128,82172,2,0,L|267:173,1,45,10|0,0:0|0:0,0:0:0:0:
168,102,82336,2,0,L|163:56,1,45,10|0,0:0|0:0,0:0:0:0:
285,124,82501,2,0,L|280:169,1,45,10|0,0:0|0:0,0:0:0:0:
181,98,82666,5,2,0:0:0:0:
298,120,82831,1,2,0:0:0:0:
298,120,83326,5,2,0:0:0:0:
184,212,83491,1,2,0:0:0:0:
184,212,83820,2,0,L|87:204,1,90,2|0,0:0|0:0,0:0:0:0:
6,226,84150,2,0,P|20:178|18:125,1,90,2|8,0:0|0:0,0:0:0:0:
14,47,84480,1,8,0:0:0:0:
14,47,84562,1,8,0:0:0:0:
14,47,84645,2,0,P|65:68|115:61,1,90,2|2,0:0|0:0,0:0:0:0:
183,35,84974,2,0,P|227:34|267:54,1,90,8|0,0:0|0:0,0:0:0:0:
332,117,85304,5,2,0:0:0:0:
102,283,85634,1,8,1:3:0:0:
375,344,85963,1,8,0:2:0:0:
290,312,86128,1,8,0:2:0:0:
290,312,86458,2,0,L|279:205,1,90,2|0,0:0|0:0,0:0:0:0:
209,167,86787,2,0,L|220:60,2,90,10|0|10,0:0|0:0|0:0,0:0:0:0:
129,210,87282,1,10,0:0:0:0:
129,210,87941,5,2,0:0:0:0:
218,201,88106,1,0,0:0:0:0:
240,198,88188,1,0,0:0:0:0:
263,195,88270,1,2,0:0:0:0:
351,186,88436,1,0,0:0:0:0:
439,177,88601,1,2,0:0:0:0:
439,177,89260,6,0,B|424:71,1,90.0000034332277,2|0,0:0|0:0,0:0:0:0:
419,42,89590,1,0,0:0:0:0:
340,85,89809,1,2,0:0:0:0:
340,85,89919,2,0,P|288:102|237:92,1,90.0000034332277,0|0,1:0|0:0,0:0:0:0:
217,70,90249,1,0,0:0:0:0:
147,127,90469,1,2,0:0:0:0:
147,127,90579,6,0,L|156:235,1,90.0000034332277,0|0,0:0|0:0,0:0:0:0:
195,234,90908,2,0,L|186:342,1,90.0000034332277,2|0,0:0|0:0,0:0:0:0:
181,368,91238,2,0,P|222:351|280:360,1,90.0000034332277,0|0,1:0|0:0,0:0:0:0:
311,359,91568,2,0,P|309:310|333:274,1,90.0000034332277,0|0,0:0|0:0,0:0:0:0:
369,255,91897,6,0,L|359:160,1,90.0000034332277,2|0,0:0|0:0,0:0:0:0:
350,120,92227,2,0,P|309:100|260:106,1,90.0000034332277,2|0,0:0|0:0,0:0:0:0:
236,138,92557,2,0,P|191:141|151:121,1,90.0000034332277,0|0,1:0|0:0,0:0:0:0:
130,81,92886,1,0,0:0:0:0:
59,136,93106,1,2,0:0:0:0:
59,136,93216,6,0,L|65:236,1,90.0000034332277,0|0,0:0|0:0,0:0:0:0:
104,247,93546,2,0,L|98:347,1,90.0000034332277,2|0,0:0|0:0,0:0:0:0:
114,379,93875,2,0,P|156:363|208:370,1,90.0000034332277,0|0,1:0|0:0,0:0:0:0:
289,377,94205,1,2,0:0:0:0:
325,350,94315,1,0,0:0:0:0:
336,306,94425,1,0,0:0:0:0:
329,261,94535,6,0,P|304:208|269:183,1,90.0000034332277,2|0,0:0|0:0,0:0:0:0:
259,148,94864,2,0,P|200:143|161:160,1,90.0000034332277,0|2,0:0|0:0,0:0:0:0:
130,170,95194,2,0,P|143:126|125:69,1,90.0000034332277,0|0,1:0|0:0,0:0:0:0:
109,45,95524,1,0,0:0:0:0:
35,96,95743,1,2,0:0:0:0:
35,96,95853,6,0,L|29:187,1,90.0000034332277,0|0,0:0|0:0,0:0:0:0:
70,205,96183,2,0,L|76:296,1,90.0000034332277,2|0,0:0|0:0,0:0:0:0:
78,340,96513,2,0,P|125:324|176:332,1,90.0000034332277,0|0,1:0|0:0,0:0:0:0:
192,363,96842,1,0,0:0:0:0:
267,314,97062,1,0,0:0:0:0:
267,314,97172,6,0,L|260:217,1,90.0000034332277,2|0,0:0|0:0,0:0:0:0:
226,194,97502,2,0,L|233:97,1,90.0000034332277,2|0,0:0|0:0,0:0:0:0:
237,59,97831,2,0,P|286:77|331:69,1,90.0000034332277,0|0,1:0|0:0,0:0:0:0:
356,42,98161,1,8,1:0:0:0:
154,342,98491,5,0,0:0:0:0:
154,342,99809,5,2,0:0:0:0:
76,295,99974,1,0,0:0:0:0:
76,295,100057,1,0,0:0:0:0:
76,295,100139,2,0,L|84:192,1,90,10|0,0:0|0:0,0:0:0:0:
131,128,100469,1,2,0:0:0:0:
171,208,100634,1,0,0:0:0:0:
220,131,100798,1,10,0:0:0:0:
260,211,100963,6,0,P|311:226|362:215,1,90,0|2,0:0|0:0,0:0:0:0:
428,182,101293,1,0,0:0:0:0:
428,182,101375,1,0,0:0:0:0:
428,182,101458,2,0,L|421:79,1,90,10|0,0:0|0:0,0:0:0:0:
349,38,101787,1,2,0:0:0:0:
295,110,101952,1,0,0:0:0:0:
223,56,102117,2,0,P|178:43|128:49,1,90,10|8,0:0|0:0,0:0:0:0:
57,92,102447,5,2,0:0:0:0:
133,136,102612,2,0,L|141:236,1,90,0|10,0:0|0:0,0:0:0:0:
147,315,102941,1,0,0:0:0:0:
222,265,103106,2,0,B|264:226|264:226|395:245,1,180,2|10,0:0|0:0,0:0:0:0:
475,252,103601,6,0,P|469:206|481:155,1,90,2|0,0:0|0:0,0:0:0:0:
502,77,103930,1,2,0:0:0:0:
414,99,104095,2,0,L|307:103,1,90,10|0,0:0|0:0,0:0:0:0:
234,105,104425,1,2,0:0:0:0:
281,181,104590,2,0,L|361:183,1,45,4|0,0:0|0:0,0:0:0:0:
416,188,104754,2,0,P|400:238|406:282,1,90,14|8,0:0|0:0,0:0:0:0:
473,332,105084,5,2,0:0:0:0:
388,364,105249,2,0,L|291:356,1,90,0|10,0:0|0:0,0:0:0:0:
208,349,105579,1,0,0:0:0:0:
260,275,105743,1,2,0:0:0:0:
170,267,105908,2,0,L|73:259,1,90,0|10,0:0|0:0,0:0:0:0:
2,306,106238,6,0,P|48:270|21:139,1,180,2|2,0:0|0:0,0:0:0:0:
16,71,106732,2,0,L|114:63,1,90,10|0,0:0|0:0,0:0:0:0:
178,10,107062,2,0,L|276:18,1,90,2|0,0:0|0:0,0:0:0:0:
337,74,107392,1,10,0:0:0:0:
262,124,107557,1,0,0:0:0:0:
332,181,107721,6,0,L|336:277,1,90,2|2,0:0|0:0,0:0:0:0:
343,361,108051,2,0,P|299:339|244:341,1,90,10|0,0:0|0:0,0:0:0:0:
169,350,108381,2,0,P|182:292|167:245,1,90,2|2,0:0|0:0,0:0:0:0:
95,222,108710,1,10,0:0:0:0:
169,171,108875,6,0,L|268:175,1,90,0|10,0:0|0:0,0:0:0:0:
349,179,109205,1,0,0:0:0:0:
371,180,109287,1,0,0:0:0:0:
393,181,109369,1,10,0:0:0:0:
340,268,109535,1,0,0:0:0:0:
362,269,109617,1,0,0:0:0:0:
385,271,109699,2,0,L|484:275,1,90,10|10,0:0|0:0,0:0:0:0:
478,185,110029,1,8,0:0:0:0:
478,162,110111,1,8,0:0:0:0:
479,140,110193,1,8,0:0:0:0:
480,117,110276,1,8,0:0:0:0:
481,95,110359,6,0,P|446:63|393:56,1,90,2|2,0:0|0:0,0:0:0:0:
333,109,110688,2,0,P|282:128|173:66,1,180,10|8,0:0|0:0,0:0:0:0:
161,30,111101,1,8,0:0:0:0:
161,30,111183,1,8,1:3:0:0:
74,54,111348,1,8,1:3:0:0:
110,136,111513,6,0,L|125:324,1,180,2|2,0:0|0:0,0:0:0:0:
197,367,112007,1,8,0:0:0:0:
249,294,112172,2,0,B|283:240|283:240|426:261,1,180,2|2,0:0|0:0,0:0:0:0:
476,300,112666,1,8,0:0:0:0:
497,212,112831,6,0,L|484:13,1,180,2|8,0:0|1:3,0:0:0:0:
395,23,113326,1,8,1:3:0:0:
385,112,113491,2,0,P|339:144|215:128,1,180,2|10,0:0|1:3,0:0:0:0:
154,71,113985,1,8,0:2:0:0:
92,137,114150,6,0,B|64:252|64:252|108:308,1,180,2|2,0:0|0:0,0:0:0:0:
170,360,114645,2,0,P|213:346|259:347,1,90,8|2,0:0|0:0,0:0:0:0:
346,356,114974,2,0,P|333:306|341:259,1,90,8|2,0:0|0:0,0:0:0:0:
393,196,115304,2,0,P|406:146|398:99,1,90,8|8,0:0|0:0,0:0:0:0:
386,65,115551,1,0,0:0:0:0:
386,65,115634,5,0,0:0:0:0:
302,32,115798,1,2,0:0:0:0:
302,32,115881,1,2,0:0:0:0:
302,32,115963,2,0,L|111:45,1,180,10|8,0:0|0:0,0:0:0:0:
77,49,116375,1,8,0:0:0:0:
77,49,116458,1,8,1:3:0:0:
20,119,116623,1,8,0:2:0:0:
94,168,116787,6,0,L|273:155,1,180,2|2,0:0|0:0,0:0:0:0:
363,167,117282,1,8,0:0:0:0:
314,92,117447,2,0,B|274:156|274:156|315:291,1,180,2|2,0:0|0:0,0:0:0:0:
322,344,117941,1,8,0:0:0:0:
299,344,118023,1,8,0:0:0:0:
277,345,118105,1,8,0:0:0:0:
254,345,118188,1,8,0:0:0:0:
232,346,118271,6,0,L|126:348,1,90,10|8,0:0|0:0,0:0:0:0:
51,349,118601,1,8,0:0:0:0:
59,328,118683,1,8,0:0:0:0:
64,306,118765,2,0,P|69:249|53:182,1,90,2|0,0:0|0:0,0:0:0:0:
68,126,119095,1,8,0:0:0:0:
89,132,119177,1,8,0:0:0:0:
111,135,119259,1,0,0:0:0:0:
134,135,119342,1,0,0:0:0:0:
156,132,119425,6,0,P|221:114|298:22,1,180,2|0,0:0|0:0,0:0:0:0:
383,19,119919,1,8,0:0:0:0:
380,41,120001,1,8,0:0:0:0:
377,63,120083,1,2,0:0:0:0:
452,115,120249,1,8,1:3:0:0:
454,137,120331,1,8,1:3:0:0:
457,159,120413,1,8,1:3:0:0:
378,204,120579,1,8,0:2:0:0:
376,226,120661,1,8,0:2:0:0:
373,248,120743,1,8,0:2:0:0:
356,336,120908,6,0,P|314:352|257:343,1,90,2|0,0:0|0:0,0:0:0:0:
227,364,121156,1,0,0:0:0:0:
227,364,121238,2,0,P|192:335|171:281,1,90,2|0,0:0|0:0,0:0:0:0:
138,266,121486,1,0,0:0:0:0:
138,266,121568,2,0,P|145:221|181:176,1,90,2|0,0:0|0:0,0:0:0:0:
178,140,121815,1,0,0:0:0:0:
178,140,121897,2,0,P|219:124|277:133,1,90,2|0,0:0|0:0,0:0:0:0:
307,112,122145,1,0,0:0:0:0:
307,112,122227,5,10,0:0:0:0:
386,154,122392,1,8,0:0:0:0:
310,201,122557,1,10,0:0:0:0:
383,65,122721,1,8,0:0:0:0:
389,243,122886,1,10,0:0:0:0:
307,112,123051,1,8,0:0:0:0:
465,196,123216,1,10,0:0:0:0:
313,290,123381,1,8,0:0:0:0:
383,65,123546,6,0,B|360:31|325:9|270:15|233:39|219:94|219:94|178:49|115:41|40:68|40:68|117:85|145:134|148:189|121:254|67:274|8:249|-21:206|-10:132|42:108|85:107|143:131|176:161|217:221|226:284|226:284|235:227|270:195|326:184|373:211|392:256|392:256|401:214|429:186|429:186|428:237|488:293,1,1395,10|0,0:0|2:0,0:0:0:0:
464,268,126194,5,2,0:0:0:0:
365,154,138385,6,0,B|294:135|294:135|305:244,1,180,0|0,0:0|0:0,0:0:0:0:
305,241,139885,6,0,L|103:217,1,180,10|0,0:0|0:0,0:0:0:0:
53,166,140379,1,2,0:0:0:0:
122,108,140544,2,0,L|223:96,1,90,10|0,0:0|0:0,0:0:0:0:
301,87,140874,1,0,0:0:0:0:
390,75,141038,2,0,L|402:175,1,90,10|0,0:0|0:0,0:0:0:0:
411,253,141368,5,10,0:0:0:0:
312,175,141533,1,10,0:0:0:0:
323,265,141697,1,10,0:0:0:0:
400,164,141863,1,10,0:0:0:0:
400,164,142522,6,0,L|474:175,1,67.5,0|0,0:0|0:0,0:0:0:0:
510,249,142852,6,0,L|394:266,1,90,10|8,0:0|0:0,0:0:0:0:
386,291,143099,1,0,0:0:0:0:
386,291,143181,2,0,L|307:279,1,45,10|0,0:0|0:0,0:0:0:0:
283,215,143346,2,0,L|204:226,1,45,8|0,0:0|0:0,0:0:0:0:
148,233,143511,2,0,P|155:179|139:137,1,90,10|8,0:0|0:0,0:0:0:0:
105,122,143758,1,0,0:0:0:0:
105,122,143841,6,0,P|98:68|114:26,1,90,2|8,0:0|0:0,0:0:0:0:
151,18,144088,1,8,0:0:0:0:
151,18,144170,2,0,L|229:24,1,45,2|0,0:0|0:0,0:0:0:0:
253,92,144335,2,0,L|331:85,1,45,8|8,0:0|0:0,0:0:0:0:
359,21,144500,2,0,L|481:30,1,90,2|12,0:0|0:0,0:0:0:0:
483,112,144830,2,0,L|474:171,1,45,6|0,0:0|0:0,0:0:0:0:
398,200,144994,2,0,L|407:259,1,45,8|8,0:0|0:0,0:0:0:0:
418,334,145159,6,0,P|372:353|320:351,1,90,2|0,0:0|0:0,0:0:0:0:
289,337,145406,1,8,0:0:0:0:
289,337,145489,2,0,L|275:276,1,45,2|0,0:0|0:0,0:0:0:0:
201,245,145654,2,0,L|187:306,1,45,8|8,0:0|0:0,0:0:0:0:
131,357,145819,1,2,0:0:0:0:
74,287,145983,2,0,L|69:180,1,90,8|2,0:0|0:0,0:0:0:0:
66,106,146313,6,0,P|120:107|156:85,1,90,8|2,0:0|0:0,0:0:0:0:
202,15,146643,1,8,0:0:0:0:
202,15,146725,1,0,0:0:0:0:
202,15,146808,2,0,P|242:34|286:30,1,90,2|8,0:0|0:0,0:0:0:0:
330,20,147055,1,0,0:0:0:0:
330,20,147137,2,0,L|387:28,1,45,10|0,0:0|0:0,0:0:0:0:
430,105,147302,2,0,L|373:113,1,45,0|8,0:0|0:0,0:0:0:0:
316,201,147467,2,0,L|415:214,1,90,2|8,0:0|0:0,0:0:0:0:
495,225,147797,6,0,P|503:268|490:326,1,90,2|0,0:0|0:0,0:0:0:0:
458,339,148044,1,8,0:0:0:0:
458,339,148126,2,0,L|391:329,1,45,2|0,0:0|0:0,0:0:0:0:
334,289,148291,2,0,L|267:298,1,45,8|8,0:0|0:0,0:0:0:0:
200,315,148456,2,0,P|207:268|187:223,1,90,2|8,0:0|0:0,0:0:0:0:
159,197,148703,1,8,0:0:0:0:
159,197,148786,2,0,L|68:192,1,90,2|8,0:0|0:0,0:0:0:0:
26,175,149033,1,0,0:0:0:0:
26,175,149115,6,0,L|36:104,1,45,2|0,0:0|0:0,0:0:0:0:
101,45,149280,2,0,L|111:116,1,45,8|8,0:0|0:0,0:0:0:0:
159,197,149445,2,0,L|169:126,1,45,2|0,0:0|0:0,0:0:0:0:
234,67,149610,2,0,L|244:138,1,45,8|0,0:0|0:0,0:0:0:0:
292,219,149775,2,0,P|333:197|382:201,1,90,2|4,0:0|0:0,0:0:0:0:
414,221,150022,1,8,0:0:0:0:
414,221,150104,2,0,L|409:284,1,45,6|0,0:0|0:0,0:0:0:0:
485,316,150269,2,0,L|490:379,1,45,8|0,0:0|0:0,0:0:0:0:
398,372,150434,6,0,L|297:359,1,90,2|0,0:0|0:0,0:0:0:0:
284,322,150681,1,8,0:0:0:0:
284,322,150764,2,0,L|183:335,1,90,10|8,0:0|0:0,0:0:0:0:
162,365,151011,1,0,0:0:0:0:
162,365,151093,2,0,L|86:355,1,45,10|0,0:0|0:0,0:0:0:0:
28,348,151258,2,0,L|-1:278,1,45,8|8,0:0|0:0,0:0:0:0:
15,216,151423,2,0,L|60:155,1,45,8|0,0:0|0:0,0:0:0:0:
126,145,151588,2,0,L|214:156,1,90,2|0,0:0|0:0,0:0:0:0:
295,249,151917,6,0,L|219:258,1,45,10|0,0:0|0:0,0:0:0:0:
122,161,152082,2,0,L|197:170,1,45,10|0,0:0|0:0,0:0:0:0:
299,265,152247,2,0,L|223:274,1,45,10|0,0:0|0:0,0:0:0:0:
118,177,152412,2,0,L|193:186,1,45,10|0,0:0|0:0,0:0:0:0:
303,281,152577,2,0,L|227:290,1,45,10|0,0:0|0:0,0:0:0:0:
114,193,152742,2,0,L|189:202,1,45,10|0,0:0|0:0,0:0:0:0:
307,297,152906,2,0,L|231:306,1,45,10|0,0:0|0:0,0:0:0:0:
110,209,153071,6,0,L|217:222,1,90,10|0,0:0|0:0,0:0:0:0:
245,225,153319,1,8,0:0:0:0:
245,225,153401,2,0,L|239:171,1,45,10|0,0:0|0:0,0:0:0:0:
338,111,153566,2,0,L|332:165,1,45,8|8,0:0|0:0,0:0:0:0:
391,240,153731,1,2,0:0:0:0:
391,240,153813,1,0,0:0:0:0:
391,240,153895,2,0,L|401:332,1,90,8|2,0:0|0:0,0:0:0:0:
319,368,154225,6,0,P|274:344|218:349,1,90,8|2,0:0|0:0,0:0:0:0:
148,367,154555,1,8,0:0:0:0:
148,367,154637,1,0,0:0:0:0:
148,367,154720,2,0,L|139:303,1,45,2|0,0:0|0:0,0:0:0:0:
71,265,154885,2,0,L|80:201,1,45,8|8,0:0|0:0,0:0:0:0:
148,166,155049,2,0,L|132:59,1,90,2|12,0:0|0:0,0:0:0:0:
127,31,155297,1,0,0:0:0:0:
127,31,155379,2,0,P|181:46|222:38,1,90,14|8,0:0|0:0,0:0:0:0:
302,20,155709,6,0,L|308:73,1,45,2|0,0:0|0:0,0:0:0:0:
381,118,155874,2,0,L|375:171,1,45,8|8,0:0|0:0,0:0:0:0:
301,212,156038,2,0,L|307:265,1,45,10|0,0:0|0:0,0:0:0:0:
318,347,156203,2,0,P|263:335|219:340,1,90,8|2,0:0|0:0,0:0:0:0:
195,367,156450,1,0,0:0:0:0:
195,367,156533,2,0,P|150:368|106:357,1,90,8|2,0:0|0:0,0:0:0:0:
30,308,156863,6,0,L|39:212,1,90,8|2,0:0|0:0,0:0:0:0:
71,187,157110,1,0,0:0:0:0:
71,187,157192,2,0,L|65:124,1,45,8|0,0:0|0:0,0:0:0:0:
158,89,157357,2,0,L|152:151,1,45,2|0,0:0|0:0,0:0:0:0:
160,262,157522,2,0,L|154:199,1,45,8|0,0:0|0:0,0:0:0:0:
250,107,157687,2,0,L|239:217,1,90,2|0,0:0|0:0,0:0:0:0:
280,220,157934,1,8,0:0:0:0:
280,220,158016,2,0,L|290:330,1,90,2|8,0:0|0:0,0:0:0:0:
351,374,158346,6,0,P|400:353|448:360,1,90,10|0,0:0|0:0,0:0:0:0:
480,363,158593,1,8,0:0:0:0:
480,363,158676,2,0,L|472:301,1,45,10|0,0:0|0:0,0:0:0:0:
405,258,158841,2,0,L|413:196,1,45,8|8,0:0|0:0,0:0:0:0:
484,163,159005,2,0,L|476:101,1,45,2|0,0:0|0:0,0:0:0:0:
463,28,159170,2,0,P|417:42|362:36,1,90,8|2,0:0|0:0,0:0:0:0:
286,23,159500,6,0,L|293:127,1,90,8|2,0:0|0:0,0:0:0:0:
327,140,159747,1,0,0:0:0:0:
327,140,159830,2,0,L|321:217,1,45,8|0,0:0|0:0,0:0:0:0:
244,227,159994,2,0,L|238:149,1,45,10|0,0:0|0:0,0:0:0:0:
168,123,160159,2,0,L|162:200,1,45,8|8,0:0|0:0,0:0:0:0:
85,210,160323,2,0,L|79:132,1,45,2|0,0:0|0:0,0:0:0:0:
11,109,160489,1,12,0:0:0:0:
11,109,160571,1,8,0:0:0:0:
11,109,160654,2,0,L|16:31,1,45,14|0,0:0|0:0,0:0:0:0:
103,10,160819,2,0,L|108:87,1,45,8|8,0:0|0:0,0:0:0:0:
168,123,160983,6,0,P|208:108|268:120,1,90,10|0,0:0|0:0,0:0:0:0:
289,142,161231,1,8,0:0:0:0:
289,142,161313,2,0,L|285:197,1,45,10|0,0:0|0:0,0:0:0:0:
222,251,161478,2,0,L|268:282,1,45,8|0,0:0|0:0,0:0:0:0:
282,363,161643,2,0,L|332:338,1,45,10|0,0:0|0:0,0:0:0:0:
408,367,161808,2,0,L|412:306,1,45,8|8,0:0|0:0,0:0:0:0:
474,259,161972,2,0,L|423:224,1,45,10|8,0:0|0:0,0:0:0:0:
413,147,162137,2,0,L|324:190,1,90,10|0,0:0|0:0,0:0:0:0:
237,223,162467,6,0,L|243:170,1,45,10|0,0:0|0:0,0:0:0:0:
287,59,162632,2,0,L|293:112,1,45,10|0,0:0|0:0,0:0:0:0:
223,221,162797,2,0,L|229:168,1,45,10|0,0:0|0:0,0:0:0:0:
273,57,162962,2,0,L|279:110,1,45,10|0,0:0|0:0,0:0:0:0:
209,219,163126,2,0,L|215:166,1,45,10|0,0:0|0:0,0:0:0:0:
259,55,163291,2,0,L|265:108,1,45,10|0,0:0|0:0,0:0:0:0:
195,217,163456,2,0,L|201:164,1,45,10|0,0:0|0:0,0:0:0:0:
245,53,163621,5,2,0:0:0:0:
123,115,163786,1,2,0:0:0:0:
123,115,164280,5,2,0:0:0:0:
242,178,164445,1,2,0:0:0:0:
242,178,164775,6,0,L|343:169,1,90,2|0,0:0|0:0,0:0:0:0:
412,208,165104,1,2,0:0:0:0:
339,260,165269,2,0,L|249:267,1,90,8|8,0:0|0:0,0:0:0:0:
167,228,165599,1,2,0:0:0:0:
242,178,165764,1,2,0:0:0:0:
160,139,165928,2,0,L|70:146,1,90,8|0,0:0|0:0,0:0:0:0:
235,89,166258,6,0,L|324:96,1,90,2|0,0:0|0:0,0:0:0:0:
368,176,166588,2,0,L|457:168,1,90,8|8,1:3|1:3,1:3:0:0:
507,243,166917,1,8,0:2:0:0:
458,319,167082,2,0,L|368:311,1,90,8|8,0:2|0:0,0:0:0:0:
285,348,167412,6,0,P|324:314|283:196,1,180,2|10,0:0|0:0,0:0:0:0:
211,171,167906,1,0,0:0:0:0:
189,258,168071,1,10,0:0:0:0:
104,227,168236,1,10,0:0:0:0:
406,157,168566,6,0,P|427:113|383:157,1,180,10|0,0:0|2:0,0:0:0:0:
