osu file format v14

[General]
AudioFilename: audio.mp3
AudioLeadIn: 0
PreviewTime: 61300
Countdown: 0
SampleSet: Soft
StackLeniency: 0.4
Mode: 0
LetterboxInBreaks: 0
EpilepsyWarning: 1
WidescreenStoryboard: 1

[Editor]
DistanceSpacing: 1.1
BeatDivisor: 4
GridSize: 16
TimelineZoom: 2.899999

[Metadata]
Title:Zettai yoiko no etc
TitleUnicode:絶対よい子のエトセトラ
Artist:After the Rain
ArtistUnicode:After the Rain
Creator:Hooni
Version:Glaceon's Insane
Source:
Tags:soraru mafumafu an absolutely good child's et cetera utaite glaceon cut version そらる まふまふ イザナワレトラベラー Izanawaretoraberā Izanaware Traveler
BeatmapID:2050629
BeatmapSetID:969741

[Difficulty]
HPDrainRate:5
CircleSize:4
OverallDifficulty:8
ApproachRate:9
SliderMultiplier:1.8
SliderTickRate:1

[Events]
//Background and Video events
0,0,"etc.jpg",0,0
Video,120,"etc.mp4"
//Break Periods
2,49165,53166
//Storyboard Layer 0 (Background)
//Storyboard Layer 1 (Fail)
//Storyboard Layer 2 (Pass)
//Storyboard Layer 3 (Foreground)
//Storyboard Layer 4 (Overlay)
//Storyboard Sound Samples

[TimingPoints]
1494,329.67032967033,4,2,1,50,1,0
1494,-125,4,2,1,50,0,0
6768,-142.857142857143,4,2,5,50,0,0
8911,-142.857142857143,4,2,1,50,0,0
9406,-111.111111111111,4,2,1,75,0,0
10230,-111.111111111111,4,2,2,75,0,0
10889,-111.111111111111,4,2,1,75,0,0
12867,-111.111111111111,4,2,2,75,0,0
13526,-111.111111111111,4,2,1,75,0,0
15669,-111.111111111111,4,3,3,75,0,0
15999,-111.111111111111,4,2,1,75,0,0
16823,-111.111111111111,4,3,3,75,0,0
17235,-111.111111111111,4,2,1,5,0,0
17318,-111.111111111111,4,2,1,75,0,0
18059,-111.111111111111,4,2,1,5,0,0
18142,-111.111111111111,4,2,1,75,0,0
18719,-111.111111111111,4,2,1,5,0,0
18801,-111.111111111111,4,2,1,75,0,0
19955,-111.111111111111,4,2,1,65,0,0
20285,-111.111111111111,4,2,1,70,0,0
20614,-111.111111111111,4,2,1,75,0,0
20944,-111.111111111111,4,2,1,80,0,0
21274,-111.111111111111,4,2,1,85,0,0
21439,-111.111111111111,4,2,1,50,0,0
22592,-142.857142857143,4,2,1,50,0,0
27537,-125,4,2,1,50,0,0
27785,-125,4,2,1,5,0,0
27867,-125,4,2,1,50,0,0
28526,-142.857142857143,4,2,1,50,0,0
31658,-111.111111111111,4,2,1,65,0,0
33142,-125,4,2,1,65,0,0
44268,-125,4,2,1,5,0,0
44351,-125,4,2,1,65,0,0
46411,-125,4,2,1,5,0,0
46494,-125,4,2,1,65,0,0
47070,-125,4,2,1,5,0,0
47153,-125,4,2,1,65,0,0
48801,-125,4,2,1,5,0,0
48966,300,3,2,1,25,1,0
53466,-100,3,2,1,5,0,0
53766,329.67032967033,4,2,1,65,1,0
53766,-111.111111111111,4,2,1,65,0,0
56403,-111.111111111111,4,2,1,55,0,0
56650,-111.111111111111,4,2,1,5,0,0
56733,-111.111111111111,4,2,1,55,0,0
57062,-111.111111111111,4,2,1,59,0,0
57392,-111.111111111111,4,2,1,63,0,0
57722,-111.111111111111,4,2,1,67,0,0
58051,-111.111111111111,4,2,1,71,0,0
58381,-111.111111111111,4,2,1,75,0,0
61678,-99.9999999999999,4,2,1,80,0,1
66458,-99.9999999999999,4,2,2,80,0,1
66787,-99.9999999999999,4,2,1,80,0,1
70991,-99.9999999999999,4,2,1,5,0,1
71073,-99.9999999999999,4,2,1,80,0,0
72227,-99.9999999999999,4,2,1,80,0,1
77007,-99.9999999999999,4,2,2,80,0,1
77337,-99.9999999999999,4,2,1,80,0,1
81540,-99.9999999999999,4,2,1,5,0,1
81623,-99.9999999999999,4,2,1,80,0,0
82776,-111.111111111111,4,2,1,65,0,0
85331,-111.111111111111,4,2,1,5,0,0
85414,-111.111111111111,4,2,1,65,0,0
87639,-111.111111111111,4,2,1,5,0,0
87722,-200,4,2,1,65,0,0
88052,-200,4,2,1,30,0,0

[Colours]
Combo1 : 0,230,115
Combo2 : 118,155,254
Combo3 : 234,0,41
Combo4 : 232,232,0

[HitObjects]
69,341,1494,5,0,0:0:0:0:
345,76,2153,5,0,0:0:0:0:
352,347,2812,5,0,0:0:0:0:
101,93,3473,5,8,0:0:0:0:
182,182,3637,2,0,L|184:240,2,36,0|0|8,0:0|0:0|0:0,0:0:0:0:
182,182,4132,6,0,L|274:190,1,72,0|0,0:0|0:0,0:0:0:0:
318,88,4462,2,0,L|246:94,1,72,0|0,0:0|0:0,0:0:0:0:
331,238,4791,1,8,0:0:0:0:
331,238,4874,1,8,0:0:0:0:
331,238,4956,2,0,P|338:187|326:149,1,72,0|0,0:0|0:0,0:0:0:0:
163,102,5286,5,4,0:0:0:0:
163,102,5615,1,8,0:0:0:0:
253,188,5779,1,0,0:0:0:0:
144,85,5944,1,8,0:0:0:0:
340,94,6109,2,0,L|330:246,1,144,8|0,0:0|0:0,0:0:0:0:
330,237,6768,6,0,P|373:243|404:235,1,62.9999980773926,10|0,0:3|0:0,0:0:0:0:
497,154,7098,2,0,P|454:148|423:156,1,62.9999980773926,10|0,0:3|0:0,0:0:0:0:
331,251,7428,2,0,P|374:257|405:249,1,62.9999980773926,10|0,0:3|0:0,0:0:0:0:
498,168,7758,2,0,P|455:162|424:170,1,62.9999980773926,10|0,0:3|0:0,0:0:0:0:
331,267,8087,5,10,0:3:0:0:
334,130,8252,1,0,0:0:0:0:
331,291,8417,1,10,0:3:0:0:
436,165,8581,1,0,0:0:0:0:
332,315,8746,1,10,0:3:0:0:
463,159,8911,6,0,L|460:218,2,31.4999990386963,8|8|8,0:0|0:0|0:0,0:0:0:0:
463,159,9406,5,8,0:0:0:0:
362,81,9570,1,0,0:0:0:0:
362,81,9653,1,8,0:0:0:0:
362,81,9735,2,0,L|366:170,1,80.9999975280763,0|8,0:0|0:0,0:0:0:0:
269,298,10065,1,0,0:0:0:0:
432,231,10230,2,0,L|427:290,2,40.4999987640381,8|0|0,0:3|0:0|0:0,0:0:0:0:
214,178,10559,6,0,L|217:218,2,40.4999987640381,8|0|0,0:3|0:0|0:0,0:0:0:0:
445,74,10889,1,8,0:0:0:0:
445,74,10972,1,0,0:0:0:0:
445,74,11054,2,0,L|439:160,1,80.9999975280763,0|8,0:0|0:0,0:0:0:0:
436,235,11301,1,0,0:0:0:0:
436,235,11384,2,0,P|386:245|351:231,1,80.9999975280763,0|8,0:0|0:0,0:0:0:0:
252,124,11713,1,0,0:0:0:0:
302,296,11878,1,8,0:0:0:0:
244,95,12043,5,8,0:0:0:0:
221,301,12208,1,8,0:0:0:0:
221,301,12290,1,8,0:0:0:0:
221,301,12373,2,0,L|318:294,1,80.9999975280763,0|8,0:0|0:0,0:0:0:0:
176,161,12702,1,0,0:0:0:0:
362,195,12867,2,0,L|356:259,2,40.4999987640381,8|0|0,0:3|0:0|0:0,0:0:0:0:
137,248,13197,6,0,L|143:312,2,40.4999987640381,8|0|0,0:3|0:0|0:0,0:0:0:0:
238,70,13526,1,8,0:0:0:0:
238,70,13609,1,0,0:0:0:0:
238,70,13691,2,0,P|282:61|325:76,1,80.9999975280763,0|8,0:0|0:0,0:0:0:0:
388,114,13939,1,0,0:0:0:0:
388,114,14021,2,0,P|344:123|301:108,1,80.9999975280763,0|8,0:0|0:0,0:0:0:0:
153,41,14351,1,8,0:0:0:0:
269,204,14515,1,8,0:0:0:0:
135,18,14680,5,12,0:0:0:0:
149,208,14845,2,0,L|203:205,2,40.4999987640381,8|0|0,0:0|0:0|0:0,0:0:0:0:
238,70,15175,1,8,0:0:0:0:
229,273,15340,1,4,0:0:0:0:
30,77,15669,1,8,0:3:0:0:
30,77,15999,5,12,0:0:0:0:
249,151,16164,2,0,L|244:211,2,40.4999987640381,8|0|0,0:0|0:0|0:0,0:0:0:0:
22,182,16494,1,8,0:0:0:0:
162,65,16658,1,4,0:0:0:0:
145,266,16823,1,8,0:3:0:0:
40,57,16988,2,0,L|179:66,1,121.499996292114,8|0,0:3|0:0,0:0:0:0:
240,71,17318,5,4,0:0:0:0:
373,31,17483,2,0,L|367:85,3,40.4999987640381,8|8|8|8,0:0|0:0|0:0|0:0,0:0:0:0:
334,105,17812,2,0,P|317:166|345:231,1,121.499996292114,12|0,0:0|0:0,0:0:0:0:
352,245,18142,1,8,0:0:0:0:
350,265,18224,1,8,0:0:0:0:
349,285,18306,1,8,0:0:0:0:
242,351,18472,6,0,B|158:367|158:367|96:347,1,121.499996292114,12|0,0:0|0:0,0:0:0:0:
88,345,18801,1,8,0:0:0:0:
87,325,18883,1,0,0:0:0:0:
85,305,18966,2,0,L|147:309,2,40.4999987640381,8|8|8,0:0|0:0|0:0,0:0:0:0:
10,234,19296,2,0,L|65:228,2,40.4999987640381,8|8|8,0:0|0:0|0:0,0:0:0:0:
218,189,19625,2,0,L|163:183,2,40.4999987640381,8|8|8,0:0|0:0|0:0,0:0:0:0:
32,59,19955,6,0,P|20:103|38:151,1,80.9999975280763,12|8,0:0|0:0,0:0:0:0:
174,262,20285,2,0,P|186:218|168:170,1,80.9999975280763,8|8,0:0|0:0,0:0:0:0:
30,346,20614,2,0,L|131:338,1,80.9999975280763,8|8,0:0|0:0,0:0:0:0:
28,136,20944,1,8,0:0:0:0:
174,262,21109,1,8,0:0:0:0:
266,105,21274,5,8,0:0:0:0:
270,209,21439,2,0,L|273:257,2,40.4999987640381,0|0|0,0:0|0:0|0:0,0:0:0:0:
358,159,21768,1,0,0:0:0:0:
447,108,21933,1,0,0:0:0:0:
447,108,22592,6,0,L|436:252,1,125.999996154785,2|8,0:0|0:0,0:0:0:0:
331,171,23087,1,2,0:0:0:0:
340,296,23252,2,0,L|330:170,1,125.999996154785,2|8,0:0|0:0,0:0:0:0:
250,98,23746,6,0,P|216:91|173:104,1,62.9999980773926,2|0,0:0|0:0,0:0:0:0:
149,186,24076,2,0,P|183:193|226:180,1,62.9999980773926,2|8,0:0|0:0,0:0:0:0:
105,63,24406,1,2,0:0:0:0:
147,213,24570,2,0,P|181:220|224:207,1,62.9999980773926,2|0,0:0|0:0,0:0:0:0:
62,179,24900,2,0,P|55:213|68:256,1,62.9999980773926,10|0,0:0|0:0,0:0:0:0:
178,322,25230,6,0,B|213:304|213:304|168:320|116:297,1,125.999996154785,2|8,0:0|0:0,0:0:0:0:
26,243,25724,1,2,0:0:0:0:
208,214,25889,2,0,B|173:232|173:232|218:216|270:239,1,125.999996154785,2|8,0:0|0:0,0:0:0:0:
362,332,26384,6,0,L|357:256,1,62.9999980773926,2|0,0:0|0:0,0:0:0:0:
261,171,26713,2,0,L|256:233,1,62.9999980773926,2|8,0:0|0:0,0:0:0:0:
405,188,27043,1,2,0:0:0:0:
233,169,27208,2,0,L|228:231,1,62.9999980773926,2|0,0:0|0:0,0:0:0:0:
452,66,27537,2,0,P|416:57|364:72,1,72,10|0,0:0|0:0,0:0:0:0:
199,169,27867,6,0,P|254:191|347:157,1,144,10|8,0:0|0:0,0:0:0:0:
452,66,28362,1,2,0:0:0:0:
487,248,28526,2,0,P|432:226|354:255,1,125.999996154785,2|8,0:0|0:0,0:0:0:0:
274,348,29021,6,0,P|281:311|269:272,1,62.9999980773926,2|0,0:0|0:0,0:0:0:0:
170,169,29351,2,0,P|163:206|175:245,1,62.9999980773926,2|8,0:0|0:0,0:0:0:0:
294,146,29680,1,2,0:0:0:0:
146,170,29845,2,0,P|139:207|151:246,1,62.9999980773926,2|0,0:0|0:0,0:0:0:0:
179,83,30175,2,0,P|142:76|103:88,1,62.9999980773926,10|0,0:0|0:0,0:0:0:0:
294,146,30504,6,0,L|285:5,1,125.999996154785,2|8,0:0|0:0,0:0:0:0:
179,83,30999,1,2,0:0:0:0:
329,147,31164,2,0,L|320:272,1,125.999996154785,2|8,0:0|0:0,0:0:0:0:
107,344,31658,6,0,P|160:316|260:356,1,161.999995056153,4|0,0:0|0:0,0:0:0:0:
361,268,32153,2,0,L|298:274,2,40.4999987640381,8|8|8,0:0|0:0|0:0,0:0:0:0:
215,153,32483,2,0,L|278:159,2,40.4999987640381,8|8|8,0:0|0:0|0:0,0:0:0:0:
429,85,32812,1,8,0:0:0:0:
427,105,32894,1,8,0:0:0:0:
425,125,32976,1,8,0:0:0:0:
423,145,33059,1,8,0:0:0:0:
421,165,33141,5,8,0:0:0:0:
281,88,33307,2,0,L|290:174,1,72,0|8,0:0|0:0,0:0:0:0:
353,37,33636,1,0,0:0:0:0:
203,5,33801,2,0,P|242:-3|284:8,1,72,8|0,0:0|0:0,0:0:0:0:
387,59,34131,1,8,0:0:0:0:
199,91,34296,6,0,L|44:79,1,144,0|0,0:0|0:0,0:0:0:0:
20,271,34790,1,8,2:0:0:0:
96,162,34955,1,0,2:0:0:0:
5,295,35120,2,0,L|10:374,1,72,8|2,0:0|0:0,0:0:0:0:
220,355,35450,1,10,0:0:0:0:
104,299,35614,1,2,0:0:0:0:
255,371,35779,5,8,0:0:0:0:
91,379,35944,1,0,0:0:0:0:
298,286,36109,2,0,P|304:321|296:355,1,72,8|0,0:0|0:0,0:0:0:0:
119,275,36439,2,0,P|112:239|120:205,1,72,8|0,0:0|0:0,0:0:0:0:
215,96,36768,1,8,0:0:0:0:
38,111,36933,6,0,L|142:104,1,72,2|8,0:0|0:0,0:0:0:0:
273,187,37263,2,0,L|169:180,1,72,2|8,0:0|0:0,0:0:0:0:
36,89,37592,2,0,L|140:82,1,72,2|8,0:0|0:0,0:0:0:0:
275,157,37922,1,10,0:3:0:0:
169,18,38087,1,10,0:3:0:0:
120,205,38252,1,10,0:0:0:0:
235,76,38417,5,14,0:0:0:0:
100,224,38581,1,0,0:0:0:0:
303,209,38746,2,0,L|293:295,1,72,8|0,0:0|0:0,0:0:0:0:
180,178,39076,1,8,0:0:0:0:
345,146,39241,1,0,0:0:0:0:
154,181,39406,1,8,0:0:0:0:
305,38,39570,6,0,P|371:17|450:50,1,144,0|0,0:0|0:0,0:0:0:0:
452,215,40065,1,8,2:0:0:0:
370,113,40230,1,0,2:0:0:0:
477,245,40395,2,0,L|469:328,1,72,8|2,0:0|0:0,0:0:0:0:
252,327,40724,1,10,0:0:0:0:
392,274,40889,1,2,0:0:0:0:
194,242,41054,5,8,0:0:0:0:
359,269,41219,1,0,0:0:0:0:
120,274,41384,2,0,P|114:239|124:205,1,72,12|0,0:0|0:0,0:0:0:0:
360,194,41713,5,8,0:0:0:0:
194,242,41878,1,0,0:0:0:0:
436,226,42043,2,0,P|442:190|432:156,1,72,12|0,0:0|0:0,0:0:0:0:
296,70,42373,5,8,0:0:0:0:
474,84,42537,2,0,L|527:89,2,36,0|0|8,0:0|0:0|0:0,0:0:0:0:
282,152,42867,2,0,L|246:155,2,36,0|0|8,0:0|0:0|0:0,0:0:0:0:
421,34,43197,1,8,0:0:0:0:
358,187,43362,1,8,0:0:0:0:
365,170,43444,1,8,0:0:0:0:
367,152,43526,1,8,0:0:0:0:
366,134,43609,1,8,0:0:0:0:
361,117,43691,5,0,0:0:0:0:
262,27,43856,1,0,0:0:0:0:
452,51,44021,2,0,L|460:147,1,72,12|0,0:0|0:0,0:0:0:0:
353,222,44351,2,0,L|359:173,4,36,8|8|8|0|8,0:0|0:0|0:0|0:0|0:0,0:0:0:0:
476,354,44845,6,0,B|451:366|424:363|424:363|388:332|318:336,1,144,4|0,0:0|0:0,0:0:0:0:
448,255,45340,1,8,0:0:0:0:
242,212,45504,2,0,L|260:364,1,144,4|0,0:0|0:0,0:0:0:0:
357,186,45999,1,8,0:0:0:0:
148,132,46164,6,0,P|200:108|295:147,1,144,4|8,0:0|0:0,0:0:0:0:
332,285,46658,1,8,0:0:0:0:
412,130,46823,2,0,P|360:154|265:115,1,144,4|8,0:0|0:0,0:0:0:0:
188,0,47318,1,8,0:0:0:0:
244,253,47483,6,0,L|258:84,1,144,4|0,0:0|0:0,0:0:0:0:
78,106,47977,2,0,P|113:116|159:102,1,72,8|0,0:0|0:0,0:0:0:0:
279,13,48307,1,8,0:0:0:0:
114,38,48472,1,0,0:0:0:0:
315,7,48636,6,0,L|485:18,1,144,8|0,0:0|0:0,0:0:0:0:
458,16,53766,5,12,0:0:0:0:
376,128,53930,2,0,L|373:192,3,40.4999987640381,8|8|8|8,0:0|0:0|0:0|0:0,0:0:0:0:
370,209,54260,2,0,P|325:217|264:191,1,80.9999975280763,12|0,0:0|0:0,0:0:0:0:
136,122,54590,1,8,0:0:0:0:
142,141,54672,1,8,0:0:0:0:
144,161,54754,1,8,0:0:0:0:
141,181,54837,1,8,0:0:0:0:
135,200,54919,6,0,B|171:180|221:205|207:212|255:234|313:197,1,161.999995056153,12|8,0:0|0:0,0:0:0:0:
465,201,55414,1,8,0:0:0:0:
465,201,55496,1,8,0:0:0:0:
465,201,55579,1,8,0:0:0:0:
313,68,55744,2,0,L|310:27,3,40.4999987640381,8|8|8|0,0:0|0:0|0:0|0:0,0:0:0:0:
377,117,56073,2,0,L|374:157,3,40.4999987640381,8|8|8|8,0:0|0:0|0:0|0:0,0:0:0:0:
465,73,56403,6,0,L|458:198,1,121.499996292114,12|0,0:0|0:0,0:0:0:0:
445,272,56733,2,0,P|400:280|339:254,1,80.9999975280763,8|0,0:0|0:0,0:0:0:0:
295,157,57062,2,0,P|340:149|401:175,1,80.9999975280763,8|8,0:0|0:0,0:0:0:0:
284,325,57392,2,0,L|293:233,1,80.9999975280763,8|8,0:0|0:0,0:0:0:0:
447,113,57722,6,0,L|454:193,1,80.9999975280763,8|8,0:0|0:0,0:0:0:0:
259,243,58051,1,8,0:0:0:0:
373,157,58216,1,8,0:0:0:0:
161,159,58381,2,0,L|153:239,1,80.9999975280763,8|8,0:0|0:0,0:0:0:0:
272,96,58711,1,8,0:0:0:0:
57,122,58875,1,8,0:0:0:0:
304,93,59040,5,12,0:0:0:0:
304,93,59535,1,8,0:0:0:0:
250,267,59700,5,12,0:0:0:0:
250,267,60194,1,8,0:0:0:0:
438,231,60359,5,12,0:0:0:0:
334,181,60524,2,0,L|338:230,2,40.4999987640381,8|8|0,0:0|0:0|0:0,0:0:0:0:
413,148,60771,2,0,L|417:95,2,40.4999987640381,8|0|8,0:0|0:0|0:0,0:0:0:0:
438,231,61018,1,0,0:0:0:0:
444,250,61100,1,8,0:0:0:0:
447,270,61182,1,8,0:0:0:0:
445,290,61265,1,8,0:0:0:0:
440,309,61348,2,0,L|390:305,3,40.4999987640381,8|8|0|0,0:0|0:0|0:0|0:0,0:0:0:0:
333,359,61678,6,0,L|223:365,1,90,12|8,0:0|0:0,0:0:0:0:
173,210,62007,2,0,L|283:216,1,90,8|8,0:0|0:0,0:0:0:0:
399,305,62337,1,8,0:0:0:0:
342,122,62502,2,0,L|232:128,1,90,8|8,0:0|0:0,0:0:0:0:
483,209,62831,1,8,0:0:0:0:
483,209,62914,1,0,0:0:0:0:
483,209,62996,6,0,P|495:160|473:96,1,90,8|8,0:0|0:0,0:0:0:0:
305,46,63326,1,8,0:0:0:0:
416,160,63491,1,8,0:0:0:0:
278,16,63656,2,0,L|377:20,1,90,12|8,0:0|0:0,0:0:0:0:
287,208,63985,1,8,0:3:0:0:
431,72,64150,1,8,0:3:0:0:
193,172,64315,6,0,P|185:216|197:259,1,90,12|8,0:0|0:0,0:0:0:0:
412,306,64645,1,8,0:0:0:0:
287,208,64809,1,8,0:0:0:0:
436,325,64974,1,8,0:0:0:0:
389,99,65139,2,0,P|396:143|384:186,1,90,8|8,0:0|0:0,0:0:0:0:
281,339,65469,6,0,B|234:318|188:344|198:353|149:382|84:345,1,180,8|8,0:0|0:0,0:0:0:0:
65,153,65963,1,8,0:0:0:0:
146,279,66128,1,8,0:0:0:0:
45,123,66293,2,0,L|53:23,1,90,12|2,0:0|0:0,0:0:0:0:
52,33,66540,1,8,0:0:0:0:
52,33,66623,1,10,0:0:0:0:
147,179,66787,1,8,0:0:0:0:
232,0,66952,6,0,L|239:89,1,90,12|8,0:0|0:0,0:0:0:0:
249,169,67200,1,8,0:0:0:0:
249,169,67282,2,0,P|296:159|351:179,1,90,8|8,0:0|0:0,0:0:0:0:
335,169,67529,1,0,0:0:0:0:
335,169,67612,1,8,0:0:0:0:
393,307,67776,2,0,P|346:317|291:297,1,90,8|8,0:0|0:0,0:0:0:0:
170,202,68106,1,8,0:0:0:0:
225,381,68271,6,0,L|218:273,1,90,8|8,0:0|0:0,0:0:0:0:
9,299,68601,1,8,0:0:0:0:
137,332,68766,1,8,0:0:0:0:
90,167,68930,2,0,L|84:256,1,90,12|8,0:0|0:0,0:0:0:0:
262,213,69260,1,8,0:3:0:0:
117,352,69425,1,8,0:3:0:0:
287,189,69590,6,0,P|334:179|389:199,1,90,12|8,0:0|0:0,0:0:0:0:
392,384,69919,1,8,0:0:0:0:
330,258,70084,1,8,0:0:0:0:
503,315,70249,1,8,0:0:0:0:
272,336,70414,1,8,0:0:0:0:
472,318,70579,1,8,0:0:0:0:
286,151,70744,6,0,B|237:127|237:127|142:147,1,135,12|0,0:0|0:0,0:0:0:0:
84,162,71073,6,0,L|90:218,1,45,10|0,0:0|0:0,0:0:0:0:
175,279,71238,6,0,L|179:234,1,45,10|0,0:0|0:0,0:0:0:0:
68,163,71403,6,0,L|74:219,1,45,10|0,0:0|0:0,0:0:0:0:
159,280,71568,6,0,L|163:235,1,45,10|0,0:0|0:0,0:0:0:0:
52,164,71733,6,0,L|58:220,1,45,10|0,0:0|0:0,0:0:0:0:
143,281,71897,6,0,L|147:236,1,45,10|0,0:0|0:0,0:0:0:0:
36,165,72062,6,0,L|42:221,1,45,10|0,0:0|0:0,0:0:0:0:
96,356,72227,6,0,P|144:370|192:354,1,90,12|8,0:0|0:0,0:0:0:0:
266,171,72557,1,8,0:0:0:0:
143,281,72722,1,8,0:0:0:0:
288,150,72886,1,8,0:0:0:0:
272,336,73051,1,8,0:0:0:0:
161,182,73216,2,0,L|171:77,1,90,8|8,0:0|0:0,0:0:0:0:
309,259,73546,5,8,0:0:0:0:
143,281,73711,1,8,0:0:0:0:
343,252,73875,2,0,P|386:242|428:256,1,90,8|8,0:0|0:0,0:0:0:0:
235,295,74205,2,0,P|225:251|239:209,1,90,12|8,0:0|0:0,0:0:0:0:
239,209,74452,1,8,0:0:0:0:
239,209,74535,1,8,3:0:0:0:
381,334,74700,1,8,3:0:0:0:
292,121,74864,6,0,L|179:125,1,90,12|8,0:0|0:0,0:0:0:0:
369,192,75194,1,8,0:0:0:0:
315,33,75359,1,8,0:0:0:0:
379,220,75524,1,8,0:0:0:0:
464,37,75689,2,0,P|474:87|463:128,1,90,8|8,0:0|0:0,0:0:0:0:
309,258,76018,6,0,P|362:231|479:269,1,180,8|8,0:0|0:0,0:0:0:0:
215,333,76513,2,0,L|223:231,1,90,8|8,0:0|0:0,0:0:0:0:
371,130,76842,2,0,L|378:219,1,90,12|2,0:0|0:0,0:0:0:0:
378,219,77090,1,8,0:0:0:0:
378,219,77172,1,10,0:0:0:0:
176,179,77337,1,8,0:0:0:0:
290,377,77502,6,0,P|301:334|287:289,1,90,12|8,0:0|0:0,0:0:0:0:
81,241,77831,1,8,0:0:0:0:
215,333,77996,1,8,0:0:0:0:
51,219,78161,1,8,0:0:0:0:
89,384,78326,1,8,0:0:0:0:
192,156,78491,2,0,P|141:144|94:158,1,90,8|8,0:0|0:0,0:0:0:0:
238,319,78820,6,0,P|289:331|336:317,1,90,8|8,0:0|0:0,0:0:0:0:
338,104,79150,1,8,0:0:0:0:
285,249,79315,1,8,0:0:0:0:
348,71,79480,2,0,P|297:59|250:73,1,90,12|8,0:0|0:0,0:0:0:0:
446,181,79809,1,8,0:3:0:0:
413,0,79974,1,8,0:3:0:0:
452,210,80139,6,0,L|444:308,1,90,12|8,0:0|0:0,0:0:0:0:
212,298,80469,1,8,0:0:0:0:
369,237,80634,1,8,0:0:0:0:
164,214,80798,2,0,L|172:312,1,90,8|8,0:0|0:0,0:0:0:0:
288,157,81128,1,8,0:0:0:0:
77,153,81293,6,0,B|128:174|128:174|220:148,1,135,12|0,0:0|0:0,0:0:0:0:
273,118,81623,6,0,L|276:73,1,45,10|0,0:0|0:0,0:0:0:0:
307,142,81787,6,0,L|303:186,1,45,10|0,0:0|0:0,0:0:0:0:
344,133,81952,6,0,L|347:88,1,45,10|0,0:0|0:0,0:0:0:0:
379,158,82117,6,0,L|375:202,1,45,10|0,0:0|0:0,0:0:0:0:
415,149,82282,6,0,L|418:104,1,45,10|0,0:0|0:0,0:0:0:0:
450,173,82447,6,0,L|446:217,1,45,10|0,0:0|0:0,0:0:0:0:
489,163,82612,6,0,L|492:118,1,45,10|0,0:0|0:0,0:0:0:0:
511,253,82776,5,4,0:0:0:0:
293,295,82941,1,0,0:0:0:0:
293,295,83436,5,4,0:0:0:0:
367,107,83601,1,0,0:0:0:0:
391,237,83766,1,0,0:0:0:0:
182,186,83930,6,0,L|292:174,1,80.9999975280763,4|0,0:0|0:0,0:0:0:0:
372,324,84260,2,0,L|262:312,1,80.9999975280763
475,206,84590,2,0,L|468:271,1,40.4999987640381,8|8,0:0|0:0,0:0:0:0:
457,324,84755,1,12,0:0:0:0:
371,192,84919,1,0,0:0:0:0:
236,366,85084,2,0,P|169:379|99:343,1,121.499996292114,8|0,0:0|0:0,0:0:0:0:
68,305,85414,6,0,L|78:188,1,80.9999975280763,4|0,0:0|0:0,0:0:0:0:
264,183,85744,2,0,L|270:263,1,80.9999975280763,0|0,0:0|0:0,0:0:0:0:
57,148,86073,2,0,L|62:83,2,40.4999987640381,8|8|8,0:0|0:0|0:0,0:0:0:0:
254,84,86403,1,0,0:0:0:0:
74,224,86568,5,4,0:0:0:0:
74,224,86897,1,8,0:0:0:0:
158,59,87062,1,0,0:0:0:0:
223,231,87227,1,8,0:0:0:0:
57,148,87392,2,0,B|77:135|100:130|100:130|142:157|208:145,1,121.499996292114,8|0,0:0|0:0,0:0:0:0:
241,113,87722,6,0,L|342:118,1,90,0|0,0:0|0:0,0:0:0:0:
