osu file format v14

[General]
AudioFilename: audio.mp3
AudioLeadIn: 0
PreviewTime: 203890
Countdown: 1
SampleSet: Soft
StackLeniency: 0.7
Mode: 0
LetterboxInBreaks: 0
WidescreenStoryboard: 0

[Editor]
DistanceSpacing: 1
BeatDivisor: 4
GridSize: 4
TimelineZoom: 2.799999

[Metadata]
Title:Shikioriori ni Tayutotte
TitleUnicode:四季折々に揺蕩いて
Artist:After the Rain
ArtistUnicode:After the Rain
Creator:[ -Scarlet- ]
Version:LanJay rigged this. Ban Jesus too
Source:
Tags:
BeatmapID:1753120
BeatmapSetID:837257

[Difficulty]
HPDrainRate:5
CircleSize:3.6
OverallDifficulty:8.3
ApproachRate:9.5
SliderMultiplier:1.6
SliderTickRate:1

[Events]
//Background and Video events
0,0,"LeftBG.jpg",0,0
//Break Periods
2,189485,198234
//Storyboard Layer 0 (Background)
//Storyboard Layer 1 (Fail)
//Storyboard Layer 2 (Pass)
//Storyboard Layer 3 (Foreground)
//Storyboard Sound Samples

[TimingPoints]
23496,197.368421052632,4,2,1,45,1,0
23496,-100,4,2,1,70,0,0
23792,-76.9230769230769,4,2,1,70,0,0
24877,-100,4,2,1,70,0,0
25074,-71.4285714285714,4,2,1,70,0,0
25370,-100,4,2,1,70,0,0
25864,-125,4,2,1,70,0,0
26259,-100,4,2,1,70,0,0
26653,-66.6666666666667,4,2,1,70,0,0
26949,-83.3333333333333,4,2,1,70,0,0
27230,-100,4,2,1,70,0,0
27739,-71.4285714285714,4,2,1,70,0,0
28035,-100,4,2,1,70,0,0
28232,-76.9230769230769,4,2,1,70,0,0
28528,-100,4,2,1,70,0,0
29022,-76.9230769230769,4,2,1,70,0,0
29417,-100,4,2,1,70,0,0
29811,-76.9230769230769,4,2,1,70,0,0
30107,-66.6666666666667,4,2,1,70,0,0
30403,-100,4,2,1,70,0,0
31390,-71.4285714285714,4,2,1,70,0,0
31982,-100,4,2,1,70,0,0
32772,-200,4,2,1,70,0,0
34351,-166.666666666667,4,2,1,70,0,0
34943,-100,4,2,1,70,0,0
35535,-249.812453113278,4,2,1,70,0,0
35584,-249.812453113278,4,2,1,5,0,0
37114,-500,4,2,1,40,0,0
37706,-200,4,2,2,55,0,0
39334,-200,4,2,2,5,0,0
39482,-200,4,2,2,55,0,0
39532,-200,4,2,2,5,0,0
39680,-200,4,2,2,55,0,0
39729,-200,4,2,2,5,0,0
39877,-200,4,2,2,55,0,0
39926,-200,4,2,2,5,0,0
40074,-200,4,2,2,55,0,0
40124,-200,4,2,2,5,0,0
40272,-200,4,2,2,55,0,0
40321,-200,4,2,2,5,0,0
40469,-200,4,2,2,55,0,0
42492,-200,4,2,2,5,0,0
42640,-200,4,2,2,55,0,0
42690,-200,4,2,2,5,0,0
42838,-200,4,2,2,55,0,0
42887,-200,4,2,2,5,0,0
43035,-200,4,2,2,55,0,0
43084,-200,4,2,2,5,0,0
43232,-200,4,2,2,55,0,0
43282,-200,4,2,2,5,0,0
43430,-200,4,2,2,55,0,0
43479,-200,4,2,2,5,0,0
43627,-200,4,2,2,55,0,0
48956,-100,4,2,1,63,0,0
50732,-166.666666666667,4,2,1,63,0,0
51127,-100,4,2,1,63,0,0
51522,-166.666666666667,4,2,1,63,0,0
51917,-100,4,2,1,63,0,0
52509,-83.3333333333333,4,2,1,63,0,0
52805,-83.3333333333333,4,2,1,5,0,0
52903,-83.3333333333333,4,2,1,63,0,0
53496,-100,4,2,1,63,0,0
53890,-166.666666666667,4,2,1,63,0,0
54285,-100,4,2,1,63,0,0
54680,-166.666666666667,4,2,1,63,0,0
55074,-100,4,2,1,63,0,0
55667,-333.333333333333,4,2,1,63,0,0
56653,-83.3333333333333,4,2,1,63,0,0
56949,-100,4,2,1,63,0,0
57443,-83.3333333333333,4,2,1,63,0,0
57739,-100,4,2,1,63,0,0
58232,-86.9565217391304,4,2,1,63,0,0
58627,-76.9230769230769,4,2,1,63,0,0
59219,-83.3333333333333,4,2,1,63,0,0
59614,-100,4,2,1,63,0,0
59811,-83.3333333333333,4,2,1,63,0,0
60403,-100,4,2,1,63,0,0
60601,-83.3333333333333,4,2,1,63,0,0
60996,-125,4,2,1,63,0,0
61390,-83.3333333333333,4,2,1,63,0,0
61686,-166.666666666667,4,2,1,63,0,0
62180,-100,4,2,1,63,0,0
62377,-133.333333333333,4,2,1,63,0,0
62969,-200,4,2,2,55,0,0
66127,-142.857142857143,4,2,2,55,0,0
69088,-142.857142857143,4,2,1,68,0,0
69285,-83.3333333333333,4,2,1,68,0,0
69581,-105.263157894737,4,2,1,68,0,0
70864,-83.3333333333333,4,2,1,68,0,0
71160,-105.263157894737,4,2,1,68,0,0
71653,-83.3333333333333,4,2,1,68,0,0
72048,-100,4,2,1,68,0,0
72443,-76.9230769230769,4,2,1,68,0,0
72739,-105.263157894737,4,2,1,68,0,0
74022,-66.6666666666667,4,2,1,68,0,0
74811,-200,4,2,1,68,0,0
75403,-800,4,2,1,5,0,0
75502,-800,4,2,1,68,0,0
75601,-66.6666666666667,4,2,1,78,0,1
76193,-142.857142857143,4,2,1,78,0,1
76390,-62.5,4,2,1,78,0,1
76982,-142.857142857143,4,2,1,78,0,1
77180,-60.6060606060606,4,2,1,78,0,1
77772,-142.857142857143,4,2,1,78,0,1
77969,-100,4,2,1,78,0,1
78364,-83.3333333333333,4,2,1,78,0,1
78759,-66.6666666666667,4,2,1,78,0,1
79351,-142.857142857143,4,2,1,78,0,1
79548,-62.5,4,2,1,78,0,1
80140,-142.857142857143,4,2,1,78,0,1
80338,-100,4,2,1,78,0,1
80732,-83.3333333333333,4,2,1,78,0,1
81522,-76.9230769230769,4,2,1,78,0,1
81719,-71.4285714285714,4,2,1,78,0,1
81917,-66.6666666666667,4,2,1,78,0,1
82509,-142.857142857143,4,2,1,78,0,1
82706,-62.5,4,2,1,78,0,1
83298,-142.857142857143,4,2,1,78,0,1
83496,-60.6060606060606,4,2,1,78,0,1
84088,-142.857142857143,4,2,1,78,0,1
84285,-100,4,2,1,78,0,1
84680,-83.3333333333333,4,2,1,78,0,1
85074,-100,4,2,1,78,0,1
85371,-83.3333333333333,4,2,1,78,0,1
85667,-71.4285714285714,4,2,1,78,0,1
85864,-100,4,2,1,78,0,1
86160,-83.3333333333333,4,2,1,78,0,1
86456,-71.4285714285714,4,2,1,78,0,1
86653,-100,4,2,1,78,0,1
87246,-83.3333333333333,4,2,1,78,0,1
88232,-66.6666666666667,4,2,1,78,0,1
88824,-142.857142857143,4,2,1,78,0,1
89022,-62.5,4,2,1,78,0,1
89614,-142.857142857143,4,2,1,78,0,1
89811,-60.6060606060606,4,2,1,78,0,1
90403,-142.857142857143,4,2,1,78,0,1
90601,-100,4,2,1,78,0,1
90996,-83.3333333333333,4,2,1,78,0,1
91390,-66.6666666666667,4,2,1,78,0,1
91982,-142.857142857143,4,2,1,78,0,1
92180,-62.5,4,2,1,78,0,1
92772,-142.857142857143,4,2,1,78,0,1
92969,-100,4,2,1,78,0,1
93364,-83.3333333333333,4,2,1,78,0,1
94153,-76.9230769230769,4,2,1,78,0,1
94351,-71.4285714285714,4,2,1,78,0,1
94548,-66.6666666666667,4,2,1,78,0,1
94844,-83.3333333333333,4,2,1,78,0,1
95140,-100,4,2,1,78,0,1
95338,-62.5,4,2,1,78,0,1
95634,-76.9230769230769,4,2,1,78,0,1
95930,-100,4,2,1,78,0,1
96127,-58.8235294117647,4,2,1,78,0,1
96423,-76.9230769230769,4,2,1,78,0,1
96719,-100,4,2,1,78,0,1
96917,-58.8235294117647,4,2,1,78,0,1
97213,-100,4,2,1,78,0,1
97706,-76.9230769230769,4,2,1,78,0,1
98101,-100,4,2,1,78,0,1
100074,-100,4,2,1,55,0,1
100864,-76.9230769230769,4,2,1,70,0,0
101259,-100,4,2,1,70,0,0
101653,-76.9230769230769,4,2,1,70,0,0
102048,-100,4,2,1,70,0,0
102443,-76.9230769230769,4,2,1,70,0,0
102838,-100,4,2,1,70,0,0
103430,-55.5555555555556,4,2,1,70,0,0
104022,-76.9230769230769,4,2,1,70,0,0
104417,-100,4,2,1,70,0,0
104811,-76.9230769230769,4,2,1,70,0,0
105107,-100,4,2,1,70,0,0
105502,-76.9230769230769,4,2,1,70,0,0
106588,-100,4,2,1,70,0,0
107180,-76.9230769230769,4,2,1,70,0,0
107574,-100,4,2,1,70,0,0
107969,-76.9230769230769,4,2,1,70,0,0
108364,-100,4,2,1,70,0,0
108759,-76.9230769230769,4,2,1,70,0,0
109153,-100,4,2,1,70,0,0
110140,-166.666666666667,4,2,1,70,0,0
111719,-166.666666666667,4,2,1,70,0,0
112311,-100,4,2,1,70,0,0
112903,-200,4,2,2,70,0,0
113496,-200,4,2,2,63,0,0
115124,-200,4,2,2,5,0,0
115272,-200,4,2,2,63,0,0
115321,-200,4,2,2,5,0,0
115469,-200,4,2,2,63,0,0
115519,-200,4,2,2,5,0,0
115667,-200,4,2,2,63,0,0
115716,-200,4,2,2,5,0,0
115864,-200,4,2,2,63,0,0
115913,-200,4,2,2,5,0,0
116061,-200,4,2,2,63,0,0
116111,-200,4,2,2,5,0,0
116259,-200,4,2,2,63,0,0
118824,-125,4,2,2,63,0,0
119811,-200,4,2,2,63,0,0
122377,-166.666666666667,4,2,2,63,0,0
122772,-200,4,2,2,63,0,0
124746,-333,4,2,1,63,0,0
125338,-100,4,2,1,63,0,0
126522,-166.666666666667,4,2,1,63,0,0
126917,-100,4,2,1,63,0,0
127311,-166.666666666667,4,2,1,63,0,0
127706,-100,4,2,1,63,0,0
128002,-166.666666666667,4,2,1,63,0,0
128496,-50,4,2,1,63,0,0
128545,-50,4,2,1,5,0,0
129285,-100,4,2,1,63,0,0
129680,-166.666666666667,4,2,1,63,0,0
130074,-100,4,2,1,63,0,0
130469,-166.666666666667,4,2,1,63,0,0
130864,-100,4,2,1,63,0,0
131259,-166.666666666667,4,2,1,63,0,0
131653,-66.6666666666667,4,2,1,63,0,0
131851,-50,4,2,1,63,0,0
131900,-50,4,2,1,5,0,0
132443,-83.3333333333333,4,2,1,63,0,0
132739,-100,4,2,1,63,0,0
133232,-83.3333333333333,4,2,1,63,0,0
133627,-100,4,2,1,63,0,0
134417,-83.3333333333333,4,2,1,63,0,0
135403,-100,4,2,1,63,0,0
135601,-83.3333333333333,4,2,1,63,0,0
136193,-100,4,2,1,63,0,0
136390,-83.3333333333333,4,2,1,63,0,0
136785,-100,4,2,1,63,0,0
137180,-83.3333333333333,4,2,1,63,0,0
137476,-166.666666666667,4,2,1,63,0,0
137969,-100,4,2,1,63,0,0
138167,-166.666666666667,4,2,1,63,0,0
138759,-200,4,2,2,55,0,0
141917,-142.857142857143,4,2,2,55,0,0
144581,-100,4,2,2,55,0,0
144877,-83.3333333333333,4,2,1,68,0,0
145371,-100,4,2,1,68,0,0
147048,-83.3333333333333,4,2,1,75,0,0
147344,-58.8235294117647,4,2,1,5,0,0
147443,-71.4285714285714,4,2,1,80,0,0
147739,-40,4,2,1,5,0,0
147838,-62.5,4,2,1,85,0,0
148134,-62.5,4,2,1,5,0,0
148232,-285.714285714286,4,2,1,45,0,0
149713,-285.714285714286,4,2,1,5,0,0
149811,-62.5,4,2,1,70,0,0
150601,-76.9230769230769,4,2,1,70,0,0
151390,-66.6666666666667,4,2,1,78,0,1
151982,-142.857142857143,4,2,1,78,0,1
152180,-62.5,4,2,1,78,0,1
152772,-142.857142857143,4,2,1,78,0,1
152969,-60.6060606060606,4,2,1,78,0,1
153561,-142.857142857143,4,2,1,78,0,1
153759,-100,4,2,1,78,0,1
154153,-83.3333333333333,4,2,1,78,0,1
154548,-66.6666666666667,4,2,1,78,0,1
155140,-142.857142857143,4,2,1,78,0,1
155338,-62.5,4,2,1,78,0,1
155930,-142.857142857143,4,2,1,78,0,1
156127,-100,4,2,1,78,0,1
156522,-83.3333333333333,4,2,1,78,0,1
157114,-100,4,2,1,78,0,1
157311,-83.3333333333333,4,2,1,78,0,1
157509,-71.4285714285714,4,2,1,78,0,1
157706,-66.6666666666667,4,2,1,78,0,1
158298,-142.857142857143,4,2,1,78,0,1
158496,-62.5,4,2,1,78,0,1
159088,-142.857142857143,4,2,1,78,0,1
159285,-60.6060606060606,4,2,1,78,0,1
159778,-142.857142857143,4,2,1,78,0,1
160074,-100,4,2,1,78,0,1
160469,-83.3333333333333,4,2,1,78,0,1
160864,-100,4,2,1,78,0,1
161160,-83.3333333333333,4,2,1,78,0,1
161456,-71.4285714285714,4,2,1,78,0,1
161653,-100,4,2,1,78,0,1
161949,-83.3333333333333,4,2,1,78,0,1
162246,-71.4285714285714,4,2,1,78,0,1
162443,-83.3333333333333,4,2,1,78,0,1
164022,-66.6666666666667,4,2,1,78,0,1
164614,-142.857142857143,4,2,1,78,0,1
164811,-62.5,4,2,1,78,0,1
165403,-142.857142857143,4,2,1,78,0,1
165601,-60.6060606060606,4,2,1,78,0,1
166193,-142.857142857143,4,2,1,78,0,1
166390,-100,4,2,1,78,0,1
166785,-83.3333333333333,4,2,1,78,0,1
167180,-66.6666666666667,4,2,1,78,0,1
167772,-142.857142857143,4,2,1,78,0,1
167969,-62.5,4,2,1,78,0,1
168561,-142.857142857143,4,2,1,78,0,1
168759,-100,4,2,1,78,0,1
169153,-83.3333333333333,4,2,1,78,0,1
169746,-100,4,2,1,78,0,1
169943,-83.3333333333333,4,2,1,78,0,1
170140,-71.4285714285714,4,2,1,78,0,1
170338,-66.6666666666667,4,2,1,78,0,1
170634,-83.3333333333333,4,2,1,78,0,1
170930,-100,4,2,1,78,0,1
171127,-62.5,4,2,1,78,0,1
171423,-83.3333333333333,4,2,1,78,0,1
171719,-100,4,2,1,78,0,1
171917,-58.8235294117647,4,2,1,78,0,1
172213,-76.9230769230769,4,2,1,78,0,1
172509,-100,4,2,1,78,0,1
173298,-83.3333333333333,4,2,1,78,0,1
173890,-100,4,2,1,78,0,1
175864,-100,4,2,1,70,0,1
176259,-66.6666666666667,4,2,1,78,0,1
176555,-66.6666666666667,4,2,1,5,0,1
176653,-66.6666666666667,4,2,1,70,0,0
176949,-100,4,2,1,60,0,0
177246,-133.333333333333,4,2,1,50,0,0
177838,-66.6666666666667,4,2,1,70,0,0
178134,-100,4,2,1,60,0,0
178430,-133.333333333333,4,2,1,50,0,0
179022,-66.6666666666667,4,2,1,65,0,0
179318,-200,4,2,1,60,0,0
179811,-66.6666666666667,4,2,1,70,0,0
180107,-100,4,2,1,60,0,0
180403,-133.333333333333,4,2,1,50,0,0
180996,-66.6666666666667,4,2,1,70,0,0
181292,-100,4,2,1,60,0,0
181588,-133.333333333333,4,2,1,50,0,0
182969,-66.6666666666667,4,2,1,70,0,0
183265,-100,4,2,1,60,0,0
183561,-133.333333333333,4,2,1,50,0,0
184153,-66.6666666666667,4,2,1,70,0,0
184449,-100,4,2,1,60,0,0
184746,-133.333333333333,4,2,1,50,0,0
186127,-66.6666666666667,4,2,1,70,0,0
186423,-100,4,2,1,60,0,0
186719,-133.333333333333,4,2,1,50,0,0
187311,-66.6666666666667,4,2,1,70,0,0
187607,-100,4,2,1,60,0,0
187903,-133.333333333333,4,2,1,50,0,0
188496,-100,4,2,1,60,0,0
189285,-100,4,2,1,68,0,0
198759,-100,4,2,1,60,0,0
199548,-83.3333333333333,4,2,1,75,0,0
200338,-71.4285714285714,4,2,1,88,0,0
200634,-125,4,2,1,88,0,0
203298,-71.4285714285714,4,2,1,5,0,0
205074,-200,4,2,1,30,0,0
209910,-200,4,2,1,5,0,0
210601,-71.4285714285714,4,2,1,40,0,0
210897,-71.4285714285714,4,2,1,50,0,0
211193,-200,4,2,1,68,0,0
211785,-200,4,2,2,45,0,0
211834,-200,4,2,2,5,0,0
211982,-200,4,2,2,45,0,0
212032,-200,4,2,2,5,0,0
212180,-200,4,2,2,45,0,0
212229,-200,4,2,2,5,0,0
212377,-200,4,2,2,45,0,0
212426,-200,4,2,2,5,0,0
212574,-200,4,2,2,45,0,0
212624,-200,4,2,2,5,0,0
212772,-200,4,2,2,45,0,0
212821,-200,4,2,2,5,0,0
212969,-200,4,2,1,55,0,0
213019,-200,4,2,1,5,0,0
213167,-200,4,2,1,55,0,0
213216,-200,4,2,1,5,0,0
213364,-200,4,2,1,55,0,0
213413,-200,4,2,1,5,0,0
213561,-200,4,2,1,55,0,0
213611,-200,4,2,1,5,0,0
213759,-200,4,2,1,55,0,0
213808,-200,4,2,1,5,0,0
213956,-200,4,2,1,55,0,0
214005,-200,4,2,1,5,0,0
214153,-200,4,2,1,55,0,0
214203,-200,4,2,1,5,0,0
214351,-200,4,2,1,55,0,0
214400,-200,4,2,1,5,0,0
214548,-200,4,2,1,65,0,0
214597,-200,4,2,1,5,0,0
214746,-200,4,2,1,65,0,0
214795,-200,4,2,1,5,0,0
214943,-125,4,2,1,65,0,0
214992,-125,4,2,1,5,0,0
215140,-125,4,2,1,65,0,0
215190,-125,4,2,1,5,0,0
215338,-90.9090909090909,4,2,1,65,0,0
215387,-90.9090909090909,4,2,1,5,0,0
215535,-90.9090909090909,4,2,1,65,0,0
215584,-90.9090909090909,4,2,1,5,0,0
215732,-200,4,2,1,70,0,0
216127,-66.6666666666667,4,2,1,88,0,0
216719,-500,4,2,1,68,0,0
217509,-800,4,2,1,5,0,0
217607,-800,4,2,1,68,0,0
217706,-62.5,4,2,1,75,0,1
218298,-142.857142857143,4,2,1,75,0,1
218496,-58.8235294117647,4,2,1,75,0,1
219088,-142.857142857143,4,2,1,75,0,1
219285,-55.5555555555556,4,2,1,75,0,1
219877,-142.857142857143,4,2,1,75,0,1
220074,-83.3333333333333,4,2,1,75,0,1
220469,-71.4285714285714,4,2,1,75,0,1
220864,-62.5,4,2,1,75,0,1
221456,-142.857142857143,4,2,1,75,0,1
221653,-58.8235294117647,4,2,1,75,0,1
222246,-142.857142857143,4,2,1,75,0,1
222443,-83.3333333333333,4,2,1,75,0,1
222838,-71.4285714285714,4,2,1,75,0,1
223627,-66.6666666666667,4,2,1,75,0,1
223824,-62.5,4,2,1,75,0,1
224614,-142.857142857143,4,2,1,75,0,1
224811,-58.8235294117647,4,2,1,75,0,1
225403,-142.857142857143,4,2,1,75,0,1
225601,-55.5555555555556,4,2,1,75,0,1
226193,-142.857142857143,4,2,1,75,0,1
226390,-83.3333333333333,4,2,1,75,0,1
226785,-71.4285714285714,4,2,1,75,0,1
227180,-100,4,2,1,75,0,1
227476,-83.3333333333333,4,2,1,75,0,1
227772,-71.4285714285714,4,2,1,75,0,1
227969,-100,4,2,1,75,0,1
228265,-83.3333333333333,4,2,1,75,0,1
228561,-71.4285714285714,4,2,1,75,0,1
229351,-66.6666666666667,4,2,1,75,0,1
230338,-62.5,4,2,1,75,0,1
230930,-142.857142857143,4,2,1,75,0,1
231127,-58.8235294117647,4,2,1,75,0,1
231719,-142.857142857143,4,2,1,75,0,1
231917,-55.5555555555556,4,2,1,75,0,1
232509,-142.857142857143,4,2,1,75,0,1
232706,-66.6666666666667,4,2,1,75,0,1
233101,-50,4,2,1,75,0,1
233496,-43.4782608695652,4,2,1,75,0,1
233792,-62.5,4,2,1,75,0,1
234088,-142.857142857143,4,2,1,75,0,1
234285,-62.5,4,2,1,75,0,1
234877,-142.857142857143,4,2,1,75,0,1
235074,-83.3333333333333,4,2,1,75,0,1
235469,-71.4285714285714,4,2,1,75,0,1
236061,-100,4,2,1,75,0,1
236259,-111.111111111111,4,2,1,75,0,1
236456,-125,4,2,1,75,0,1
236653,-62.5,4,2,1,75,0,1
236949,-83.3333333333333,4,2,1,75,0,1
237246,-100,4,2,1,75,0,1
237443,-83.3333333333333,4,2,1,75,0,1
237739,-100,4,2,1,75,0,1
238035,-125,4,2,1,75,0,1
238232,-62.5,4,2,1,75,0,1
238528,-83.3333333333333,4,2,1,75,0,1
238824,-100,4,2,1,75,0,1
239219,-83.3333333333333,4,2,1,75,0,1
239614,-71.4285714285714,4,2,1,75,0,1
240107,-83.3333333333333,4,2,1,75,0,1
240897,-76.9230769230769,4,2,1,75,0,1
241193,-71.4285714285714,4,2,1,75,0,1
241390,-62.5,4,2,1,75,0,1
241686,-142.857142857143,4,2,1,75,0,1
242969,-142.857142857143,4,2,1,55,0,1
244548,-142.857142857143,4,2,1,70,0,1
245930,-100,4,2,1,75,0,1
246127,-100,4,2,1,85,0,1
247509,-66.6666666666667,4,2,1,85,0,1
247706,-66.6666666666667,4,2,1,5,0,1
249285,-100,4,2,1,50,0,1
250864,-100,4,2,1,90,0,0

[Colours]
Combo1 : 255,111,111
Combo2 : 210,233,255
Combo3 : 255,204,255
Combo4 : 0,121,242
Combo5 : 0,0,181
Combo6 : 255,132,255
Combo7 : 162,0,162
Combo8 : 255,0,0

[HitObjects]
424,240,23101,5,2,0:0:0:0:
424,240,23199,1,0,0:0:0:0:
424,240,23298,2,0,L|500:224,2,53.3333333333333,0|0|0,0:0|0:0|0:0,0:0:0:0:
344,292,23496,6,0,P|328:232|348:184,1,80,4|0,1:0|0:0,0:0:0:0:
416,48,23693,1,8,0:0:0:0:
476,120,23792,2,0,B|392:184|356:72|252:160,1,207.999990478516,0|0,1:0|1:0,0:0:0:0:
180,268,24088,2,0,P|176:316|252:316,1,103.999995239258,8|0,0:0|0:0,0:0:0:0:
221,338,24285,102,0,B|193:198|193:198|213:242|289:246,1,207.999990478516,0|8,1:0|0:0,0:0:0:0:
424,272,24581,2,0,B|388:244|336:248|336:248|332:288|304:312|304:312|336:296|356:300,1,207.999990478516,0|0,1:0|1:0,0:0:0:0:
512,280,24877,2,0,P|508:240|481:211,1,80,8|0,0:0|0:0,0:0:0:0:
284,152,25074,102,0,B|320:156|351:130|351:130|383:134|395:154|395:154|423:106|488:108,1,223.999993164063,4|8,1:2|0:0,0:0:0:0:
320,8,25371,2,0,P|290:26|288:72,1,80,0|0,1:0|0:0,0:0:0:0:
264,296,25568,1,0,1:0:0:0:
342,299,25667,2,0,P|338:259|288:228,1,80,8|0,0:0|0:0,0:0:0:0:
52,232,25864,6,0,P|80:240|124:216,1,64,0|0,1:0|0:0,0:0:0:0:
240,192,26061,2,0,P|208:172|160:184,1,64,8|0,0:2|1:0,0:0:0:0:
64,352,26259,6,0,P|108:336|144:296,1,80,0|0,0:2|1:0,0:0:0:0:
216,56,26456,2,0,P|172:72|136:112,1,80,8|0,0:0|0:0,0:0:0:0:
224,284,26653,6,0,P|308:344|292:252,1,240.000009155274,4|8,1:0|0:0,0:0:0:0:
396,232,26949,2,0,P|468:236|412:168,1,191.999994140625,0|0,1:0|1:0,0:0:0:0:
456,80,27246,2,0,P|472:56|424:28,1,80,8|0,0:0|0:0,0:0:0:0:
296,116,27443,102,0,L|380:88,1,80,0|0,1:0|0:0,0:0:0:0:
128,164,27640,1,8,0:0:0:0:
136,80,27739,2,0,B|124:48|152:16|152:16|216:24|236:80|204:152,1,223.999993164063,0|0,1:0|1:0,0:0:0:0:
180,248,28035,2,0,P|136:236|92:260,1,80,8|0,0:0|0:0,0:0:0:0:
48,368,28232,6,0,B|72:348|108:356|108:356|120:332|140:320|140:320|156:324|172:336|172:336|192:320|244:324,1,207.999990478516,4|8,1:0|0:0,0:0:0:0:
344,360,28528,2,0,P|312:325|315:286,1,80,0|0,1:0|0:0,0:0:0:0:
236,136,28726,1,0,1:0:0:0:
312,172,28824,2,0,P|284:212|240:220,1,80,8|0,0:0|0:0,0:0:0:0:
40,160,29022,6,0,B|79:99|54:30|54:30|92:64|145:49|145:49|92:69|96:118,1,311.999985717774,0|0,1:0|1:0,0:0:0:0:
196,208,29417,2,0,P|173:176|178:137,1,80,4|0,1:0|1:0,0:0:0:0:
416,108,29614,1,4,0:3:0:0:
352,180,29713,1,8,0:3:0:0:
264,148,29811,6,0,B|296:16|296:16|348:116,1,207.999990478516,4|8,1:0|0:0,0:0:0:0:
389,290,30107,2,0,B|349:236|409:136|409:136|393:172|347:180,1,240.000009155274,0|0,1:0|1:0,0:0:0:0:
212,231,30403,2,0,P|248:248|288:244,1,80,8|0,0:0|0:0,0:0:0:0:
48,288,30601,102,0,P|24:240|40:188,1,80,0|0,1:0|0:0,0:0:0:0:
104,56,30798,1,8,0:0:0:0:
32,116,30897,2,0,B|20:88|32:64|32:64|88:88|100:180,1,160,0|0,1:0|1:0,0:0:0:0:
48,288,31193,1,10,0:0:0:0:
120,228,31292,1,2,0:0:0:0:
212,231,31390,6,0,B|272:232|304:288|304:288|296:224|352:176,1,223.999993164063,4|8,1:2|0:0,0:0:0:0:
488,248,31686,2,0,P|428:332|424:232,1,223.999993164063,0|0,1:0|1:0,0:0:0:0:
428,176,31982,102,0,P|464:156|524:164,1,80,8|0,0:0|0:0,0:0:0:0:
339,187,32180,2,0,P|303:207|243:199,1,80,0|0,1:0|0:0,0:0:0:0:
28,148,32377,5,8,0:0:0:0:
92,97,32476,1,8,0:0:0:0:
168,120,32574,1,8,0:3:0:0:
108,176,32673,1,8,0:3:0:0:
92,97,32772,6,0,L|108:176,1,80,4|4,0:3|1:0,0:0:0:0:
20,288,33167,101,8,0:0:0:0:
68,260,33265,1,0,0:0:0:0:
124,272,33364,1,0,0:0:0:0:
172,240,33463,1,0,1:0:0:0:
224,256,33561,1,8,0:0:0:0:
20,288,33759,5,0,1:0:0:0:
44,220,33857,1,0,0:0:0:0:
108,188,33956,1,8,0:0:0:0:
180,200,34055,1,0,1:0:0:0:
224,256,34153,1,0,0:0:0:0:
132,352,34351,102,0,L|136:384,2,31.9999990234375,8|0|0,0:0|0:0|0:0,0:0:0:0:
20,288,34548,21,14,0:0:0:0:
88,276,34647,1,0,0:0:0:0:
156,268,34746,1,2,0:0:0:0:
224,256,34844,1,12,0:0:0:0:
292,244,34943,6,0,P|288:296|304:328,1,80,0|0,0:0|1:0,0:0:0:0:
492,228,35140,2,0,P|458:188|424:177,1,80,10|2,0:0|0:0,0:0:0:0:
400,280,35338,1,0,1:0:0:0:
288,96,35535,6,0,B|224:108|212:152|212:152|204:128|148:88|148:88|148:136|128:160|128:160|144:184|152:212|152:212|88:188|28:216|28:216|68:220|84:248,1,512.384382106963,4|0,0:1|0:0,0:0:0:0:
79,241,37213,1,0,0:0:0:0:
79,241,37311,1,0,0:0:0:0:
136,340,37509,1,0,0:0:0:0:
136,340,37607,1,0,0:0:0:0:
136,340,37706,6,0,P|160:308|204:296,1,80,6|2,1:2|0:3,0:0:0:0:
204,272,38101,2,0,P|243:266|283:288,1,80,2|2,1:2|0:3,0:0:0:0:
300,276,38496,2,0,P|332:300|344:344,1,80,2|2,1:2|0:3,0:0:0:0:
240,368,38890,1,2,1:2:0:0:
240,368,39088,1,2,0:3:0:0:
204,272,39285,6,0,L|180:268,1,20,2|0,1:2|0:0,0:0:0:0:
200,264,39482,2,0,L|176:260,1,20,0|0,0:0|0:0,0:0:0:0:
100,352,39680,6,0,L|115:333,1,20,2|0,1:2|0:0,0:0:0:0:
108,352,39877,2,0,L|123:333,1,20,0|0,0:0|0:0,0:0:0:0:
84,224,40074,6,0,L|92:246,1,20,2|0,1:2|0:0,0:0:0:0:
83,231,40272,2,0,L|91:253,1,20,0|0,0:0|0:0,0:0:0:0:
184,160,40469,5,2,1:2:0:0:
160,32,40667,1,0,0:0:0:0:
85,107,40864,6,0,P|51:86|12:88,1,80,2|2,1:2|0:3,0:0:0:0:
184,160,41259,2,0,P|216:132|264:128,1,80,2|2,1:2|0:3,0:0:0:0:
264,336,41653,6,0,L|256:212,1,120,2|0,1:2|0:0,0:0:0:0:
251,126,42048,1,2,1:2:0:0:
264,336,42246,1,2,0:3:0:0:
140,296,42443,6,0,L|176:284,1,20,2|0,1:2|0:0,0:0:0:0:
148,284,42640,2,0,L|184:272,1,20,0|0,0:0|0:0,0:0:0:0:
256,216,42838,6,0,L|220:204,1,20,2|0,1:2|0:0,0:0:0:0:
248,204,43035,2,0,L|212:192,1,20,0|0,0:0|0:0,0:0:0:0:
124,168,43232,6,0,L|160:156,1,20,2|0,1:2|0:0,0:0:0:0:
132,156,43430,2,0,L|168:144,1,20,0|0,0:0|0:0,0:0:0:0:
248,100,43627,5,2,1:2:0:0:
248,204,43824,1,0,0:0:0:0:
348,148,44022,6,0,P|384:128|432:128,1,80,2|2,1:2|0:3,0:0:0:0:
150,149,44417,2,0,P|114:129|66:129,1,80,2|2,1:2|0:3,0:0:0:0:
248,204,44811,2,0,L|252:283,1,80,2|2,1:2|0:3,0:0:0:0:
256,364,45206,1,2,1:2:0:0:
256,364,45403,1,2,0:3:0:0:
172,312,45601,5,2,1:2:0:0:
328,264,45798,1,2,0:3:0:0:
204,228,45996,1,2,1:2:0:0:
280,192,46193,1,2,0:3:0:0:
196,112,46390,6,0,B|208:148|208:148|256:100|228:28,1,160,2|2,1:2|1:2,0:0:0:0:
32,48,46982,2,0,L|36:92,1,40,0|0,0:0|0:0,0:0:0:0:
24,168,47180,6,0,B|68:172|100:140|100:140|124:180|172:184,1,160,2|2,1:2|1:2,0:0:0:0:
84,244,47772,1,2,0:3:0:0:
180,92,47969,101,2,1:2:0:0:
268,48,48167,1,2,0:3:0:0:
432,136,48364,101,2,1:2:0:0:
340,112,48561,1,2,0:3:0:0:
486,60,48759,6,0,L|447:57,1,40,0|0,1:2|0:0,0:0:0:0:
447,57,48956,54,0,L|432:136,1,80,8|0,0:0|0:0,0:0:0:0:
324,190,49153,2,0,L|339:111,1,80,8|0,0:0|0:0,0:0:0:0:
482,205,49351,5,0,1:0:0:0:
482,205,49449,1,0,1:0:0:0:
482,205,49548,2,0,P|448:223|408:219,1,80,4|0,0:3|0:0,0:0:0:0:
250,205,49746,2,0,P|284:186|324:190,1,80,8|0,0:3|0:0,0:0:0:0:
308,376,49943,101,0,0:0:0:0:
316,336,50042,1,0,1:0:0:0:
304,308,50140,1,8,0:3:0:0:
308,284,50239,1,0,0:0:0:0:
300,272,50338,70,0,L|140:288,1,160,4|0,1:0|0:0,0:0:0:0:
64,292,50634,1,8,0:0:0:0:
64,292,50732,6,0,L|68:344,1,47.9999985351563,0|0,1:0|1:0,0:0:0:0:
187,199,50930,2,0,L|183:151,1,47.9999985351563,8|0,0:0|0:0,0:0:0:0:
183,151,51127,70,0,L|343:167,1,160,0|0,1:0|0:0,0:0:0:0:
419,171,51423,1,8,0:0:0:0:
419,171,51522,6,0,L|415:223,1,47.9999985351563,0|0,1:0|1:0,0:0:0:0:
297,79,51719,2,0,L|300:31,1,47.9999985351563,8|0,0:0|0:0,0:0:0:0:
300,31,51917,70,0,L|140:44,1,160,4|0,1:2|0:0,0:0:0:0:
60,48,52213,1,8,0:0:0:0:
132,136,52410,1,0,1:0:0:0:
132,136,52509,6,0,P|136:232|44:148,1,287.999991210938,8|0,0:0|0:0,0:0:0:0:
76,72,52903,5,8,0:0:0:0:
124,48,53002,1,0,0:0:0:0:
180,64,53101,1,0,1:0:0:0:
212,108,53199,5,0,1:0:0:0:
248,124,53298,1,0,1:0:0:0:
284,112,53397,1,0,1:0:0:0:
304,92,53496,38,0,P|376:72|456:144,1,160,4|0,1:2|0:0,0:0:0:0:
492,192,53792,1,8,0:0:0:0:
492,192,53890,6,0,P|460:208|436:200,1,47.9999985351563,0|0,1:0|1:0,0:0:0:0:
348,232,54088,2,0,P|316:216|292:224,1,47.9999985351563,8|0,0:0|0:0,0:0:0:0:
200,208,54285,38,0,P|128:188|48:260,1,160,0|0,1:0|0:0,0:0:0:0:
12,308,54581,1,8,0:0:0:0:
12,308,54680,6,0,P|44:324|72:320,1,47.9999985351563,0|0,1:0|1:0,0:0:0:0:
156,348,54877,2,0,P|188:332|212:340,1,47.9999985351563,8|0,0:0|0:0,0:0:0:0:
304,240,55074,38,0,P|376:220|456:292,1,160,4|0,1:2|0:0,0:0:0:0:
492,340,55371,1,8,0:0:0:0:
363,308,55568,1,0,1:0:0:0:
352,384,55667,6,0,B|385:353|385:353|363:308,1,95.9999970703126,8|8,0:0|0:0,0:0:0:0:
304,240,56259,5,0,1:0:0:0:
284,328,56456,1,8,0:0:0:0:
100,312,56653,6,0,B|160:308|212:268|212:268|184:296|192:340,1,191.999994140625,4|8,1:0|0:0,0:0:0:0:
265,385,56949,2,0,P|296:363|284:328,1,80,0|0,1:0|0:0,0:0:0:0:
211,267,57147,1,0,1:0:0:0:
211,267,57246,2,0,P|240:240|300:240,1,80,8|0,0:0|0:0,0:0:0:0:
428,304,57443,6,0,B|408:333|413:358|413:358|344:310|371:221,1,191.999994140625,0|8,1:0|0:0,0:0:0:0:
476,153,57739,1,0,0:0:0:0:
476,153,57838,2,0,P|475:192|452:224,1,80,0|0,1:0|0:0,0:0:0:0:
320,168,58035,2,0,P|368:152|416:172,1,80,8|0,0:0|0:0,0:0:0:0:
357,327,58232,102,0,P|376:286|366:242,1,92.0000017547608,2|0,1:2|0:0,0:0:0:0:
224,200,58430,2,0,P|263:225|277:273,1,92.0000017547608,10|0,0:0|0:0,0:0:0:0:
164,376,58627,102,0,P|190:332|181:282,1,103.999995239258,2|0,0:0|1:0,0:0:0:0:
24,232,58824,2,0,P|67:258|87:305,1,103.999995239258,10|0,0:0|0:0,0:0:0:0:
224,200,59022,1,0,1:0:0:0:
224,200,59121,1,0,0:0:0:0:
224,200,59219,6,0,P|232:176|172:216,1,191.999994140625,12|0,0:0|0:0,0:0:0:0:
181,282,59515,1,0,0:0:0:0:
181,282,59614,2,0,P|220:280|268:308,1,80,8|0,0:0|0:0,0:0:0:0:
424,288,59811,6,0,B|440:272|472:272|472:272|452:360|348:352,1,191.999994140625,0|8,1:0|0:0,0:0:0:0:
284,220,60107,2,0,B|336:232|388:200|388:200|336:232|336:296,1,191.999994140625,0|0,1:0|1:0,0:0:0:0:
292,336,60403,2,0,P|256:334|256:297,1,80,8|0,0:0|0:0,0:0:0:0:
316,132,60601,102,0,P|264:124|220:156,1,95.9999970703126,2|0,1:2|0:0,0:0:0:0:
64,76,60798,2,0,P|116:84|160:52,1,95.9999970703126,10|0,0:0|0:0,0:0:0:0:
277,111,60996,102,0,P|247:120|228:145,1,64,2|0,0:0|0:0,0:0:0:0:
101,96,61193,2,0,P|131:87|150:62,1,64,10|0,0:0|0:0,0:0:0:0:
144,184,61390,6,0,B|100:224|36:224|36:224|96:240|112:304,1,191.999994140625,14|0,0:0|0:0,0:0:0:0:
196,272,61686,6,0,B|240:260|260:220|260:220|256:268|284:288,1,143.999995605469,8|4,0:3|0:3,0:0:0:0:
140,348,62180,6,0,B|112:360|92:356|92:356|112:364|124:380,1,80,4|0,0:3|0:0,0:0:0:0:
260,368,62377,6,0,B|344:364|356:340|344:288|388:248|456:256|492:368|364:364,1,300.000011444092,4|0,1:0|0:0,0:0:0:0:
272,276,62969,6,0,B|288:246|268:218|268:218|260:194|284:158,1,120,4|2,1:1|1:2,0:0:0:0:
280,162,63561,1,2,0:0:0:0:
72,240,63759,6,0,B|102:224|130:244|130:244|154:252|190:228,1,120,2|2,1:3|1:3,0:0:0:0:
185,231,64351,1,0,0:0:0:0:
192,220,64449,1,0,0:0:0:0:
196,208,64548,6,0,P|240:224|240:304,1,120,2|2,1:2|1:2,0:0:0:0:
250,290,65140,1,2,0:0:0:0:
168,128,65338,6,0,P|124:112|124:32,1,120,2|2,1:3|1:3,0:0:0:0:
113,45,65930,1,0,0:0:0:0:
16,248,66127,6,0,B|64:256|112:228|112:228|72:248|64:292,1,167.999994873047,2|2,1:2|1:2,0:0:0:0:
67,277,66719,1,2,0:0:0:0:
212,340,66917,6,0,B|164:332|116:360|116:360|156:340|164:296,1,167.999994873047,2|2,1:2|1:2,0:0:0:0:
161,311,67509,1,0,0:0:0:0:
332,196,67706,6,0,P|412:228|484:180,2,167.999994873047,2|2|2,1:2|1:2|0:0,0:0:0:0:
356,32,68496,2,0,B|428:0|428:0|404:48,1,111.999996582031,2|0,1:2|0:0,0:0:0:0:
392,104,68792,6,0,L|400:144,4,27.9999991455078,2|0|0|0|0,1:3|0:0|0:0|0:0|0:0,0:0:0:0:
248,200,69088,85,8,0:0:0:0:
276,120,69186,1,8,0:0:0:0:
216,52,69285,6,0,B|176:88|180:136|180:136|132:96|64:128,1,191.999994140625,4|8,1:0|0:0,0:0:0:0:
16,256,69581,2,0,B|52:248|88:272|88:272|88:224|124:200,1,151.999995941162,0|0,1:0|1:0,0:0:0:0:
244,292,69877,2,0,B|224:292|208:300|208:300|200:280|164:264,1,75.9999979705811,8|0,0:0|0:0,0:0:0:0:
387,222,70074,102,0,P|407:266|395:314,1,75.9999979705811,0|0,1:0|0:0,0:0:0:0:
244,292,70272,1,8,0:0:0:0:
244,292,70371,2,0,L|328:276,1,75.9999979705811,0|0,1:0|0:0,0:0:0:0:
461,236,70568,1,0,1:0:0:0:
461,236,70667,2,0,L|387:222,1,75.9999979705811,8|0,0:0|0:0,0:0:0:0:
296,64,70864,6,0,B|324:120|308:192|308:192|320:156|380:116,1,191.999994140625,0|8,1:0|0:0,0:0:0:0:
440,128,71160,2,0,B|416:84|424:32|424:32|412:56|360:88,1,151.999995941162,0|0,1:0|1:0,0:0:0:0:
343,143,71456,2,0,P|316:156|256:144,1,75.9999979705811,8|0,0:0|0:0,0:0:0:0:
144,36,71653,102,0,P|176:80|172:144,1,95.9999970703126,0|0,1:0|0:0,0:0:0:0:
76,156,71851,2,0,P|44:112|48:48,1,95.9999970703126,10|0,0:0|0:0,0:0:0:0:
206,49,72048,6,0,P|203:88|179:119,1,80,2|0,1:2|0:0,0:0:0:0:
76,156,72246,2,0,P|36:154|4:130,1,80,10|0,0:0|0:0,0:0:0:0:
112,336,72443,6,0,B|144:200|144:200|148:252|168:264,1,207.999990478516,4|8,1:2|0:0,0:0:0:0:
248,280,72739,2,0,B|224:380|224:380|216:344|192:320,1,151.999995941162,0|0,1:0|1:0,0:0:0:0:
228,204,73035,2,0,P|264:200|308:236,1,75.9999979705811,8|0,0:0|0:0,0:0:0:0:
500,280,73232,101,0,1:0:0:0:
432,244,73331,5,0,0:0:0:0:
372,256,73430,5,10,0:0:0:0:
344,292,73528,5,0,0:0:0:0:
340,324,73627,6,0,L|420:308,1,75.9999979705811,10|0,0:0|0:0,0:0:0:0:
464,160,73824,2,0,L|389:174,1,75.9999979705811,10|0,0:0|0:0,0:0:0:0:
208,144,74022,6,0,B|232:88|352:84|352:84|304:104|284:168,1,240.000009155274,8|0,0:0|0:0,0:0:0:0:
172,240,74318,1,0,1:0:0:0:
172,240,74417,6,0,B|111:247|48:145|48:145|89:176|154:162,1,240.000009155274,8|0,0:0|0:0,0:0:0:0:
284,216,74713,1,0,1:0:0:0:
284,216,74811,6,0,B|320:264|263:370|263:370|272:328|240:296,1,240,2|0,0:0|0:0,0:0:0:0:
96,360,75502,1,2,0:0:0:0:
48,292,75601,6,0,B|192:228|192:228|144:276|156:352,1,240.000009155274,8|8,1:0|0:0,0:0:0:0:
356,352,75897,2,0,P|440:352|368:276,1,240.000009155274,0|0,1:0|1:0,0:0:0:0:
244,300,76193,2,0,P|276:300|304:280,1,55.9999982910157,8|0,0:0|0:0,0:0:0:0:
292,96,76390,6,0,B|260:60|220:52|220:52|276:144|248:232,1,256,4|8,1:2|0:0,0:0:0:0:
72,352,76686,2,0,B|52:308|20:292|20:292|72:292|144:256|144:256|116:280|124:328,1,256,0|0,1:0|1:0,0:0:0:0:
168,360,76982,2,0,P|196:336|200:312,1,55.9999982910157,8|0,0:0|0:0,0:0:0:0:
88,84,77180,6,0,B|92:24|-4:40|-8:136|120:192|196:80,1,264.0000025177,4|8,1:2|0:0,0:0:0:0:
272,260,77476,2,0,B|244:260|216:292|216:292|248:224|252:148|252:148|232:184|180:192,1,264.0000025177,0|0,1:0|1:0,0:0:0:0:
292,348,77772,2,0,P|324:340|348:308,1,55.9999982910157,8|0,0:0|0:0,0:0:0:0:
512,260,77969,6,0,P|468:236|420:240,1,80,0|0,1:0|0:0,0:0:0:0:
276,120,78167,2,0,P|320:144|368:140,1,80,10|0,3:2|1:0,0:0:0:0:
340,324,78364,6,0,B|340:300|352:284|352:284|356:260|332:216,1,95.9999970703126,2|0,3:2|1:0,0:0:0:0:
448,52,78561,2,0,B|448:76|436:92|436:92|432:116|456:160,1,95.9999970703126,8|0,0:0|0:0,0:0:0:0:
224,224,78759,6,0,B|212:184|180:164|180:164|196:124|164:84|164:84|200:80|236:12,1,240.000009155274,4|8,1:0|0:0,0:0:0:0:
116,329,79055,2,0,P|45:262|140:244,1,240.000009155274,0|0,1:0|1:0,0:0:0:0:
254,308,79351,2,0,P|227:316|200:312,1,55.9999982910157,8|0,0:0|0:0,0:0:0:0:
90,143,79548,6,0,B|132:140|168:160|168:160|178:139|242:135|242:135|206:171|223:223,1,256,4|8,1:2|0:0,0:0:0:0:
372,317,79844,2,0,B|424:340|424:340|428:228|312:196,1,256,0|0,1:0|1:0,0:0:0:0:
254,308,80140,2,0,P|284:296|304:264,1,55.9999982910157,8|0,0:0|0:0,0:0:0:0:
90,143,80338,102,0,L|116:232,1,80,0|0,1:0|0:0,0:0:0:0:
223,223,80535,2,0,L|200:146,1,80,8|0,0:0|1:0,0:0:0:0:
21,251,80732,6,0,L|125:215,1,95.9999970703126,0|0,0:0|1:0,0:0:0:0:
313,191,80930,2,0,L|222:222,1,95.9999970703126,12|0,0:0|0:0,0:0:0:0:
116,324,81127,1,0,0:0:0:0:
116,324,81226,1,0,0:0:0:0:
116,324,81324,38,0,P|160:340|152:296,1,95.9999970703126,10|0,0:2|1:0,0:0:0:0:
222,222,81522,2,0,P|256:192|232:140,1,103.999995239258,10|0,0:2|1:0,0:0:0:0:
156,80,81719,2,0,P|140:36|68:16,1,111.999996582031,10|0,0:0|0:0,0:0:0:0:
37,211,81917,6,0,B|73:211|109:247|109:247|49:175|81:83,1,240.000009155274,4|8,1:0|0:0,0:0:0:0:
272,124,82213,2,0,P|233:197|188:92,1,240.000009155274,0|0,1:0|1:0,0:0:0:0:
236,44,82509,2,0,P|264:36|308:48,1,55.9999982910157,8|0,0:0|0:0,0:0:0:0:
360,240,82706,6,0,B|344:120|472:116|472:116|448:148|452:184,1,256,4|8,1:2|0:0,0:0:0:0:
284,316,83002,2,0,B|356:312|396:368|396:368|404:280|488:260,1,256,0|0,1:0|0:0,0:0:0:0:
220,372,83298,2,0,P|200:336|204:308,1,55.9999982910157,8|0,0:0|0:0,0:0:0:0:
196,80,83496,6,0,B|184:128|204:156|204:156|244:184|248:248|248:248|204:220|140:252,1,264.0000025177,4|8,1:2|0:0,0:0:0:0:
74,364,83792,2,0,B|16:372|16:372|80:284|200:322,1,264.0000025177,0|0,1:0|0:0,0:0:0:0:
274,369,84088,2,0,P|286:337|274:297,1,55.9999982910157,8|0,0:0|0:0,0:0:0:0:
280,116,84285,6,0,P|252:140|180:136,1,80,2|0,1:2|0:0,0:0:0:0:
140,212,84482,2,0,P|100:217|70:242,1,80,10|0,0:0|1:0,0:0:0:0:
40,112,84680,6,0,P|72:104|144:140,1,95.9999970703126,2|0,0:0|1:0,0:0:0:0:
228,224,84877,2,0,P|271:243|317:236,1,95.9999970703126,10|0,0:0|0:0,0:0:0:0:
292,72,85074,6,0,L|280:184,1,80,4|0,1:0|0:0,0:0:0:0:
218,319,85272,1,8,0:0:0:0:
218,319,85371,2,0,L|227:223,1,95.9999970703126,0|0,1:0|0:0,0:0:0:0:
168,32,85568,1,0,1:0:0:0:
168,32,85667,2,0,L|156:156,1,111.999996582031,8|0,0:0|0:0,0:0:0:0:
68,240,85864,6,0,P|104:244|148:224,1,80,4|0,1:0|0:0,0:0:0:0:
332,116,86061,1,8,0:0:0:0:
332,116,86160,2,0,P|292:136|236:124,1,95.9999970703126,0|0,1:0|0:0,0:0:0:0:
65,46,86357,1,8,0:0:0:0:
65,46,86456,2,0,P|122:57|177:18,1,111.999996582031,0|0,1:0|0:0,0:0:0:0:
242,128,86653,6,0,L|256:216,1,80,4|8,1:2|0:0,0:0:0:0:
424,240,86851,1,0,0:0:0:0:
424,240,86949,1,0,1:0:0:0:
424,240,87048,1,8,0:0:0:0:
424,240,87147,1,0,0:0:0:0:
424,240,87246,6,0,P|388:212|328:216,1,95.9999970703126,10|0,0:0|0:0,0:0:0:0:
92,360,87443,2,0,P|134:342|160:288,1,95.9999970703126,2|0,1:2|1:0,0:0:0:0:
152,12,87640,2,0,P|145:57|179:107,1,95.9999970703126,2|0,0:0|1:0,0:0:0:0:
339,211,87838,5,8,0:3:0:0:
260,180,87936,1,8,0:3:0:0:
172,184,88035,1,8,0:0:0:0:
100,232,88134,1,8,0:0:0:0:
52,304,88232,6,0,B|56:356|128:356|128:356|168:280|72:208,1,240.000009155274,8|8,1:0|0:0,0:0:0:0:
160,60,88528,2,0,B|172:32|196:20|196:20|76:32|88:168,1,240.000009155274,0|0,1:0|0:0,0:0:0:0:
192,144,88824,2,0,P|215:131|236:104,1,55.9999982910157,8|0,0:0|0:0,0:0:0:0:
464,256,89022,6,0,B|432:292|384:280|384:280|320:296|328:360|328:360|360:332|404:340,1,256,4|8,1:2|0:0,0:0:0:0:
344,116,89318,2,0,B|384:84|416:44|416:44|376:128|408:208,1,256,0|0,1:0|0:0,0:0:0:0:
312,196,89614,2,0,P|284:184|268:152,1,55.9999982910157,8|0,0:0|0:0,0:0:0:0:
24,84,89811,6,0,B|56:20|168:24|168:120|168:120|120:100|72:140,1,264.0000025177,4|8,1:2|0:0,0:0:0:0:
116,304,90107,2,0,B|112:328|96:356|96:356|128:340|164:336|164:336|132:280|136:180,1,264.0000025177,0|0,1:0|0:0,0:0:0:0:
44,186,90403,2,0,P|40:213|48:240,1,55.9999982910157,8|0,0:0|0:0,0:0:0:0:
240,220,90601,6,0,B|272:200|304:200|304:200|288:232,1,80,0|0,1:0|0:0,0:0:0:0:
464,252,90798,2,0,B|432:272|400:272|400:272|416:240,1,80,10|0,3:2|1:0,0:0:0:0:
308,372,90996,6,0,B|316:336|296:300|296:300|316:316|332:316,1,95.9999970703126,2|0,3:2|1:0,0:0:0:0:
392,88,91193,2,0,B|384:124|404:160|404:160|384:144|368:144,1,95.9999970703126,8|0,0:0|0:0,0:0:0:0:
148,156,91390,6,0,B|68:84|120:12|120:12|180:24|156:80,1,240.000009155274,4|8,1:0|0:0,0:0:0:0:
136,248,91686,2,0,B|208:252|240:196|240:196|268:268|336:280,1,240.000009155274,0|0,1:0|0:0,0:0:0:0:
228,372,91982,2,0,P|220:332|236:300,1,55.9999982910157,8|0,0:0|0:0,0:0:0:0:
340,172,92180,6,0,B|420:100|376:20|376:20|308:40|332:96,1,256,4|8,1:2|0:0,0:0:0:0:
360,260,92476,2,0,B|288:272|252:216|252:216|216:288|132:276,1,256,0|0,1:0|0:0,0:0:0:0:
260,384,92772,2,0,P|268:344|252:312,1,55.9999982910157,8|0,0:0|0:0,0:0:0:0:
162,181,92969,6,0,P|121:182|76:212,1,80,0|0,1:0|0:0,0:0:0:0:
70,296,93167,2,0,P|109:294|145:276,1,80,8|0,0:0|1:0,0:0:0:0:
143,86,93364,102,0,L|162:181,1,95.9999970703126,0|0,0:0|1:0,0:0:0:0:
163,371,93561,2,0,L|144:276,1,95.9999970703126,4|0,1:2|0:0,0:0:0:0:
28,136,93759,1,0,0:0:0:0:
28,136,93857,1,0,0:0:0:0:
28,136,93956,6,0,P|44:176|64:136,1,95.9999970703126,10|0,0:2|0:0,0:0:0:0:
162,181,94153,2,0,P|192:228|244:212,1,103.999995239258,10|0,0:2|0:0,0:0:0:0:
304,292,94351,2,0,P|320:344|392:360,1,111.999996582031,8|0,0:0|0:0,0:0:0:0:
456,192,94548,6,0,B|420:124|420:124|384:288,1,240.000009155274,4|8,1:0|0:0,0:0:0:0:
216,312,94844,2,0,B|200:244|224:212|276:208|276:208|248:216|228:256,1,191.999994140625,0|0,1:0|1:0,0:0:0:0:
292,367,95140,2,0,P|308:331|304:292,1,80,8|0,0:0|0:0,0:0:0:0:
280,128,95338,6,0,B|168:88|152:224|20:116,1,256,4|8,1:2|0:0,0:0:0:0:
216,312,95634,2,0,B|256:324|256:324|236:212|236:212|192:264,1,207.999990478516,0|0,1:0|1:0,0:0:0:0:
132,312,95930,2,0,P|128:335|168:384,1,80,8|0,0:0|0:0,0:0:0:0:
492,316,96127,6,0,B|428:372|352:356|352:356|368:320|356:276|356:276|376:300|412:296,1,272.000005187988,4|8,1:0|0:0,0:0:0:0:
132,312,96423,2,0,B|192:320|208:380|208:380|224:320|304:300,1,207.999990478516,0|0,1:0|1:0,0:0:0:0:
60,372,96719,2,0,P|40:336|44:293,1,80,8|0,0:0|0:0,0:0:0:0:
192,120,96917,6,0,B|280:88|288:156|356:136|356:136|304:100|320:32,1,272.000005187988,4|8,1:2|0:0,0:0:0:0:
484,56,97213,6,0,P|452:48|400:68,1,80,0|0,1:0|0:0,0:0:0:0:
408,61,97410,2,0,P|440:69|492:49,1,80,0|8,1:0|0:0,0:0:0:0:
317,48,97607,1,0,0:0:0:0:
317,48,97706,6,0,P|284:36|328:92,1,207.999990478516,0|8,1:0|0:0,0:0:0:0:
400,152,98002,1,0,1:0:0:0:
400,152,98101,2,0,P|372:192|312:200,1,80,0|0,0:0|1:0,0:0:0:0:
232,204,98298,2,0,P|196:187|176:153,1,80,8|0,0:0|0:0,0:0:0:0:
120,32,98496,5,0,1:0:0:0:
68,68,98594,1,8,0:0:0:0:
52,132,98693,1,0,0:0:0:0:
80,188,98792,1,0,1:0:0:0:
160,252,98890,5,8,0:0:0:0:
164,292,98989,1,8,0:3:0:0:
148,328,99088,1,4,0:3:0:0:
112,348,99186,1,0,1:0:0:0:
0,292,99285,6,0,L|88:260,1,80,12|0,0:0|0:0,0:0:0:0:
160,252,99482,2,0,L|235:224,1,80,12|0,0:0|0:0,0:0:0:0:
324,216,99680,2,0,L|399:188,1,80,4|0,0:1|0:0,0:0:0:0:
399,188,100074,6,0,P|340:235|355:310,1,160,4|0,0:3|1:0,0:0:0:0:
440,352,100371,1,4,0:3:0:0:
508,300,100469,2,0,P|480:272|441:266,1,80,8|0,0:3|0:0,0:0:0:0:
355,310,100667,2,0,P|327:337|288:343,1,80,8|0,0:3|0:0,0:0:0:0:
264,160,100864,6,0,B|260:128|280:108|280:108|340:180|284:252,1,207.999990478516,4|2,1:0|0:0,0:0:0:0:
196,224,101160,1,8,0:0:0:0:
196,224,101259,2,0,P|156:220|108:252,1,80,0|0,1:0|0:0,0:0:0:0:
160,380,101456,2,0,P|180:332|152:292,1,80,10|0,0:0|0:0,0:0:0:0:
76,88,101653,6,0,B|48:44|48:44|28:100|72:164|152:132,1,207.999990478516,0|0,1:0|0:0,0:0:0:0:
212,116,101949,1,8,0:0:0:0:
212,116,102048,2,0,L|204:24,2,80,0|0|8,1:0|0:0|0:0,0:0:0:0:
220,196,102344,1,0,0:0:0:0:
148,268,102443,6,0,B|212:276|240:312|240:312|272:248|328:240,1,207.999990478516,4|0,1:2|0:0,0:0:0:0:
392,384,102739,1,8,0:0:0:0:
392,384,102838,6,0,P|389:344|358:312,1,80,0|0,1:0|0:0,0:0:0:0:
363,315,103035,6,0,P|330:336|317:374,1,80,8|0,0:0|0:0,0:0:0:0:
317,374,103232,6,0,P|352:391|395:380,1,80,0|0,1:0|0:0,0:0:0:0:
444,180,103430,6,0,B|320:84|420:-40|504:28|496:104|408:104,2,287.999991210938,10|10|8,3:2|3:2|0:3,0:0:0:0:
396,248,103923,1,4,0:3:0:0:
313,243,104022,6,0,B|180:216|180:216|224:232|240:288,1,207.999990478516,4|2,1:0|0:0,0:0:0:0:
296,328,104318,1,8,0:0:0:0:
296,328,104417,2,0,P|252:356|204:352,1,80,0|0,1:0|0:0,0:0:0:0:
128,376,104614,2,0,P|128:336|149:303,1,80,10|0,0:0|0:0,0:0:0:0:
252,96,104811,6,0,B|276:76|292:40|292:40|264:132|364:192,1,207.999990478516,0|0,1:0|0:0,0:0:0:0:
400,64,105107,1,8,0:0:0:0:
400,64,105206,2,0,P|384:64|404:96,2,80,0|0|8,1:0|0:0|0:0,0:0:0:0:
491,110,105502,2,0,P|424:184|327:165,1,207.999990478516,0|0,0:0|0:0,0:0:0:0:
156,176,105798,5,8,1:2:0:0:
240,228,105897,1,0,1:0:0:0:
252,128,105996,1,0,1:0:0:0:
248,344,106193,5,8,0:0:0:0:
248,32,106390,1,0,1:0:0:0:
96,336,106588,6,0,P|136:316|196:328,1,80,10|0,3:2|0:0,0:0:0:0:
248,344,106785,1,10,3:2:0:0:
320,304,106884,1,0,1:0:0:0:
332,224,106982,1,0,1:0:0:0:
272,168,107081,1,0,1:0:0:0:
196,140,107180,6,0,L|412:120,1,207.999990478516,4|2,1:0|0:0,0:0:0:0:
476,68,107476,1,8,0:0:0:0:
476,68,107574,2,0,P|496:116|472:172,1,80,0|0,1:0|0:0,0:0:0:0:
504,232,107772,2,0,P|452:225|415:176,1,80,10|0,0:0|0:0,0:0:0:0:
216,212,107969,6,0,B|276:240|292:284|260:340|260:340|256:308|216:288,1,207.999990478516,0|0,1:0|0:0,0:0:0:0:
108,360,108265,1,8,0:0:0:0:
108,360,108364,2,0,B|148:380|148:380|204:344,2,80,0|0|8,1:0|0:0|0:0,0:0:0:0:
144,280,108660,1,0,0:0:0:0:
216,212,108759,102,0,P|248:200|220:292,1,207.999990478516,4|0,1:2|0:0,0:0:0:0:
264,120,109055,1,8,0:0:0:0:
264,120,109153,2,0,P|296:124|356:176,1,80,0|0,1:0|0:0,0:0:0:0:
424,128,109351,2,0,P|447:96|482:76,1,80,8|0,0:0|0:0,0:0:0:0:
408,288,109548,2,0,L|395:209,1,80,0|0,1:0|0:0,0:0:0:0:
276,32,109746,6,0,P|220:40|192:68,1,80,10|0,3:2|0:0,0:0:0:0:
112,196,109943,1,10,3:2:0:0:
120,244,110042,1,0,0:0:0:0:
128,292,110140,2,0,L|136:352,2,47.9999985351563,8|4|0,0:3|0:3|1:0,0:0:0:0:
20,96,110535,101,8,0:0:0:0:
68,124,110633,1,0,0:0:0:0:
124,112,110732,1,0,0:0:0:0:
172,144,110831,1,0,1:0:0:0:
224,128,110929,1,8,0:0:0:0:
20,96,111127,5,0,1:0:0:0:
44,164,111225,1,0,0:0:0:0:
108,196,111324,1,8,0:0:0:0:
180,184,111423,1,0,1:0:0:0:
224,128,111521,1,0,0:0:0:0:
132,32,111719,102,0,L|136:0,2,31.9999990234375,8|0|0,0:0|0:0|0:0,0:0:0:0:
20,96,111916,21,12,0:0:0:0:
88,108,112015,1,0,0:0:0:0:
156,116,112114,1,0,0:0:0:0:
224,128,112212,1,12,0:0:0:0:
292,140,112311,6,0,P|288:88|304:56,1,80,0|0,0:0|1:0,0:0:0:0:
492,156,112508,2,0,P|458:196|424:207,1,80,8|0,0:0|0:0,0:0:0:0:
400,104,112706,1,0,1:0:0:0:
400,104,112903,6,0,L|384:276,1,160,4|0,1:0|0:0,0:0:0:0:
168,287,113495,6,0,P|131:300|108:332,1,80,6|0,0:0|0:0,0:0:0:0:
250,275,113890,2,0,P|214:257|176:264,1,80,2|0,0:0|0:0,0:0:0:0:
316,328,114285,2,0,P|303:291|272:268,1,80,2|0,0:0|0:0,0:0:0:0:
212,352,114680,1,2,0:0:0:0:
212,352,114877,1,0,0:0:0:0:
64,260,115074,6,0,L|72:232,1,20,2|0,0:0|0:0,0:0:0:0:
48,256,115272,2,0,L|56:228,1,20,0|0,0:0|0:0,0:0:0:0:
168,160,115469,6,0,L|160:132,1,20,2|0,0:0|0:0,0:0:0:0:
184,156,115667,2,0,L|176:128,1,20,0|0,0:0|0:0,0:0:0:0:
52,72,115864,6,0,L|60:44,1,20,2|0,0:0|0:0,0:0:0:0:
36,68,116062,2,0,L|44:40,1,20,0|0,0:0|0:0,0:0:0:0:
184,32,116259,5,2,0:0:0:0:
52,156,116457,1,0,0:0:0:0:
192,264,116653,6,0,B|264:220|292:296|352:248,1,160,2|2,0:0|0:0,0:0:0:0:
240,336,117246,1,0,0:0:0:0:
424,288,117443,2,0,P|432:244|416:208,1,80,2|0,0:0|0:0,0:0:0:0:
336,200,117739,1,0,0:0:0:0:
337,213,117838,2,0,L|345:257,2,40,2|0|0,0:0|0:0|0:0,0:0:0:0:
320,84,118232,5,2,0:0:0:0:
320,84,118331,1,0,0:0:0:0:
320,84,118430,1,0,0:0:0:0:
176,156,118627,1,2,0:0:0:0:
244,56,118824,6,0,B|220:136|284:112|244:204,1,128,0|2,0:0|0:0,0:0:0:0:
240,256,119121,1,0,0:0:0:0:
240,256,119219,1,0,0:0:0:0:
176,156,119417,5,2,0:0:0:0:
324,208,119614,1,0,0:0:0:0:
104,212,119812,6,0,P|88:180|92:128,1,80,2|0,0:0|0:0,0:0:0:0:
200,248,120206,2,0,P|216:280|212:332,1,80,2|0,0:0|0:0,0:0:0:0:
48,320,120601,2,0,L|136:296,1,80,2|0,0:0|0:0,0:0:0:0:
300,252,120996,1,2,0:0:0:0:
300,252,121193,1,0,0:0:0:0:
215,323,121391,5,2,0:0:0:0:
232,192,121588,1,0,0:0:0:0:
124,224,121786,1,2,0:0:0:0:
171,127,121983,1,0,0:0:0:0:
80,128,122180,2,0,L|36:148,1,40,2|0,0:0|0:0,0:0:0:0:
43,144,122377,6,0,P|104:164|176:120,1,143.999995605469,0|0,0:0|0:0,0:0:0:0:
96,44,122772,1,0,0:0:0:0:
296,108,122969,6,0,B|280:132|280:132|240:64|304:16,1,160,2|2,0:0|0:0,0:0:0:0:
376,72,123562,1,0,0:0:0:0:
224,192,123759,101,2,0:0:0:0:
240,288,123957,1,0,0:0:0:0:
416,348,124153,5,2,0:0:0:0:
432,252,124351,1,0,0:0:0:0:
240,288,124548,1,0,0:0:0:0:
240,288,124647,1,0,0:0:0:0:
240,288,124746,54,0,L|184:300,2,48.048048048048,8|4|0,0:3|0:3|0:0,0:0:0:0:
104,184,125338,6,0,L|120:268,2,80,0|0|4,1:0|1:0|0:3,0:0:0:0:
12,52,125634,101,8,0:3:0:0:
32,76,125733,1,8,0:0:0:0:
64,96,125831,1,8,0:3:0:0:
112,100,125930,1,4,0:3:0:0:
164,80,126028,1,0,1:0:0:0:
196,28,126127,70,0,B|244:32|280:68|280:68|320:24|368:32,1,160,4|0,1:0|0:0,0:0:0:0:
408,136,126423,1,8,0:0:0:0:
408,136,126522,6,0,L|362:119,1,47.9999985351563,0|0,1:0|1:0,0:0:0:0:
428,44,126719,2,0,L|473:58,1,47.9999985351563,8|0,0:0|0:0,0:0:0:0:
288,152,126917,70,0,B|240:156|204:192|204:192|164:148|116:156,1,160,0|0,1:0|0:0,0:0:0:0:
76,260,127213,1,8,0:0:0:0:
76,260,127312,6,0,L|121:243,1,47.9999985351563,0|0,1:0|1:0,0:0:0:0:
56,168,127509,2,0,L|10:182,1,47.9999985351563,8|0,0:0|0:0,0:0:0:0:
208,268,127706,70,0,B|256:272|292:308|292:308|332:264|380:272,1,160,0|0,1:0|0:0,0:0:0:0:
420,376,128002,1,8,0:0:0:0:
420,376,128101,6,0,L|374:359,1,47.9999985351563,0|0,1:0|1:0,0:0:0:0:
440,284,128298,2,0,L|485:298,1,47.9999985351563,8|0,0:0|0:0,0:0:0:0:
260,272,128496,6,0,B|268:232|268:232|304:280,1,80,12|0,0:0|0:0,0:0:0:0:
260,272,129285,38,0,B|192:308|176:224|76:280,1,160,0|0,1:0|0:0,0:0:0:0:
93,353,129581,1,8,0:0:0:0:
93,353,129680,6,0,P|117:355|140:348,1,47.9999985351563,0|0,1:0|1:0,0:0:0:0:
256,319,129877,2,0,L|260:267,1,47.9999985351563,8|0,0:0|0:0,0:0:0:0:
142,197,130074,38,0,B|207:232|220:156|300:188,1,160,0|0,1:0|0:0,0:0:0:0:
306,277,130370,1,8,0:0:0:0:
305,277,130469,6,0,P|281:278|258:271,1,47.9999985351563,0|0,1:0|1:0,0:0:0:0:
143,243,130666,2,0,L|139:191,1,47.9999985351563,8|0,0:0|0:0,0:0:0:0:
259,119,130864,38,0,B|191:155|175:71|75:127,1,160,0|0,1:0|0:0,0:0:0:0:
92,200,131160,1,8,0:0:0:0:
93,201,131259,6,0,P|116:202|139:195,1,47.9999985351563,0|0,1:0|1:0,0:0:0:0:
255,166,131456,2,0,L|259:114,1,47.9999985351563,8|0,0:0|0:0,0:0:0:0:
492,36,131653,6,0,B|520:92|520:92|464:152,1,120.000004577637,0|0,1:0|0:0,0:0:0:0:
352,100,131851,6,0,B|332:68|332:68|371:26,1,80,12|0,0:0|0:0,0:0:0:0:
352,260,132443,6,0,B|360:224|312:188|228:300|336:344|356:368,1,191.999994140625,4|8,1:2|0:0,0:0:0:0:
440,248,132739,2,0,P|436:216|408:176,1,80,0|0,0:0|0:0,0:0:0:0:
424,328,132936,1,0,1:0:0:0:
424,328,133035,2,0,P|468:328|508:300,1,80,8|0,0:0|0:0,0:0:0:0:
264,248,133232,6,0,B|204:264|144:216|144:216|164:252|156:288,1,191.999994140625,0|8,1:0|0:0,0:0:0:0:
216,344,133528,1,0,0:0:0:0:
216,344,133627,2,0,P|180:364|132:360,1,80,0|0,1:0|0:0,0:0:0:0:
4,288,133824,2,0,P|40:268|88:272,1,80,8|0,0:0|0:0,0:0:0:0:
264,248,134022,102,0,P|304:272|324:324,1,80,2|0,1:2|0:0,0:0:0:0:
322,177,134219,2,0,P|287:158|248:160,1,80,10|0,0:0|0:0,0:0:0:0:
465,169,134417,102,0,P|423:190|400:232,1,95.9999970703126,2|0,0:0|0:0,0:0:0:0:
404,96,134614,2,0,P|444:72|492:74,1,95.9999970703126,10|0,0:0|0:0,0:0:0:0:
322,177,134811,1,0,1:0:0:0:
322,177,134910,1,0,0:0:0:0:
322,177,135009,6,0,P|264:176|328:124,1,191.999994140625,12|0,0:0|0:0,0:0:0:0:
340,264,135305,1,0,0:0:0:0:
340,264,135403,2,0,P|304:276|256:264,1,80,8|0,0:0|0:0,0:0:0:0:
64,76,135601,6,0,B|56:28|56:28|-12:96|44:164,1,191.999994140625,0|8,1:0|0:0,0:0:0:0:
200,20,135897,2,0,B|224:32|224:32|172:56|152:100|152:100|160:68|132:4,1,191.999994140625,0|0,1:2|1:0,0:0:0:0:
224,156,136193,2,0,P|256:108|292:116,1,80,8|0,0:0|0:0,0:0:0:0:
512,144,136390,102,0,P|470:166|424:157,1,95.9999970703126,2|0,1:2|0:0,0:0:0:0:
348,104,136588,2,0,P|383:73|430:71,1,95.9999970703126,10|0,0:0|0:0,0:0:0:0:
479,209,136785,6,0,P|443:189|423:153,1,80,2|0,0:0|0:0,0:0:0:0:
374,18,136982,2,0,P|409:37|430:71,1,80,8|0,0:0|0:0,0:0:0:0:
256,88,137180,6,0,B|128:68|128:68|188:120,1,191.999994140625,0|0,1:0|0:0,0:0:0:0:
256,176,137476,6,0,B|348:160|348:160|312:208,1,143.999995605469,8|0,0:0|1:0,0:0:0:0:
256,268,137969,6,0,B|204:260|204:260|224:284,1,80,0|0,1:0|0:0,0:0:0:0:
256,360,138167,6,0,B|408:308|408:308|348:384,1,239.999992675781,4|0,1:0|0:0,0:0:0:0:
312,252,138759,6,0,B|328:222|308:194|308:194|300:170|324:134,1,120,4|2,1:1|1:2,0:0:0:0:
320,138,139351,1,2,0:0:0:0:
472,32,139548,6,0,B|456:62|476:90|476:90|484:114|460:150,1,120,2|2,1:3|1:3,0:0:0:0:
463,145,140140,1,0,0:0:0:0:
320,138,140338,6,0,P|276:122|276:42,1,120,2|2,1:2|1:2,0:0:0:0:
265,55,140930,1,2,0:0:0:0:
344,256,141127,6,0,P|388:272|388:352,1,120,2|2,1:3|1:3,0:0:0:0:
399,339,141719,1,0,0:0:0:0:
104,180,141917,6,0,B|56:172|8:200|8:200|48:180|56:136,1,167.999994873047,2|2,1:2|1:2,0:0:0:0:
52,150,142509,1,2,0:0:0:0:
144,96,142706,6,0,B|192:104|240:76|240:76|200:96|192:140,1,167.999994873047,2|2,1:2|1:2,0:0:0:0:
195,125,143298,1,0,0:0:0:0:
452,120,143496,6,0,L|278:153,2,167.999994873047,2|2|2,1:2|1:2|0:0,0:0:0:0:
40,312,144285,2,0,P|96:276|148:288,1,111.999996582031,2|0,1:2|0:0,0:0:0:0:
212,352,144581,6,0,B|208:308|232:276|232:276|200:248|200:192,1,160,2|0,1:3|0:0,0:0:0:0:
428,144,144877,1,8,0:0:0:0:
380,216,144976,1,8,0:0:0:0:
296,200,145074,6,0,B|324:72|324:72|348:148,1,191.999994140625,4|8,1:0|0:0,0:0:0:0:
430,153,145371,2,0,B|400:260|400:260|379:215,1,160,0|0,1:0|1:0,0:0:0:0:
416,72,145667,2,0,P|452:72|496:100,1,80,8|0,0:0|0:0,0:0:0:0:
314,274,145864,2,0,P|294:230|302:182,1,80,0|0,1:0|0:0,0:0:0:0:
232,56,146061,1,10,0:0:0:0:
232,56,146160,2,0,P|252:100|236:152,1,80,0|0,0:0|1:0,0:0:0:0:
56,204,146357,5,4,0:3:0:0:
125,162,146456,1,8,0:3:0:0:
204,192,146555,1,8,0:0:0:0:
204,300,146653,6,0,P|128:348|148:252,1,240,4|0,1:2|0:0,0:0:0:0:
304,280,147048,6,0,P|380:344|356:228,1,287.999991210938,4|0,1:0|0:0,0:0:0:0:
204,192,147443,6,0,P|132:272|152:140,1,335.999989746094,4|0,1:0|0:0,0:0:0:0:
316,144,147838,6,0,P|396:240|368:92,1,384,4|0,1:0|0:0,0:0:0:0:
208,72,148232,6,0,P|136:184|148:24,1,419.999987182618,2|0,0:0|0:0,0:0:0:0:
208,72,149811,6,0,P|300:132|288:40,1,256,12|0,0:0|1:0,0:0:0:0:
492,144,150107,2,0,P|504:60|436:144,1,256,12|0,0:0|1:0,0:0:0:0:
432,208,150403,1,12,0:0:0:0:
248,336,150601,6,0,P|204:308|136:324,1,103.999995239258,4|0,1:2|0:0,0:0:0:0:
4,148,150798,2,0,P|48:176|116:160,1,103.999995239258,0|8,0:0|0:0,0:0:0:0:
256,40,150996,5,0,0:0:0:0:
300,108,151094,1,0,1:0:0:0:
316,188,151193,1,8,0:0:0:0:
304,272,151292,1,0,0:0:0:0:
248,336,151390,6,0,B|224:296|176:280|176:280|124:312|120:348|120:348|152:320|192:336,1,240.000009155274,8|8,1:0|0:0,0:0:0:0:
408,276,151686,2,0,B|444:268|504:296|504:296|496:256|512:212|512:212|456:256,1,240.000009155274,0|0,1:0|1:0,0:0:0:0:
332,318,151982,2,0,P|323:291|303:271,1,55.9999982910157,8|0,0:0|0:0,0:0:0:0:
72,196,152180,6,0,B|24:188|24:188|32:224|108:260|180:228|200:112,1,256,4|8,1:2|0:0,0:0:0:0:
380,88,152476,2,0,B|336:112|300:76|300:76|268:120|268:120|244:64|168:68,1,256,0|0,1:0|1:0,0:0:0:0:
90,59,152772,2,0,P|87:87|100:112,1,55.9999982910157,8|0,0:0|0:0,0:0:0:0:
244,336,152969,6,0,B|204:396|268:420|320:388|272:316|208:324|232:208|304:188,1,264.0000025177,4|8,1:2|0:0,0:0:0:0:
432,276,153265,2,0,B|476:280|476:280|420:304|396:356|396:356|384:304|320:264,1,264.0000025177,0|0,1:0|0:0,0:0:0:0:
380,192,153561,2,0,L|456:196,1,55.9999982910157,8|0,0:0|0:0,0:0:0:0:
224,48,153759,6,0,P|208:84|212:140,1,80,0|0,1:0|0:0,0:0:0:0:
254,284,153956,2,0,P|270:248|266:192,1,80,10|0,3:2|1:0,0:0:0:0:
72,248,154153,6,0,B|100:252|112:236|112:236|144:216|184:232,1,95.9999970703126,2|0,3:2|1:0,0:0:0:0:
400,80,154351,2,0,B|372:76|360:92|360:92|328:112|288:96,1,95.9999970703126,8|0,0:0|0:0,0:0:0:0:
158,328,154548,6,0,B|152:358|186:380|186:380|234:336|206:248|146:216,1,240.000009155274,4|8,1:0|0:0,0:0:0:0:
80,96,154844,2,0,P|12:104|96:156,1,240.000009155274,0|0,1:0|0:0,0:0:0:0:
168,116,155140,2,0,P|172:92|152:44,1,55.9999982910157,8|0,0:0|0:0,0:0:0:0:
344,264,155338,6,0,B|333:335|333:335|299:289|295:242|295:242|342:238|379:207,1,256,4|8,1:2|0:0,0:0:0:0:
320,84,155634,2,0,B|376:48|376:48|364:136|292:172|240:156,1,256,0|0,1:0|0:0,0:0:0:0:
168,116,155930,2,0,P|208:80|228:80,1,55.9999982910157,8|0,0:0|0:0,0:0:0:0:
116,196,156127,102,0,P|84:164|84:104,1,80,0|0,1:0|0:0,0:0:0:0:
192,264,156324,2,0,P|224:296|224:356,1,80,8|0,0:0|1:0,0:0:0:0:
23,222,156522,6,0,L|135:190,1,95.9999970703126,0|0,0:0|1:0,0:0:0:0:
284,237,156719,2,0,L|191:263,1,95.9999970703126,8|0,0:0|0:0,0:0:0:0:
116,340,156917,1,0,0:0:0:0:
116,340,157015,1,0,0:0:0:0:
116,340,157114,38,0,P|84:312|128:292,1,80,10|0,0:0|1:0,0:0:0:0:
116,196,157311,2,0,P|128:136|172:136,1,95.9999970703126,2|0,0:0|1:0,0:0:0:0:
232,68,157509,2,0,P|280:32|344:48,1,111.999996582031,10|0,0:0|0:0,0:0:0:0:
324,232,157706,6,0,B|268:288|268:288|308:108,1,240.000009155274,4|8,1:0|0:0,0:0:0:0:
485,22,158002,2,0,B|456:48|464:104|464:104|432:112|383:173|383:173|389:130,1,240.000009155274,0|0,1:0|0:0,0:0:0:0:
328,38,158298,2,0,L|396:52,1,55.9999982910157,8|0,0:0|0:0,0:0:0:0:
144,112,158496,6,0,B|124:84|152:60|152:60|240:76|236:156|168:220,1,256,4|8,1:2|0:0,0:0:0:0:
64,376,158792,2,0,B|100:320|92:248|92:248|120:308|216:312,1,256,0|0,1:0|0:0,0:0:0:0:
36,188,159088,2,0,P|68:168|108:172,1,55.9999982910157,8|0,0:0|0:0,0:0:0:0:
280,312,159285,6,0,B|348:300|348:300|400:340|400:340|428:284|428:284|520:264,1,264.0000025177,4|8,1:2|0:0,0:0:0:0:
304,136,159581,2,0,P|372:220|388:108,1,264.0000025177,0|0,1:0|0:0,0:0:0:0:
340,56,159877,2,0,P|312:48|268:64,1,55.9999982910157,8|0,0:0|0:0,0:0:0:0:
80,124,160074,6,0,P|112:140|168:108,1,80,2|0,1:2|0:0,0:0:0:0:
303,135,160272,2,0,P|276:164|238:168,1,80,10|0,0:0|1:0,0:0:0:0:
31,46,160469,6,0,P|44:92|79:123,1,95.9999970703126,2|0,0:0|1:0,0:0:0:0:
156,272,160667,2,0,P|109:262|75:229,1,95.9999970703126,10|0,0:0|0:0,0:0:0:0:
316,348,160864,6,0,L|412:336,1,80,4|0,1:0|0:0,0:0:0:0:
488,228,161061,1,8,0:0:0:0:
488,228,161160,2,0,L|384:240,1,95.9999970703126,0|0,1:0|0:0,0:0:0:0:
276,156,161357,1,0,1:0:0:0:
276,156,161456,2,0,L|392:140,1,111.999996582031,8|0,0:0|0:0,0:0:0:0:
316,348,161653,6,0,P|284:308|292:248,1,80,0|0,1:0|0:0,0:0:0:0:
80,208,161851,1,8,0:0:0:0:
80,208,161949,2,0,P|137:199|185:236,1,95.9999970703126,0|0,1:0|0:0,0:0:0:0:
345,79,162147,1,8,0:0:0:0:
345,79,162246,2,0,P|326:126|263:156,1,111.999996582031,0|0,1:0|0:0,0:0:0:0:
52,104,162443,5,4,1:2:0:0:
60,96,162542,1,8,0:0:0:0:
68,88,162640,1,0,0:0:0:0:
76,80,162739,1,0,1:0:0:0:
84,72,162838,1,8,0:0:0:0:
92,64,162936,1,0,0:0:0:0:
100,56,163035,6,0,P|152:60|184:108,1,95.9999970703126,10|0,0:0|0:0,0:0:0:0:
220,376,163232,2,0,P|197:328|223:277,1,95.9999970703126,2|0,1:2|1:0,0:0:0:0:
436,104,163430,2,0,P|406:147|348:150,1,95.9999970703126,2|0,1:2|1:0,0:0:0:0:
179,90,163627,5,8,0:3:0:0:
256,48,163726,1,8,0:3:0:0:
340,72,163824,1,8,0:0:0:0:
365,155,163923,1,8,0:0:0:0:
324,236,164022,6,0,P|376:320|392:216,1,240.000009155274,8|8,1:0|0:0,0:0:0:0:
184,352,164318,2,0,B|224:340|264:368|264:368|228:324|228:256|228:256|200:288,1,240.000009155274,0|0,1:0|0:0,0:0:0:0:
116,292,164614,2,0,P|96:320|92:352,1,55.9999982910157,8|0,0:0|0:0,0:0:0:0:
324,236,164811,6,0,B|328:176|276:140|276:140|312:112|320:64|320:64|344:92|344:136,1,256,4|8,1:2|0:0,0:0:0:0:
165,58,165107,2,0,B|120:88|136:136|136:136|240:96|246:23,1,256,0|0,1:0|0:0,0:0:0:0:
334,55,165403,2,0,L|341:111,1,55.9999982910157,8|0,0:0|0:0,0:0:0:0:
208,352,165601,6,0,B|144:320|148:208|244:208|244:208|224:256|264:304,1,264.0000025177,4|8,1:2|0:0,0:0:0:0:
416,340,165897,2,0,B|472:321|472:321|434:396|330:389|301:319,1,264.0000025177,0|0,1:0|0:0,0:0:0:0:
320,244,166193,2,0,P|348:252|368:276,1,55.9999982910157,8|0,0:0|0:0,0:0:0:0:
508,168,166390,6,0,P|460:172|416:212,1,80,0|0,1:0|0:0,0:0:0:0:
256,172,166588,2,0,P|304:168|348:128,1,80,10|0,3:2|1:0,0:0:0:0:
464,336,166785,6,0,B|472:304|488:296|488:296|504:268|488:240,1,95.9999970703126,2|0,3:2|1:0,0:0:0:0:
304,0,166982,2,0,B|296:32|280:40|280:40|264:68|280:96,1,95.9999970703126,8|0,0:0|0:0,0:0:0:0:
160,356,167180,6,0,B|132:320|148:280|148:280|124:264|108:220|108:220|52:268|112:312,1,240.000009155274,4|8,1:0|0:0,0:0:0:0:
208,124,167476,2,0,P|240:224|284:144,1,240.000009155274,0|0,1:0|0:0,0:0:0:0:
340,88,167772,2,0,P|312:72|276:76,1,55.9999982910157,8|0,0:0|0:0,0:0:0:0:
336,384,167969,6,0,B|364:348|348:308|348:308|380:284|392:240|392:240|444:284|384:340,1,256,4|8,1:2|0:0,0:0:0:0:
288,154,168265,2,0,P|256:254|212:168,1,256,0|0,1:0|0:0,0:0:0:0:
160,100,168561,2,0,P|188:84|224:88,1,55.9999982910157,8|0,0:0|0:0,0:0:0:0:
312,80,168759,6,0,P|308:119|288:154,1,80,0|0,1:0|0:0,0:0:0:0:
186,243,168956,2,0,P|189:203|210:169,1,80,8|0,0:0|1:0,0:0:0:0:
376,224,169153,6,0,P|340:240|268:236,1,95.9999970703126,0|0,0:0|1:0,0:0:0:0:
119,100,169351,2,0,P|155:84|227:88,1,95.9999970703126,8|0,0:0|0:0,0:0:0:0:
416,40,169548,1,0,0:0:0:0:
416,40,169647,1,0,0:0:0:0:
416,40,169746,6,0,P|416:80|392:60,1,80,10|0,0:0|0:0,0:0:0:0:
304,184,169943,2,0,P|278:145|228:172,1,95.9999970703126,10|0,0:0|0:0,0:0:0:0:
144,24,170140,2,0,P|112:80|64:84,1,111.999996582031,8|0,0:0|0:0,0:0:0:0:
0,248,170338,6,0,B|36:184|88:168|140:184|140:184|108:204|92:244,1,240.000009155274,4|8,1:0|0:0,0:0:0:0:
240,312,170634,2,0,P|208:248|200:328,1,191.999994140625,0|0,1:0|1:0,0:0:0:0:
292,384,170930,2,0,P|324:348|324:300,1,80,8|0,0:0|0:0,0:0:0:0:
352,76,171127,6,0,B|352:48|368:16|368:16|332:24|308:40|308:40|352:96|340:164,1,256,4|8,1:2|0:0,0:0:0:0:
172,124,171423,2,0,P|196:88|196:168,1,191.999994140625,0|0,1:0|0:0,0:0:0:0:
144,204,171719,2,0,P|104:176|96:132,1,80,8|0,0:0|0:0,0:0:0:0:
300,368,171917,6,0,B|340:340|340:296|340:296|400:316|448:276|448:276|476:324|532:336,1,272.000005187988,4|8,1:2|0:0,0:0:0:0:
340,160,172213,2,0,P|364:224|360:144,1,207.999990478516,0|0,1:0|1:0,0:0:0:0:
340,80,172509,2,0,P|296:84|268:124,1,80,8|0,0:0|0:0,0:0:0:0:
252,296,172706,1,4,1:0:0:0:
104,56,172904,6,0,P|96:88|116:140,1,80,8|0,3:2|1:0,0:0:0:0:
109,131,173101,2,0,P|117:99|97:47,1,80,0|0,3:0|1:0,0:0:0:0:
103,55,173299,6,0,B|76:92|76:92|120:144,1,95.9999970703126,8|0,3:2|0:0,0:0:0:0:
108,130,173496,2,0,B|135:93|135:93|91:41,1,95.9999970703126,4|0,3:1|0:0,0:0:0:0:
32,192,173693,1,8,0:0:0:0:
32,192,173792,1,0,1:0:0:0:
32,192,173890,6,0,P|64:224|112:228,1,80,0|0,0:0|1:0,0:0:0:0:
192,188,174088,2,0,P|212:128|196:88,1,80,8|0,0:0|0:0,0:0:0:0:
310,0,174285,5,0,1:0:0:0:
362,36,174384,1,8,0:3:0:0:
378,100,174482,1,4,0:3:0:0:
350,156,174581,1,0,1:0:0:0:
270,220,174680,5,8,0:0:0:0:
266,260,174778,1,8,0:3:0:0:
282,296,174877,1,4,0:3:0:0:
318,316,174976,1,0,1:0:0:0:
440,264,175074,6,0,L|352:232,1,80,12|0,0:0|0:0,0:0:0:0:
270,220,175272,2,0,L|195:192,1,80,12|0,0:0|0:0,0:0:0:0:
108,176,175469,2,0,L|33:148,1,80,4|0,0:1|0:0,0:0:0:0:
33,148,175864,6,0,L|194:100,1,160,8|0,0:0|0:0,0:0:0:0:
360,40,176160,1,0,1:0:0:0:
408,116,176259,6,0,P|360:236|300:96,1,360.000013732911,8|0,0:3|0:0,0:0:0:0:
344,160,176653,6,0,B|180:196|180:196|280:224,1,240.000009155274,4|0,1:0|0:0,0:0:0:0:
328,356,176949,6,0,B|344:248|344:248|288:296,1,160,4|0,1:3|0:0,0:0:0:0:
164,296,177246,6,0,B|226:339|226:339|216:288,1,120.000004577637,4|0,1:0|0:0,0:0:0:0:
32,108,177640,2,0,L|40:168,1,60.0000022888184,8|0,3:0|0:0,0:0:0:0:
40,168,177838,6,0,B|89:172|109:136|109:136|169:160|169:160|184:112|238:97,1,240.000009155274,4|0,1:0|0:0,0:0:0:0:
372,276,178134,6,0,B|360:244|332:240|332:240|320:208|320:208|284:216|256:180,1,160,4|0,1:3|0:0,0:0:0:0:
344,8,178430,6,0,B|328:32|336:48|336:48|324:64|324:64|344:96|312:136,1,120.000004577637,4|0,1:0|0:0,0:0:0:0:
35,354,178824,2,0,L|31:282,1,60.0000022888184,8|8,0:3|0:3,0:0:0:0:
32,295,179022,6,0,B|112:308|192:252|192:252|148:288|163:363,1,240.000009155274,4|0,1:0|0:0,0:0:0:0:
280,344,179318,6,0,P|284:320|268:352,1,120,8|8,0:0|0:0,0:0:0:0:
380,72,179811,6,0,B|360:8|360:8|256:76|332:176,1,240.000009155274,4|0,1:0|0:0,0:0:0:0:
452,232,180107,6,0,B|492:232|492:232|484:160|388:156,1,160,4|0,1:3|0:0,0:0:0:0:
284,240,180403,6,0,B|276:264|276:264|332:288|364:228,1,120.000004577637,4|0,1:0|0:0,0:0:0:0:
191,302,180798,2,0,L|115:314,1,60.0000022888184,8|0,0:3|0:0,0:0:0:0:
132,312,180996,6,0,B|120:348|152:376|152:376|256:308|180:208,1,240.000009155274,4|0,1:0|0:0,0:0:0:0:
64,160,181292,6,0,B|40:144|16:160|16:160|28:224|124:228,1,160,4|0,1:3|0:0,0:0:0:0:
228,144,181588,6,0,B|240:136|236:120|236:120|180:96|148:156,1,120.000004577637,4|0,1:0|0:0,0:0:0:0:
352,296,181982,5,8,0:3:0:0:
432,312,182081,2,0,L|514:331,2,60.0000022888184,8|4|0,0:3|0:3|0:0,0:0:0:0:
380,368,182377,101,8,0:0:0:0:
360,380,182476,1,8,0:3:0:0:
336,376,182574,1,4,0:3:0:0:
316,360,182673,1,4,0:3:0:0:
316,336,182772,1,0,1:0:0:0:
328,316,182871,1,0,1:0:0:0:
352,296,182969,22,0,B|304:328|240:300|240:300|188:292|120:360,1,240.000009155274,4|0,1:0|0:0,0:0:0:0:
80,116,183265,22,0,B|124:136|112:196|112:196|132:232|188:244,1,160,4|0,0:3|0:0,0:0:0:0:
0,360,183561,22,0,B|12:316|44:312|44:312|68:292|60:248,1,120.000004577637,4|0,1:0|0:0,0:0:0:0:
344,110,183956,2,0,L|384:66,1,60.0000022888184,8|0,0:3|0:0,0:0:0:0:
385,67,184153,6,0,P|340:176|308:120,1,240.000009155274,4|0,1:0|0:0,0:0:0:0:
144,136,184449,6,0,P|220:110|208:162,1,160,4|0,1:3|0:0,0:0:0:0:
272,288,184746,6,0,P|228:263|268:227,1,120.000004577637,4|0,1:0|0:0,0:0:0:0:
496,200,185140,2,0,L|484:284,1,60.0000022888184,8|0,0:3|0:0,0:0:0:0:
472,348,185338,37,0,1:0:0:0:
380,272,185469,1,8,0:0:0:0:
316,372,185601,1,8,0:0:0:0:
440,296,185732,5,8,0:0:0:0:
396,364,185864,1,8,0:0:0:0:
332,312,185996,1,8,0:0:0:0:
376,248,186127,70,0,B|348:176|412:100|412:100|376:136|304:144,1,240.000009155274,4|0,1:0|0:0,0:0:0:0:
188,208,186423,70,0,B|240:212|260:260|260:260|264:220|292:192,1,160,4|0,1:3|0:0,0:0:0:0:
284,48,186719,70,0,B|264:84|224:92|224:92|252:92|260:132,1,120.000004577637,4|0,1:0|0:0,0:0:0:0:
172,304,187114,2,0,L|100:316,1,60.0000022888184,8|0,0:3|0:0,0:0:0:0:
112,313,187311,6,0,B|72:368|72:368|112:192,1,240.000009155274,4|0,1:0|0:0,0:0:0:0:
28,96,187607,6,0,B|20:45|20:45|110:129,1,160,4|0,1:3|0:0,0:0:0:0:
232,112,187903,6,0,B|263:126|263:126|175:149,1,120.000004577637,4|0,1:0|0:0,0:0:0:0:
352,336,188298,2,0,L|424:348,1,60.0000022888184,8|0,0:3|0:0,0:0:0:0:
411,345,188496,6,0,L|420:168,1,160,0|0,1:0|0:0,0:0:0:0:
380,116,188792,1,8,0:0:0:0:
312,76,188890,1,8,0:0:0:0:
232,72,188989,1,8,0:0:0:0:
156,96,189088,1,8,0:3:0:0:
96,148,189186,1,8,0:3:0:0:
68,224,189285,5,4,1:0:0:0:
44,112,198759,6,0,L|204:92,1,160,2|0,1:2|0:0,0:0:0:0:
276,36,199055,1,2,1:2:0:0:
276,36,199153,2,0,P|296:92|280:132,1,80,0|0,1:0|0:0,0:0:0:0:
208,252,199351,2,0,P|188:196|204:156,1,80,8|0,1:2|0:0,0:0:0:0:
468,220,199548,6,0,L|268:196,1,191.999994140625,4|0,1:2|0:0,0:0:0:0:
212,148,199844,1,2,1:2:0:0:
212,148,199943,2,0,P|192:204|220:256,1,95.9999970703126,0|0,1:0|0:0,0:0:0:0:
320,368,200140,2,0,P|340:312|324:268,1,95.9999970703126,8|0,1:2|0:0,0:0:0:0:
36,360,200338,6,0,L|280:312,1,223.999993164063,4|0,1:0|0:0,0:0:0:0:
330,278,200634,2,0,P|392:331|320:368,1,192,8|12,1:3|0:0,0:0:0:0:
64,264,201324,5,4,1:0:0:0:
256,192,201423,12,0,203298,0:0:0:0:
256,192,205074,5,0,0:0:0:0:
256,192,206653,1,0,0:0:0:0:
68,316,207246,1,0,0:0:0:0:
48,92,207838,1,0,0:0:0:0:
252,340,208232,5,0,0:0:0:0:
252,340,209811,6,0,L|256:368,2,20,0|0|0,0:0|0:0|0:0,0:0:0:0:
264,188,210601,5,0,0:0:0:0:
484,168,210897,1,0,0:0:0:0:
264,188,211193,6,0,L|268:140,1,40,4|4,0:3|0:3,0:0:0:0:
276,48,211390,1,4,1:2:0:0:
276,48,211785,6,0,L|308:56,1,20,2|0,0:3|0:0,0:0:0:0:
284,60,211982,2,0,L|316:68,1,20,2|0,0:3|0:0,0:0:0:0:
468,36,212180,2,0,L|445:59,1,20,2|0,0:3|0:0,0:0:0:0:
453,36,212377,2,0,L|430:59,1,20,2|0,0:3|0:0,0:0:0:0:
392,208,212574,2,0,L|382:176,1,20,2|0,0:3|0:0,0:0:0:0:
398,195,212771,2,0,L|388:163,1,20,2|0,0:3|0:0,0:0:0:0:
104,164,212969,6,0,L|112:196,1,20,2|0,0:0|0:0,0:0:0:0:
96,172,213167,2,0,L|104:204,1,20,2|0,0:0|0:0,0:0:0:0:
236,340,213364,2,0,L|228:308,1,20,2|0,0:0|0:0,0:0:0:0:
244,332,213562,2,0,L|236:300,1,20,2|0,0:0|0:0,0:0:0:0:
236,164,213759,6,0,L|228:196,1,20,2|0,0:0|0:0,0:0:0:0:
244,172,213957,2,0,L|236:204,1,20,2|0,0:0|0:0,0:0:0:0:
104,340,214154,2,0,L|112:308,1,20,2|0,0:0|0:0,0:0:0:0:
96,332,214352,2,0,L|104:300,1,20,2|0,0:0|0:0,0:0:0:0:
252,44,214548,6,0,L|280:56,1,20,12|0,0:0|0:0,0:0:0:0:
256,60,214746,2,0,L|284:72,1,20,2|0,1:2|0:0,0:0:0:0:
468,184,214943,6,0,L|432:200,1,32,2|0,1:2|0:0,0:0:0:0:
464,200,215140,2,0,L|428:216,1,32,2|0,1:2|0:0,0:0:0:0:
248,324,215338,6,0,L|292:344,1,44.0000013427735,2|0,1:2|0:0,0:0:0:0:
252,340,215535,2,0,L|296:360,1,44.0000013427735,2|0,1:2|0:0,0:0:0:0:
80,188,215732,5,12,0:0:0:0:
64,268,215831,1,8,0:3:0:0:
52,348,215930,1,4,0:3:0:0:
371,296,216127,6,0,L|300:198,1,120.000004577637,12|0,0:0|0:0,0:0:0:0:
320,0,216324,2,0,L|271:109,1,120.000004577637,8|0,0:0|0:0,0:0:0:0:
80,188,216522,2,0,L|200:176,1,120.000004577637,8|0,0:0|0:0,0:0:0:0:
301,199,216719,6,0,P|326:243|278:229,1,128,4|0,1:0|0:0,0:0:0:0:
236,160,217607,1,2,0:0:0:0:
236,160,217706,6,0,P|176:176|216:208,1,128,8|0,1:0|0:0,0:0:0:0:
336,332,217903,1,8,0:0:0:0:
254,362,218002,2,0,B|327:397|327:397|275:221,1,256,0|0,1:0|1:0,0:0:0:0:
208,292,218298,2,0,P|184:312|172:347,1,55.9999982910157,8|0,0:0|0:0,0:0:0:0:
28,116,218496,6,0,P|92:80|168:100,1,136.000002593994,4|0,1:2|0:0,0:0:0:0:
384,144,218693,1,8,0:0:0:0:
424,64,218792,2,0,B|336:36|340:88|292:96|228:48|228:48|256:96|216:144,1,272.000005187988,0|0,1:0|1:0,0:0:0:0:
252,192,219088,2,0,P|279:186|300:168,1,55.9999982910157,8|0,0:0|0:0,0:0:0:0:
328,376,219285,6,0,B|292:372|260:328|260:328|256:368|220:396,1,143.999995605469,4|0,1:0|0:0,0:0:0:0:
88,340,219482,1,8,0:0:0:0:
32,280,219581,2,0,P|60:168|100:276,1,287.999991210938,0|0,1:0|1:0,0:0:0:0:
172,320,219877,2,0,P|192:292|200:256,1,55.9999982910157,8|0,0:0|0:0,0:0:0:0:
304,40,220074,6,0,P|280:88|308:148,1,95.9999970703126,0|0,1:0|0:0,0:0:0:0:
392,312,220272,2,0,P|416:264|388:204,1,95.9999970703126,10|0,3:2|1:0,0:0:0:0:
198,271,220469,6,0,B|224:252|256:268|256:268|292:272|328:224,1,111.999996582031,2|0,3:2|1:0,0:0:0:0:
488,68,220667,2,0,B|462:87|430:71|430:71|394:67|358:115,1,111.999996582031,8|0,0:0|0:0,0:0:0:0:
252,184,220864,6,0,P|284:140|210:153,1,128,4|0,1:0|0:0,0:0:0:0:
88,260,221061,1,8,0:0:0:0:
76,176,221160,2,0,B|32:184|12:216|12:216|-12:156|12:88|108:68,1,256,0|0,1:0|1:0,0:0:0:0:
152,140,221456,2,0,P|164:164|156:204,1,55.9999982910157,8|0,0:0|0:0,0:0:0:0:
352,368,221653,6,0,B|368:324|336:296|336:296|364:272|368:236,1,136.000002593994,4|0,1:2|0:0,0:0:0:0:
236,232,221851,1,8,0:0:0:0:
216,140,221949,2,0,B|272:136|312:184|312:184|348:156|392:168|392:168|408:124|460:112,1,272.000005187988,0|0,1:0|1:0,0:0:0:0:
480,252,222246,2,0,L|472:188,1,55.9999982910157,8|0,0:0|0:0,0:0:0:0:
292,80,222443,6,0,P|228:44|176:72,1,95.9999970703126,0|0,1:0|0:0,0:0:0:0:
16,88,222640,2,0,P|80:124|132:96,1,95.9999970703126,8|0,0:0|1:0,0:0:0:0:
226,152,222838,6,0,P|234:107|202:40,1,111.999996582031,0|0,0:0|1:0,0:0:0:0:
81,15,223035,2,0,P|73:60|105:127,1,111.999996582031,12|0,0:0|0:0,0:0:0:0:
60,272,223232,1,0,0:0:0:0:
60,272,223331,1,0,0:0:0:0:
60,272,223430,6,0,P|84:224|104:256,1,111.999996582031,10|0,0:0|1:0,0:0:0:0:
208,232,223627,2,0,P|244:280|288:248,1,120.000004577637,2|0,0:0|1:0,0:0:0:0:
384,228,223824,2,0,P|428:180|508:208,1,128,10|0,0:0|0:0,0:0:0:0:
160,72,224022,6,0,B|172:36|128:0|128:0|60:40|56:120|128:164,1,256,4|8,1:0|0:0,0:0:0:0:
184,340,224318,2,0,B|172:288|184:268|184:268|200:236|200:180|200:180|168:236|92:248,1,256,0|0,1:0|1:0,0:0:0:0:
40,332,224614,2,0,P|68:336|100:312,1,55.9999982910157,8|0,0:0|0:0,0:0:0:0:
404,152,224811,6,0,B|432:92|432:92|288:136|288:136|368:160,1,272.000005187988,4|8,1:2|0:0,0:0:0:0:
376,332,225107,2,0,P|436:348|372:260,1,272.000005187988,0|0,1:2|1:0,0:0:0:0:
296,284,225403,2,0,P|287:257|293:230,1,55.9999982910157,8|0,0:0|0:0,0:0:0:0:
104,88,225601,6,0,B|76:28|76:28|220:72|220:72|140:96,1,272.000005187988,4|8,1:0|0:0,0:0:0:0:
132,268,225897,2,0,P|72:284|136:196,1,272.000005187988,0|0,1:0|1:0,0:0:0:0:
212,220,226193,2,0,P|220:193|214:166,1,55.9999982910157,8|0,0:0|0:0,0:0:0:0:
475,195,226390,6,0,P|431:199|379:171,1,95.9999970703126,2|0,1:2|0:0,0:0:0:0:
283,226,226588,2,0,P|242:207|211:157,1,95.9999970703126,10|0,0:0|1:0,0:0:0:0:
371,363,226785,6,0,P|343:311|359:259,1,111.999996582031,2|0,0:0|1:0,0:0:0:0:
311,131,226982,2,0,P|312:71|352:34,1,111.999996582031,10|0,0:0|0:0,0:0:0:0:
224,268,227180,6,0,L|208:380,1,80,4|0,1:0|0:0,0:0:0:0:
130,339,227377,1,8,0:0:0:0:
130,339,227476,2,0,L|144:244,1,95.9999970703126,0|0,1:0|0:0,0:0:0:0:
64,220,227673,1,0,1:0:0:0:
64,220,227772,2,0,L|48:352,1,111.999996582031,8|0,0:0|0:0,0:0:0:0:
196,144,227969,6,0,P|236:124|292:136,1,80,0|0,1:0|0:0,0:0:0:0:
416,316,228167,1,8,0:0:0:0:
416,316,228265,2,0,P|370:291|352:224,1,95.9999970703126,0|0,1:0|0:0,0:0:0:0:
448,32,228463,1,8,0:0:0:0:
448,32,228561,2,0,P|448:88|410:131,1,111.999996582031,0|0,1:0|0:0,0:0:0:0:
124,132,228759,5,4,1:2:0:0:
116,140,228857,1,8,0:0:0:0:
108,148,228956,1,0,0:0:0:0:
100,152,229055,1,0,1:0:0:0:
92,160,229153,1,8,0:0:0:0:
84,168,229252,1,0,0:0:0:0:
76,176,229351,6,0,B|116:188|128:212|128:212|148:192|208:176,1,120.000004577637,10|0,0:0|1:0,0:0:0:0:
388,28,229548,2,0,B|357:56|330:55|330:55|338:82|322:142,1,120.000004577637,2|0,1:2|1:0,0:0:0:0:
360,376,229746,2,0,B|350:335|365:312|365:312|337:305|294:261,1,120.000004577637,2|0,1:2|1:0,0:0:0:0:
175,185,229943,5,8,0:3:0:0:
231,121,230042,1,8,0:3:0:0:
315,113,230140,1,8,0:0:0:0:
387,157,230239,1,8,0:0:0:0:
408,248,230338,6,0,P|372:280|340:216,1,128,8|8,1:0|0:0,0:0:0:0:
231,121,230535,1,8,0:0:0:0:
300,56,230634,2,0,B|252:20|252:20|216:104|260:168|386:141,1,256,0|0,1:0|1:0,0:0:0:0:
408,80,230930,2,0,P|392:60|388:20,1,55.9999982910157,8|0,0:0|0:0,0:0:0:0:
136,16,231127,6,0,B|152:60|188:72|188:72|144:72|132:116,1,136.000002593994,4|0,1:2|0:0,0:0:0:0:
92,264,231324,1,8,0:0:0:0:
16,232,231423,2,0,B|32:188|68:168|108:172|108:172|140:212|180:220|180:220|212:188|180:120,1,272.000005187988,0|0,1:0|1:0,0:0:0:0:
264,112,231719,2,0,P|284:144|272:168,1,55.9999982910157,8|0,0:0|0:0,0:0:0:0:
88,368,231917,6,0,P|160:372|144:312,1,143.999995605469,4|0,1:0|0:0,0:0:0:0:
355,208,232114,1,8,0:0:0:0:
283,252,232213,2,0,B|247:256|215:220|215:220|223:288|259:328|259:328|291:332|351:284,1,287.999991210938,0|0,1:0|1:0,0:0:0:0:
427,284,232509,2,0,P|431:316|407:340,1,55.9999982910157,8|0,0:0|0:0,0:0:0:0:
56,248,232706,6,0,P|112:264|168:208,1,120.000004577637,0|0,1:0|0:0,0:0:0:0:
448,96,232903,2,0,P|392:112|336:56,1,120.000004577637,10|0,3:2|1:0,0:0:0:0:
36,24,233101,38,0,B|96:84|96:84|212:84,1,160,2|0,3:2|1:0,0:0:0:0:
500,200,233298,2,0,B|418:221|418:221|317:163,1,160,10|0,0:0|0:0,0:0:0:0:
32,308,233496,6,0,B|120:368|120:368|220:316|220:316|152:240|152:240|128:296,1,368.000007019043,4|8,1:0|0:0,0:0:0:0:
306,298,233792,2,0,B|368:256|368:256|391:205|391:205|443:229|443:229|511:223,1,256,0|0,1:0|1:0,0:0:0:0:
452,360,234088,2,0,L|428:300,1,55.9999982910157,8|0,0:0|0:0,0:0:0:0:
236,108,234285,6,0,P|176:196|284:160,1,256,4|8,1:2|0:0,0:0:0:0:
500,140,234581,2,0,B|464:152|428:132|428:132|396:148|372:188|372:188|364:124|288:84,1,256,0|0,1:0|1:0,0:0:0:0:
276,32,234877,2,0,P|304:20|352:28,1,55.9999982910157,8|0,0:0|0:0,0:0:0:0:
192,152,235074,54,0,L|180:44,1,95.9999970703126,4|0,1:2|0:0,0:0:0:0:
320,232,235272,2,0,L|332:340,1,95.9999970703126,8|0,0:0|1:0,0:0:0:0:
100,304,235469,6,0,B|128:288|164:296|164:296|212:256,1,111.999996582031,0|0,0:0|1:0,0:0:0:0:
412,80,235667,2,0,B|384:96|348:88|348:88|300:128,1,111.999996582031,8|0,0:0|0:0,0:0:0:0:
56,160,235864,1,0,1:0:0:0:
56,160,235963,1,0,0:0:0:0:
56,160,236061,6,0,P|88:184|148:168,1,80,8|0,0:0|0:0,0:0:0:0:
212,208,236259,2,0,P|216:164|184:124,1,71.9999978027344,8|0,0:0|0:0,0:0:0:0:
172,60,236456,2,0,P|137:76|116:124,1,64,8|0,0:0|0:0,0:0:0:0:
164,324,236653,6,0,B|228:336|280:276|280:276|304:360|388:344,1,256,4|8,1:0|0:0,0:0:0:0:
400,176,236949,2,0,B|344:136|344:136|372:268,1,191.999994140625,0|0,1:0|1:0,0:0:0:0:
456,240,237246,2,0,P|484:208|484:160,1,80,8|0,0:0|0:0,0:0:0:0:
264,36,237443,6,0,P|218:52|170:121,1,95.9999970703126,0|0,1:0|0:0,0:0:0:0:
40,140,237640,1,8,0:0:0:0:
40,140,237739,2,0,P|85:157|112:208,1,80,0|0,1:0|0:0,0:0:0:0:
200,248,237936,1,0,1:0:0:0:
200,248,238035,2,0,P|168:276|164:320,1,64,8|0,0:0|0:0,0:0:0:0:
68,340,238232,102,0,B|180:264|236:428|348:312,1,256,4|8,1:2|0:0,0:0:0:0:
308,176,238528,2,0,P|244:168|284:260,1,191.999994140625,0|0,1:0|1:0,0:0:0:0:
356,256,238824,2,0,P|388:232|396:172,1,80,8|0,0:0|0:0,0:0:0:0:
372,100,239022,1,0,1:0:0:0:
124,88,239219,6,0,P|76:92|40:40,1,95.9999970703126,10|0,3:2|0:0,0:0:0:0:
44,60,239417,2,0,P|92:56|128:108,1,95.9999970703126,10|0,3:2|0:0,0:0:0:0:
123,87,239614,6,0,B|72:108|72:108|36:48,1,111.999996582031,10|0,3:2|0:0,0:0:0:0:
43,59,239811,2,0,B|94:38|94:38|130:98,1,111.999996582031,4|0,3:1|0:0,0:0:0:0:
136,180,240009,1,8,0:0:0:0:
136,180,240107,6,0,L|340:156,1,191.999994140625,0|0,1:0|1:0,0:0:0:0:
492,120,240403,2,0,P|486:73|449:44,1,95.9999970703126,8|0,0:0|0:0,0:0:0:0:
410,120,240601,6,0,L|400:216,1,95.9999970703126,0|0,1:0|0:0,0:0:0:0:
296,348,240798,1,8,0:0:0:0:
296,348,240897,2,0,L|306:244,1,103.999995239258,0|0,1:0|0:0,0:0:0:0:
228,88,241094,1,0,1:0:0:0:
228,88,241193,2,0,L|216:212,1,111.999996582031,8|0,0:0|0:0,0:0:0:0:
128,344,241390,6,0,P|64:356|136:284,1,256,4|8,1:2|0:0,0:0:0:0:
208,300,241686,2,0,L|216:380,1,55.9999982910157,8|0,0:3|0:0,0:0:0:0:
296,348,241884,1,8,0:0:0:0:
296,348,241982,2,0,L|290:292,1,55.9999982910157,8|4,0:3|0:3,0:0:0:0:
272,136,242180,5,0,1:0:0:0:
268,96,242278,2,0,L|262:40,2,55.9999982910157,8|4|0,0:3|0:3|1:0,0:0:0:0:
356,201,242574,2,0,L|412:196,1,55.9999982910157,4|0,0:3|0:0,0:0:0:0:
211,218,242772,2,0,L|156:224,1,55.9999982910157,0|0,1:0|0:0,0:0:0:0:
68,156,242969,21,4,1:0:0:0:
72,136,243167,1,0,1:0:0:0:
76,116,243364,1,0,1:0:0:0:
80,96,243561,1,0,1:0:0:0:
84,76,243759,1,0,1:0:0:0:
88,56,243956,1,0,1:0:0:0:
92,36,244153,1,0,1:0:0:0:
96,16,244351,6,0,L|156:20,1,55.9999982910157,10|10,3:2|3:2,0:0:0:0:
296,40,244548,21,4,1:0:0:0:
292,60,244746,1,2,1:2:0:0:
288,80,244943,1,2,1:2:0:0:
284,100,245140,1,2,1:2:0:0:
280,120,245338,1,2,1:2:0:0:
276,140,245535,1,2,1:2:0:0:
272,160,245732,1,2,1:2:0:0:
268,180,245930,6,0,L|168:164,1,80,10|10,3:2|3:2,0:0:0:0:
80,144,246127,5,4,1:0:0:0:
84,176,246324,1,4,1:3:0:0:
88,208,246522,1,4,1:3:0:0:
92,240,246719,1,4,1:3:0:0:
96,272,246917,5,4,1:3:0:0:
240,340,247114,1,4,1:3:0:0:
376,256,247311,1,4,1:3:0:0:
420,92,247509,6,0,P|356:80|292:120,2,120.000004577637,14|0|0,3:2|0:0|0:0,0:0:0:0:
256,192,249285,12,4,250864,0:0:0:0:
