osu file format v14

[General]
AudioFilename: audio.mp3
AudioLeadIn: 0
PreviewTime: -1
Countdown: 0
SampleSet: None
StackLeniency: 0.7
Mode: 0
LetterboxInBreaks: 0
WidescreenStoryboard: 0

[Editor]
DistanceSpacing: 1.6
BeatDivisor: 4
GridSize: 32
TimelineZoom: 1

[Metadata]
Title:Shikioriori ni Tayutoite
TitleUnicode:四季折々に揺蕩いて
Artist:After the Rain
ArtistUnicode:After the Rain
Creator:William K
Version:Four Seasons
Source:
Tags:mafumafu soraru
BeatmapID:1781295
BeatmapSetID:852164

[Difficulty]
HPDrainRate:5
CircleSize:4
OverallDifficulty:8.6
ApproachRate:9.3
SliderMultiplier:3.3
SliderTickRate:1

[Events]
//Background and Video events
0,0,"Untitled.png",0,0
//Break Periods
//Storyboard Layer 0 (Background)
//Storyboard Layer 1 (Fail)
//Storyboard Layer 2 (Pass)
//Storyboard Layer 3 (Foreground)
//Storyboard Sound Samples

[TimingPoints]
23113,394.736842105263,4,1,0,25,1,0
23113,-125,4,1,0,25,0,0
23310,-111.111111111111,4,1,0,25,0,0
23509.5789473684,394.736842105263,4,1,0,25,1,0
37720,-250,4,1,0,25,0,0
48772,-125,4,1,0,25,0,0
50351,-166.666666666667,4,1,0,25,0,0
62983,-200,4,1,0,25,0,0
63772,-125,4,1,0,25,0,0
64562,-200,4,1,0,25,0,0
65351,-125,4,1,0,25,0,0
66141,-200,4,1,0,25,0,0
66930,-125,4,1,0,25,0,0
67325,-200,4,1,0,25,0,0
67720,-125,4,1,0,25,0,0
68114,-200,4,1,0,25,0,0
68509,-125,4,1,0,25,0,0
75614,-100,4,1,0,25,0,1
100877,-100,4,1,0,25,0,0

[Colours]
Combo1 : 255,255,193
Combo2 : 255,217,179
Combo3 : 174,174,255
Combo4 : 250,160,174

[HitObjects]
98,64,23113,6,0,L|86:151,1,66
176,195,23310,2,0,L|164:108,1,74.2499977340699
20,164,23507,6,0,L|30:237,1,74.2499977340699
168,288,23706,2,0,L|178:214,1,74.2499977340699
87,302,23904,1,0,0:0:0:0:
87,302,24002,1,0,0:0:0:0:
87,302,24101,2,0,P|109:349|184:363,1,82.5
241,298,24299,2,0,L|167:287,1,74.2499977340699
165,121,24496,2,0,L|238:110,1,74.2499977340699
321,291,24693,2,0,P|316:331|290:362,1,82.5
319,119,24891,2,0,P|314:78|288:47,1,82.5
272,223,25088,6,0,P|329:209|402:298,1,165
472,323,25384,1,0,0:0:0:0:
472,323,25483,2,0,P|482:273|458:213,1,82.5
403,195,25680,2,0,P|393:234|400:275,1,82.5
475,156,25877,2,0,P|485:106|461:46,1,82.5
336,151,26075,2,0,P|365:179|403:194,1,82.5
409,33,26272,2,0,P|369:44|337:69,1,82.5
197,143,26470,2,0,P|236:131|268:106,1,82.5
133,18,26667,6,0,P|194:57|176:167,1,165
47,114,26963,1,0,0:0:0:0:
47,114,27062,2,0,B|84:97|84:97|137:102,1,82.5
115,263,27259,2,0,L|95:158,1,82.5
203,224,27456,2,0,L|187:305,1,82.5
45,325,27654,2,0,L|25:220,1,82.5
122,358,27851,2,0,P|161:385|225:373,1,82.5
259,276,28049,2,0,P|218:279|186:304,1,82.5
321,384,28246,6,0,L|341:279,1,82.5
305,138,28443,2,0,L|320:219,1,82.5
427,326,28641,1,0,0:0:0:0:
480,262,28739,1,0,0:0:0:0:
448,187,28838,2,0,P|414:210|398:248,1,82.5
259,276,29035,2,0,P|242:238|209:214,1,82.5
98,304,29233,2,0,P|135:287|176:292,1,82.5
260,149,29430,2,0,P|223:132|182:137,1,82.5
16,315,29627,2,0,P|19:274|44:241,1,82.5
320,219,29825,6,0,B|412:189|388:270|489:229,1,165
445,159,30121,1,0,0:0:0:0:
445,159,30220,2,0,L|428:64,1,82.5
355,301,30417,2,0,L|340:382,1,82.5
270,287,30614,2,0,P|242:274|158:284,1,82.5
73,277,30812,2,0,P|105:252|126:217,1,82.5
179,112,31009,2,0,P|184:152|205:188,1,82.5
217,347,31206,2,0,P|211:306|190:270,1,82.5
104,77,31404,6,0,L|23:60,1,82.5
169,30,31601,1,0,0:0:0:0:
179,112,31700,2,0,L|259:95,1,82.5
113,160,31897,1,0,0:0:0:0:
39,122,31996,2,0,P|65:91|104:77,1,82.5
117,242,32193,2,0,P|76:234|45:208,1,82.5
309,161,32391,5,0,0:0:0:0:
338,239,32489,1,0,0:0:0:0:
272,290,32588,1,0,0:0:0:0:
202,243,32687,1,0,0:0:0:0:
226,165,32785,2,0,L|333:160,1,82.5
512,346,32983,6,0,L|338:319,1,165
272,290,33279,1,0,0:0:0:0:
272,290,33377,2,0,P|267:336|303:387,1,82.5
387,172,33575,2,0,P|392:126|356:75,1,82.5
175,27,33772,5,0,0:0:0:0:
101,64,33871,1,0,0:0:0:0:
113,145,33970,1,0,0:0:0:0:
194,158,34068,1,0,0:0:0:0:
234,86,34167,2,0,L|211:-24,1,82.5
35,117,34364,2,0,L|-14:109,2,41.25
277,158,34562,5,0,0:0:0:0:
346,109,34660,1,0,0:0:0:0:
413,159,34759,1,0,0:0:0:0:
386,238,34858,1,0,0:0:0:0:
302,236,34956,1,0,0:0:0:0:
258,307,35055,1,0,0:0:0:0:
298,380,35154,1,0,0:0:0:0:
382,382,35252,1,0,0:0:0:0:
427,312,35351,2,0,P|380:298|332:320,1,82.5
19,384,35549,5,0,0:0:0:0:
256,192,35647,12,0,37325,0:0:0:0:
98,85,37720,6,0,P|89:127|111:173,1,66
169,187,38114,2,0,P|178:145|156:99,1,66
96,232,38509,2,0,B|126:307|70:280|104:372,1,132
25,269,39101,1,0,0:0:0:0:
170,324,39299,6,0,L|266:310,1,66
231,233,39693,2,0,L|327:247,1,66
251,342,40088,2,0,L|347:328,1,66
379,231,40483,1,0,0:0:0:0:
399,313,40680,1,0,0:0:0:0:
399,313,40779,1,0,0:0:0:0:
399,313,40877,6,0,P|443:283|448:194,1,132
379,231,41470,1,0,0:0:0:0:
278,139,41667,2,0,P|261:97|265:56,1,66
344,82,41963,1,0,0:0:0:0:
344,82,42062,2,0,P|361:124|357:165,1,66
236,218,42456,5,0,0:0:0:0:
236,218,42654,1,0,0:0:0:0:
173,163,42851,1,0,0:0:0:0:
173,163,43049,1,0,0:0:0:0:
121,228,43246,1,0,0:0:0:0:
121,228,43443,2,0,L|136:278,2,33
91,149,43838,1,0,0:0:0:0:
236,218,44035,6,0,L|226:307,1,66
311,168,44430,2,0,L|321:257,1,66
233,75,44825,2,0,L|215:235,1,132
316,81,45417,1,0,0:0:0:0:
163,36,45614,5,0,0:0:0:0:
285,6,45812,1,0,0:0:0:0:
163,36,46009,2,0,L|96:20,1,66
2,46,46404,2,0,P|47:79|37:163,1,132
20,277,46996,1,0,0:0:0:0:
24,264,47095,1,0,0:0:0:0:
33,253,47193,6,0,P|68:235|154:280,1,132
202,332,47785,1,0,0:0:0:0:
272,240,47983,2,0,P|266:188|252:152,1,66
285,320,48377,2,0,P|286:352|294:384,1,66
354,273,48772,5,0,0:0:0:0:
99,204,48970,1,0,0:0:0:0:
292,143,49167,2,0,B|345:132|345:132|369:143|369:143|468:129,1,132
391,61,49463,1,0,0:0:0:0:
391,61,49562,2,0,L|383:-10,1,66
501,123,49759,2,0,L|493:188,1,66
253,215,49956,5,0,0:0:0:0:
228,192,50054,1,0,0:0:0:0:
215,162,50153,1,0,0:0:0:0:
214,130,50252,1,0,0:0:0:0:
225,99,50350,5,0,0:0:0:0:
278,293,50549,1,0,0:0:0:0:
305,142,50746,5,0,0:0:0:0:
223,359,50943,1,0,0:0:0:0:
356,210,51141,2,0,P|385:164|305:57,1,197.99999395752
305,142,51733,1,0,0:0:0:0:
386,297,51930,6,0,P|343:288|277:280,1,98.9999969787599
152,334,52325,1,0,0:0:0:0:
152,334,52424,1,0,0:0:0:0:
152,334,52522,2,0,B|76:291|101:370|3:330,1,148.49999546814
45,265,52917,2,0,P|31:240|3:210,2,49.4999984893799
91,89,53312,1,0,0:0:0:0:
244,205,53509,5,0,0:0:0:0:
196,40,53706,2,0,P|151:19|103:6,1,98.9999969787599
166,234,54101,1,0,0:0:0:0:
272,86,54299,2,0,P|316:65|364:52,1,98.9999969787599
382,63,54595,1,0,0:0:0:0:
382,63,54693,1,0,0:0:0:0:
197,129,54891,1,0,0:0:0:0:
415,173,55088,5,0,0:0:0:0:
288,276,55285,1,0,0:0:0:0:
378,298,55483,1,0,0:0:0:0:
378,298,55581,1,0,0:0:0:0:
378,298,55680,2,0,P|332:355|244:349,1,148.49999546814
288,276,56075,2,0,P|268:225|258:217,1,49.4999984893799
189,325,56272,1,0,0:0:0:0:
168,338,56370,1,0,0:0:0:0:
143,342,56469,1,0,0:0:0:0:
119,337,56568,1,0,0:0:0:0:
99,324,56666,5,0,0:0:0:0:
121,137,56864,1,0,0:0:0:0:
141,237,57062,5,0,0:0:0:0:
79,46,57259,1,0,0:0:0:0:
49,244,57456,5,0,0:0:0:0:
175,55,57654,1,0,0:0:0:0:
225,247,57851,5,0,0:0:0:0:
36,158,58049,1,0,0:0:0:0:
265,165,58246,5,0,0:0:0:0:
49,244,58443,1,0,0:0:0:0:
363,253,58641,6,0,L|270:228,1,49.4999984893799
116,126,58838,1,0,0:0:0:0:
328,97,59035,5,0,0:0:0:0:
183,178,59233,1,0,0:0:0:0:
373,166,59430,5,0,0:0:0:0:
205,93,59627,1,0,0:0:0:0:
441,115,59825,5,0,0:0:0:0:
354,341,60022,1,0,0:0:0:0:
250,225,60220,5,0,0:0:0:0:
451,195,60417,1,0,0:0:0:0:
430,367,60614,5,0,0:0:0:0:
304,158,60812,1,0,0:0:0:0:
496,311,61009,5,0,0:0:0:0:
277,305,61206,1,0,0:0:0:0:
372,72,61404,5,0,0:0:0:0:
217,369,61700,5,0,0:0:0:0:
38,87,61996,5,0,0:0:0:0:
304,158,62193,1,0,0:0:0:0:
38,87,62391,2,0,B|121:66|93:141|183:115,1,148.49999546814
159,41,62785,1,0,0:0:0:0:
52,166,62983,6,0,P|76:227|87:310,2,123.75
2,295,63772,6,0,P|36:351|162:315,1,198
248,161,64364,1,0,0:0:0:0:
240,170,64463,1,0,0:0:0:0:
236,181,64562,6,0,P|279:201|363:152,2,123.75
337,95,65351,6,0,P|409:126|370:255,1,198
298,353,65943,1,0,0:0:0:0:
236,181,66141,6,0,P|215:117|180:63,2,123.75
109,87,66930,6,0,P|120:22|255:31,1,198
245,24,67325,6,0,L|338:14,1,82.5
324,177,67720,6,0,P|335:112|412:78,1,132
404,156,68016,1,0,0:0:0:0:
404,156,68114,6,0,P|390:226|389:275,1,82.5
302,363,68509,6,0,P|294:306|254:236,1,132
240,227,68805,1,0,0:0:0:0:
240,227,68904,1,0,0:0:0:0:
486,301,69101,1,0,0:0:0:0:
466,315,69200,1,0,0:0:0:0:
436,312,69299,5,0,0:0:0:0:
441,108,69496,1,0,0:0:0:0:
360,364,69693,5,0,0:0:0:0:
297,175,69891,1,0,0:0:0:0:
445,226,70088,5,0,0:0:0:0:
480,25,70285,1,0,0:0:0:0:
328,272,70483,5,0,0:0:0:0:
266,91,70680,1,0,0:0:0:0:
85,295,70877,5,0,0:0:0:0:
242,331,71075,1,0,0:0:0:0:
26,229,71272,5,0,0:0:0:0:
232,178,71470,1,0,0:0:0:0:
24,357,71667,5,0,0:0:0:0:
305,378,71864,1,0,0:0:0:0:
106,151,72062,5,0,0:0:0:0:
338,93,72259,1,0,0:0:0:0:
85,295,72456,5,0,0:0:0:0:
383,204,72654,1,0,0:0:0:0:
27,140,72851,5,0,0:0:0:0:
394,323,73049,1,0,0:0:0:0:
97,39,73246,5,0,0:0:0:0:
305,378,73443,1,0,0:0:0:0:
191,0,73641,5,0,0:0:0:0:
103,380,73838,1,0,0:0:0:0:
284,39,74035,5,0,0:0:0:0:
313,24,74133,1,0,0:0:0:0:
345,23,74232,1,0,0:0:0:0:
376,35,74331,1,0,0:0:0:0:
398,60,74429,1,0,0:0:0:0:
420,85,74528,1,0,0:0:0:0:
451,97,74627,1,0,0:0:0:0:
483,96,74726,1,0,0:0:0:0:
468,15,74824,5,0,0:0:0:0:
471,297,75614,6,0,B|420:322|384:300|384:300|375:254|305:231,1,165
225,310,75910,1,0,0:0:0:0:
225,310,76009,2,0,P|268:327|314:307,1,82.5
366,168,76206,2,0,P|359:122|318:92,1,82.5
260,230,76404,6,0,B|206:220|206:220|168:240|168:240|86:216,1,165
145,78,76700,1,0,0:0:0:0:
145,78,76799,2,0,B|168:116|168:116|151:176,1,82.5
112,301,76996,2,0,B|67:301|67:301|24:257,1,82.5
76,30,77193,6,0,B|173:14|134:83|254:58,1,165
374,0,77489,1,0,0:0:0:0:
374,0,77588,2,0,P|331:11|303:65,1,82.5
309,182,77785,2,0,P|269:174|241:144,1,82.5
456,24,77983,6,0,L|431:151,1,82.5
324,262,78180,2,0,L|308:181,1,82.5
485,202,78377,2,0,L|366:186,1,82.5
279,357,78575,2,0,L|398:341,1,82.5
340,104,78772,6,0,B|280:97|280:97|249:130|249:130|163:113,1,165
140,48,79068,1,0,0:0:0:0:
140,48,79167,2,0,B|179:30|179:30|248:46,1,82.5
308,181,79364,2,0,B|304:223|304:223|255:275,1,82.5
74,275,79562,6,0,B|102:223|102:223|221:201,1,165
280,338,79858,1,0,0:0:0:0:
280,338,79956,2,0,P|228:322|202:272,1,82.5
379,137,80154,2,0,P|391:190|360:237,1,82.5
135,162,80351,6,0,P|174:124|231:127,1,82.5
280,338,80549,2,0,P|228:322|202:272,1,82.5
202,41,80746,2,0,P|254:56|280:107,1,82.5
277,252,80943,2,0,B|183:223|216:318|76:271,1,165
123,128,81239,1,0,0:0:0:0:
123,128,81338,2,0,P|144:164|129:230,1,82.5
202,41,81535,2,0,P|254:56|280:107,1,82.5
37,50,81733,2,0,P|20:88|-42:113,1,82.5
239,153,81930,6,0,B|335:188|301:95|424:142,1,165
451,231,82226,1,0,0:0:0:0:
451,231,82325,2,0,P|380:216|361:190,1,82.5
271,77,82522,2,0,P|319:23|351:19,1,82.5
300,240,82720,6,0,B|280:285|301:321|301:321|350:331|365:392,1,165
219,331,83016,1,0,0:0:0:0:
219,331,83114,2,0,P|207:270|219:229,1,82.5
423,324,83312,2,0,P|376:364|334:375,1,82.5
155,180,83509,6,0,B|219:163|219:163|251:179|251:179|369:146,1,165
263,16,83805,1,0,0:0:0:0:
263,16,83904,2,0,B|243:54|243:54|261:108,1,82.5
202,326,84101,2,0,B|222:288|222:288|204:234,1,82.5
109,101,84299,6,0,L|6:80,1,82.5
133,281,84496,2,0,L|30:302,1,82.5
178,30,84693,2,0,L|75:9,1,82.5
282,309,84891,2,0,L|201:325,1,82.5
247,92,85088,6,0,B|340:70|302:154|418:120,1,165
456,22,85384,1,0,0:0:0:0:
456,22,85483,2,0,L|368:50,1,82.5
183,141,85680,2,0,P|223:173|271:169,1,82.5
470,157,85877,6,0,P|444:188|405:200,1,82.5
241,14,86075,2,0,P|233:64|260:104,1,82.5
412,279,86272,2,0,P|371:273|342:245,1,82.5
377,5,86470,2,0,P|329:23|308:67,1,82.5
294,312,86667,5,0,0:0:0:0:
229,262,86766,1,0,0:0:0:0:
174,323,86864,2,0,L|62:298,1,82.5
165,153,87062,2,0,L|140:265,1,82.5
54,106,87259,2,0,L|71:186,1,82.5
357,372,87456,5,0,0:0:0:0:
432,337,87555,1,0,0:0:0:0:
439,254,87654,1,0,0:0:0:0:
371,206,87752,1,0,0:0:0:0:
281,248,87851,1,0,0:0:0:0:
213,175,87950,1,0,0:0:0:0:
261,86,88049,1,0,0:0:0:0:
358,106,88147,1,0,0:0:0:0:
371,206,88246,6,0,B|399:292|310:258|358:402,1,165
503,342,88542,1,0,0:0:0:0:
503,342,88641,2,0,P|480:348|421:328,1,82.5
208,227,88838,2,0,P|245:243|285:237,1,82.5
355,35,89035,6,0,B|389:74|377:120|377:120|326:112|290:171,1,165
371,206,89331,1,0,0:0:0:0:
371,206,89430,2,0,P|410:201|457:154,1,82.5
355,35,89627,2,0,L|255:24,1,82.5
135,271,89825,6,0,B|120:222|120:222|140:178|140:178|114:101,1,165
213,232,90121,1,0,0:0:0:0:
213,232,90220,2,0,B|251:241|251:241|307:217,1,82.5
151,44,90417,2,0,B|124:72|124:72|116:132,1,82.5
339,288,90614,6,0,B|365:259|365:259|373:199,1,82.5
217,87,90812,2,0,B|228:124|228:124|276:160,1,82.5
465,131,91009,2,0,B|427:122|427:122|371:146,1,82.5
213,232,91206,2,0,B|251:241|251:241|307:217,1,82.5
310,42,91404,6,0,B|221:4|254:87|117:32,1,165
82,194,91700,1,0,0:0:0:0:
44,119,91799,2,0,P|87:110|141:135,1,82.5
38,264,91996,2,0,P|8:231|3:171,1,82.5
150,43,92193,6,0,P|196:83|160:196,1,165
129,333,92489,1,0,0:0:0:0:
212,316,92588,2,0,P|190:274|129:251,1,82.5
308,168,92785,2,0,P|274:191|257:228,1,82.5
362,327,92983,6,0,L|342:246,1,82.5
414,100,93180,2,0,L|394:180,1,82.5
234,109,93377,2,0,L|214:28,1,82.5
477,42,93575,2,0,P|419:79|339:0,1,165
479,148,93871,1,0,0:0:0:0:
479,148,93970,6,0,P|500:197|490:242,1,82.5
342,246,94167,2,0,P|310:288|266:302,1,82.5
187,176,94364,2,0,P|147:173|112:152,1,82.5
165,12,94562,6,0,L|192:204,1,165
260,135,94858,1,0,0:0:0:0:
324,189,94956,2,0,L|288:320,1,82.5
128,231,95154,2,0,L|164:362,1,82.5
260,135,95351,6,0,P|301:107|352:108,1,82.5
365,316,95549,2,0,P|320:294|295:249,1,82.5
470,135,95746,2,0,P|473:184|447:228,1,82.5
344,21,95943,2,0,P|388:42|413:87,1,82.5
446,352,96141,6,0,B|344:307|379:398|236:334,1,165
179,302,96437,1,0,0:0:0:0:
237,241,96535,2,0,L|332:281,1,82.5
122,358,96733,2,0,L|27:318,1,82.5
128,139,96930,6,0,L|166:262,1,82.5
311,95,97127,2,0,L|273:218,1,82.5
117,55,97325,2,0,P|81:69|42:147,1,82.5
322,13,97522,2,0,P|358:27|397:105,1,82.5
420,230,97720,6,0,B|327:197|357:289|227:239,1,165
360,383,98016,1,0,0:0:0:0:
441,368,98114,2,0,P|421:325|368:301,1,82.5
334,111,98312,2,0,P|314:154|261:178,1,82.5
122,368,98509,5,0,0:0:0:0:
167,300,98608,1,0,0:0:0:0:
119,234,98706,2,0,L|-31:213,1,82.5
143,80,98904,1,0,0:0:0:0:
180,178,99002,1,0,0:0:0:0:
285,172,99101,1,0,0:0:0:0:
312,70,99200,1,0,0:0:0:0:
226,14,99299,5,0,0:0:0:0:
122,368,99496,5,0,0:0:0:0:
450,213,99693,5,0,0:0:0:0:
122,368,100088,5,0,0:0:0:0:
201,142,100384,5,0,0:0:0:0:
357,323,100680,5,0,0:0:0:0:
226,277,100877,5,0,0:0:0:0:
256,192,100976,12,0,102456,0:0:0:0:
